<?xml version="1.0" standalone="no"?>
<!DOCTYPE svg PUBLIC "-//W3C//DTD SVG 1.1//EN" "http://www.w3.org/Graphics/SVG/1.1/DTD/svg11.dtd" >
<svg xmlns="http://www.w3.org/2000/svg" xmlns:xlink="http://www.w3.org/1999/xlink" version="1.1">
<metadata>
Created by FontForge 20190801 at Thu Mar 26 13:18:12 2020
 By Jimmy Wärting
Copyright \(c\) 2019 by Briefcase Type Foundry. All rights reserved.
</metadata>
<defs>
<font id="BCOrion-Italic" horiz-adv-x="0" >
  <font-face 
    font-family="BC Orion"
    font-weight="500"
    font-style="italic"
    font-stretch="normal"
    units-per-em="1000"
    panose-1="0 0 6 0 0 0 0 0 0 0"
    ascent="800"
    descent="-200"
    x-height="530"
    cap-height="700"
    bbox="-754 -240 1440 990"
    underline-thickness="50"
    underline-position="-100"
    slope="-11"
    stemh="162"
    stemv="302"
    unicode-range="U+000D-FB02"
  />
<missing-glyph horiz-adv-x="760" 
 />
    <glyph glyph-name="f_f" unicode="ff" horiz-adv-x="1005" 
d="M1002 574c-82 0 -110 -38 -117 -76l-5 -28h150l-26 -132h-150l-66 -338h-262l66 338h-191l-66 -338h-262l66 338h-115l26 132h115l6 33c31 157 185 217 333 217c43 0 97 -5 119 -14l-27 -135c-13 2 -34 3 -47 3c-82 0 -110 -38 -117 -76l-5 -28h191l6 33
c31 157 185 217 333 217c43 0 97 -5 119 -14l-27 -135c-13 2 -34 3 -47 3z" />
    <glyph glyph-name="f_i" unicode="fi" horiz-adv-x="864" 
d="M809 781c86 0 122 -37 122 -84c0 -75 -67 -127 -163 -127c-87 0 -123 38 -123 85c0 75 67 126 164 126zM551 338h-150l-66 -338h-262l66 338h-115l26 132h115l6 33c31 157 185 217 333 217c43 0 97 -5 119 -14l-27 -135c-13 2 -34 3 -47 3c-82 0 -110 -38 -117 -76
l-5 -28h150zM526 0l103 530h262l-103 -530h-262z" />
    <glyph glyph-name="fl" unicode="fl" horiz-adv-x="865" 
d="M73 0l66 338h-115l26 132h115l6 33c28 153 177 217 409 217c113 0 223 -16 337 -60l-129 -660h-262l110 563c-22 6 -53 11 -84 11c-86 0 -113 -37 -120 -76l-5 -28h150l-26 -132h-150l-66 -338h-262z" />
    <glyph glyph-name=".notdef" horiz-adv-x="760" 
 />
    <glyph glyph-name="CR" unicode="&#xd;" horiz-adv-x="640" 
 />
    <glyph glyph-name="space" unicode=" " horiz-adv-x="410" 
 />
    <glyph glyph-name="A" unicode="A" horiz-adv-x="947" 
d="M550 0l-20 144h-255l-74 -144h-248l406 700h395l136 -700h-340zM358 306h151l-32 233z" />
    <glyph glyph-name="Aacute" unicode="&#xc1;" horiz-adv-x="947" 
d="M881 960l-211 -210h-236l141 210h306zM550 0l-20 144h-255l-74 -144h-248l406 700h395l136 -700h-340zM358 306h151l-32 233z" />
    <glyph glyph-name="Abreve" unicode="&#x102;" horiz-adv-x="947" 
d="M566 740c-185 0 -270 64 -240 220h216c-23 -91 0 -120 44 -120c45 0 77 29 90 120h216c-31 -161 -147 -220 -326 -220zM359 700h395l136 -700h-340l-20 144h-255l-74 -144h-248zM358 306h151l-32 233z" />
    <glyph glyph-name="Acircumflex" unicode="&#xc2;" horiz-adv-x="947" 
d="M592 876l-123 -126h-221l185 210h352l103 -210h-221zM550 0l-20 144h-255l-74 -144h-248l406 700h395l136 -700h-340zM358 306h151l-32 233z" />
    <glyph glyph-name="Adieresis" unicode="&#xc4;" horiz-adv-x="947" 
d="M404 740c-80 0 -113 39 -113 89c0 83 65 141 158 141c79 0 112 -40 112 -90c0 -81 -65 -140 -157 -140zM729 740c-80 0 -113 39 -113 89c0 83 65 141 158 141c79 0 112 -40 112 -90c0 -81 -65 -140 -157 -140zM550 0l-20 144h-255l-74 -144h-248l406 700h395l136 -700
h-340zM358 306h151l-32 233z" />
    <glyph glyph-name="Agrave" unicode="&#xc0;" horiz-adv-x="947" 
d="M712 750h-236l-129 210h306zM550 0l-20 144h-255l-74 -144h-248l406 700h395l136 -700h-340zM358 306h151l-32 233z" />
    <glyph glyph-name="Amacron" unicode="&#x100;" horiz-adv-x="947" 
d="M841 935l-32 -165h-475l32 165h475zM550 0l-20 144h-255l-74 -144h-248l406 700h395l136 -700h-340zM358 306h151l-32 233z" />
    <glyph glyph-name="Aogonek" unicode="&#x104;" horiz-adv-x="947" 
d="M800 0c-39 -28 -65 -59 -65 -84c0 -20 21 -26 55 -19l-21 -108c-38 -20 -98 -29 -144 -29c-87 0 -143 29 -143 84c0 72 85 135 206 156h-138l-20 144h-255l-74 -144h-248l406 700h395l136 -700h-90zM358 306h151l-32 233z" />
    <glyph glyph-name="Aring" unicode="&#xc5;" horiz-adv-x="947" 
d="M566 740c-134 0 -211 39 -211 106c0 88 101 144 259 144c136 0 211 -39 211 -106c0 -88 -100 -144 -259 -144zM601 916c-40 0 -67 -25 -67 -65c0 -24 17 -37 47 -37c38 0 64 26 64 65c0 24 -16 37 -44 37zM550 0l-20 144h-255l-74 -144h-248l406 700h395l136 -700h-340z
M358 306h151l-32 233z" />
    <glyph glyph-name="Atilde" unicode="&#xc3;" horiz-adv-x="947" 
d="M482 794c-29 0 -43 -10 -50 -44h-120l3 15c26 134 110 195 199 195c91 0 142 -54 178 -54c28 0 43 27 50 27h112c-27 -131 -105 -193 -199 -193c-81 0 -137 54 -173 54zM854 935l3 -2h-3v2zM550 0l-20 144h-255l-74 -144h-248l406 700h395l136 -700h-340zM358 306h151
l-32 233z" />
    <glyph glyph-name="AE" unicode="&#xc6;" horiz-adv-x="1279" 
d="M1312 538h-390l-21 -107h390l-32 -162h-390l-21 -107h390l-31 -162h-692l28 144h-234l-113 -144h-248l563 700h832zM436 306h138l46 233z" />
    <glyph glyph-name="B" unicode="B" horiz-adv-x="864" 
d="M-26 0l136 700h529c134 0 223 -46 223 -138c0 -98 -78 -166 -208 -188c85 -11 188 -48 188 -150c0 -144 -136 -224 -382 -224h-486zM357 418h79c62 0 98 25 108 76c10 53 -14 79 -78 79h-79zM301 127h101c75 0 120 38 120 103c0 41 -30 61 -88 61h-101z" />
    <glyph glyph-name="C" unicode="C" horiz-adv-x="920" 
d="M24 267c0 269 213 453 522 453c290 0 422 -104 388 -282h-316c19 101 -15 145 -88 145c-106 0 -188 -143 -188 -338c0 -92 32 -128 97 -128c72 0 125 44 144 145h316c-34 -178 -207 -282 -496 -282c-243 0 -379 105 -379 287z" />
    <glyph glyph-name="Cacute" unicode="&#x106;" horiz-adv-x="920" 
d="M422 750l141 210h306l-211 -210h-236zM24 267c0 269 213 453 522 453c290 0 422 -104 388 -282h-316c19 101 -15 145 -88 145c-106 0 -188 -143 -188 -338c0 -92 32 -128 97 -128c72 0 125 44 144 145h316c-34 -178 -207 -282 -496 -282c-243 0 -379 105 -379 287z" />
    <glyph glyph-name="Ccaron" unicode="&#x10c;" horiz-adv-x="920" 
d="M376 750l-101 210h221l73 -134l125 134h221l-183 -210h-356zM24 267c0 269 213 453 522 453c290 0 422 -104 388 -282h-316c19 101 -15 145 -88 145c-106 0 -188 -143 -188 -338c0 -92 32 -128 97 -128c72 0 125 44 144 145h316c-34 -178 -207 -282 -496 -282
c-243 0 -379 105 -379 287z" />
    <glyph glyph-name="Ccedilla" unicode="&#xc7;" horiz-adv-x="920" 
d="M934 438h-316c19 101 -15 145 -88 145c-106 0 -188 -143 -188 -338c0 -92 32 -128 97 -128c72 0 125 44 144 145h316c-31 -165 -182 -266 -434 -280l-13 -16c86 -6 119 -43 119 -80c0 -75 -89 -126 -218 -126c-49 0 -100 3 -174 20l41 98c127 -32 166 -25 166 -2
c0 11 -14 18 -109 18l69 88c-207 16 -322 118 -322 285c0 269 213 453 522 453c290 0 422 -104 388 -282z" />
    <glyph glyph-name="Ccircumflex" unicode="&#x108;" horiz-adv-x="920" 
d="M236 750l185 210h352l103 -210h-221l-75 126l-123 -126h-221zM24 267c0 269 213 453 522 453c290 0 422 -104 388 -282h-316c19 101 -15 145 -88 145c-106 0 -188 -143 -188 -338c0 -92 32 -128 97 -128c72 0 125 44 144 145h316c-34 -178 -207 -282 -496 -282
c-243 0 -379 105 -379 287z" />
    <glyph glyph-name="Cdotaccent" unicode="&#x10a;" horiz-adv-x="920" 
d="M423 832c0 82 72 138 176 138c92 0 131 -41 131 -93c0 -80 -73 -137 -176 -137c-92 0 -131 40 -131 92zM24 267c0 269 213 453 522 453c290 0 422 -104 388 -282h-316c19 101 -15 145 -88 145c-106 0 -188 -143 -188 -338c0 -92 32 -128 97 -128c72 0 125 44 144 145h316
c-34 -178 -207 -282 -496 -282c-243 0 -379 105 -379 287z" />
    <glyph glyph-name="D" unicode="D" horiz-adv-x="909" 
d="M-26 0l136 700h414c263 0 393 -87 393 -263c0 -277 -194 -437 -529 -437h-414zM301 127h72c134 0 222 125 222 311c0 101 -53 135 -136 135h-72z" />
    <glyph glyph-name="Eth" unicode="&#xd0;" horiz-adv-x="918" 
d="M528 700c263 0 393 -87 393 -263c0 -277 -194 -437 -529 -437h-414l53 275h-76l29 150h77l53 275h414zM377 127c134 0 222 125 222 311c0 101 -53 135 -136 135h-72l-29 -148h114l-29 -150h-113l-29 -148h72z" />
    <glyph glyph-name="Dcaron" unicode="&#x10e;" horiz-adv-x="909" 
d="M329 750l-101 210h221l73 -134l125 134h221l-183 -210h-356zM-26 0l136 700h414c263 0 393 -87 393 -263c0 -277 -194 -437 -529 -437h-414zM301 127h72c134 0 222 125 222 311c0 101 -53 135 -136 135h-72z" />
    <glyph glyph-name="Dcroat" unicode="&#x110;" horiz-adv-x="918" 
d="M528 700c263 0 393 -87 393 -263c0 -277 -194 -437 -529 -437h-414l53 275h-76l29 150h77l53 275h414zM377 127c134 0 222 125 222 311c0 101 -53 135 -136 135h-72l-29 -148h114l-29 -150h-113l-29 -148h72z" />
    <glyph glyph-name="E" unicode="E" horiz-adv-x="738" 
d="M-26 0l136 700h692l-31 -162h-390l-21 -107h390l-32 -162h-390l-21 -107h390l-31 -162h-692z" />
    <glyph glyph-name="Eacute" unicode="&#xc9;" horiz-adv-x="738" 
d="M327 750l141 210h306l-211 -210h-236zM-26 0l136 700h692l-31 -162h-390l-21 -107h390l-32 -162h-390l-21 -107h390l-31 -162h-692z" />
    <glyph glyph-name="Ebreve" unicode="&#x114;" horiz-adv-x="738" 
d="M219 960h216c-23 -91 0 -120 44 -120c45 0 77 29 90 120h216c-31 -161 -147 -220 -326 -220c-185 0 -270 64 -240 220zM-26 0l136 700h692l-31 -162h-390l-21 -107h390l-32 -162h-390l-21 -107h390l-31 -162h-692z" />
    <glyph glyph-name="Ecaron" unicode="&#x11a;" horiz-adv-x="738" 
d="M282 750l-101 210h221l73 -134l125 134h221l-183 -210h-356zM-26 0l136 700h692l-31 -162h-390l-21 -107h390l-32 -162h-390l-21 -107h390l-31 -162h-692z" />
    <glyph glyph-name="Ecircumflex" unicode="&#xca;" horiz-adv-x="738" 
d="M141 750l185 210h352l103 -210h-221l-75 126l-123 -126h-221zM-26 0l136 700h692l-31 -162h-390l-21 -107h390l-32 -162h-390l-21 -107h390l-31 -162h-692z" />
    <glyph glyph-name="Edieresis" unicode="&#xcb;" horiz-adv-x="738" 
d="M184 829c0 83 65 141 158 141c79 0 112 -40 112 -90c0 -81 -65 -140 -157 -140c-80 0 -113 39 -113 89zM509 829c0 83 65 141 158 141c79 0 112 -40 112 -90c0 -81 -65 -140 -157 -140c-80 0 -113 39 -113 89zM-26 0l136 700h692l-31 -162h-390l-21 -107h390l-32 -162
h-390l-21 -107h390l-31 -162h-692z" />
    <glyph glyph-name="Edotaccent" unicode="&#x116;" horiz-adv-x="738" 
d="M328 832c0 82 72 138 176 138c92 0 131 -41 131 -93c0 -80 -73 -137 -176 -137c-92 0 -131 40 -131 92zM-26 0l136 700h692l-31 -162h-390l-21 -107h390l-32 -162h-390l-21 -107h390l-31 -162h-692z" />
    <glyph glyph-name="Egrave" unicode="&#xc8;" horiz-adv-x="738" 
d="M369 750l-129 210h306l59 -210h-236zM-26 0l136 700h692l-31 -162h-390l-21 -107h390l-32 -162h-390l-21 -107h390l-31 -162h-692z" />
    <glyph glyph-name="Emacron" unicode="&#x112;" horiz-adv-x="738" 
d="M227 770l32 165h475l-32 -165h-475zM-26 0l136 700h692l-31 -162h-390l-21 -107h390l-32 -162h-390l-21 -107h390l-31 -162h-692z" />
    <glyph glyph-name="Eogonek" unicode="&#x118;" horiz-adv-x="738" 
d="M771 538h-390l-21 -107h390l-32 -162h-390l-21 -107h390l-31 -162c-39 -28 -65 -59 -65 -84c0 -20 21 -26 55 -19l-21 -108c-38 -20 -98 -29 -144 -29c-87 0 -143 29 -143 84c0 72 85 135 206 156h-580l136 700h692z" />
    <glyph glyph-name="F" unicode="F" horiz-adv-x="738" 
d="M-26 0l136 700h692l-31 -162h-390l-27 -136h390l-31 -162h-390l-47 -240h-302z" />
    <glyph glyph-name="G" unicode="G" horiz-adv-x="925" 
d="M936 448h-316c15 81 -12 135 -85 135c-111 0 -194 -152 -194 -355c0 -90 37 -126 114 -126c37 0 89 8 121 24l20 103h-143l28 142h440l-28 -142l-28 -142c-135 -64 -286 -107 -462 -107c-243 0 -379 105 -379 287c0 269 213 453 522 453c290 0 422 -104 390 -272z" />
    <glyph glyph-name="Gbreve" unicode="&#x11e;" horiz-adv-x="925" 
d="M556 740c-185 0 -270 64 -240 220h216c-23 -91 0 -120 44 -120c45 0 77 29 90 120h216c-31 -161 -147 -220 -326 -220zM936 448h-316c15 81 -12 135 -85 135c-111 0 -194 -152 -194 -355c0 -90 37 -126 114 -126c37 0 89 8 121 24l20 103h-143l28 142h440l-28 -142
l-28 -142c-135 -64 -286 -107 -462 -107c-243 0 -379 105 -379 287c0 269 213 453 522 453c290 0 422 -104 390 -272z" />
    <glyph glyph-name="Gcircumflex" unicode="&#x11c;" horiz-adv-x="925" 
d="M582 876l-123 -126h-221l185 210h352l103 -210h-221zM936 448h-316c15 81 -12 135 -85 135c-111 0 -194 -152 -194 -355c0 -90 37 -126 114 -126c37 0 89 8 121 24l20 103h-143l28 142h440l-28 -142l-28 -142c-135 -64 -286 -107 -462 -107c-243 0 -379 105 -379 287
c0 269 213 453 522 453c290 0 422 -104 390 -272z" />
    <glyph glyph-name="uni0122" unicode="&#x122;" horiz-adv-x="925" 
d="M936 448h-316c15 81 -12 135 -85 135c-111 0 -194 -152 -194 -355c0 -90 37 -126 114 -126c37 0 89 8 121 24l20 103h-143l28 142h440l-28 -142l-28 -142c-135 -64 -286 -107 -462 -107c-243 0 -379 105 -379 287c0 269 213 453 522 453c290 0 422 -104 390 -272z
M216 -230l57 190h256l-127 -190h-186z" />
    <glyph glyph-name="Gdotaccent" unicode="&#x120;" horiz-adv-x="925" 
d="M556 740c-92 0 -131 40 -131 92c0 82 72 138 176 138c92 0 131 -41 131 -93c0 -80 -73 -137 -176 -137zM936 448h-316c15 81 -12 135 -85 135c-111 0 -194 -152 -194 -355c0 -90 37 -126 114 -126c37 0 89 8 121 24l20 103h-143l28 142h440l-28 -142l-28 -142
c-135 -64 -286 -107 -462 -107c-243 0 -379 105 -379 287c0 269 213 453 522 453c290 0 422 -104 390 -272z" />
    <glyph glyph-name="H" unicode="H" horiz-adv-x="871" 
d="M-26 0l136 700h302l-52 -269h216l52 269h302l-136 -700h-302l52 269h-216l-52 -269h-302z" />
    <glyph glyph-name="Hbar" unicode="&#x126;" horiz-adv-x="1001" 
d="M1064 641l-30 -150h-80l-95 -491h-302l50 259h-216l-50 -259h-302l95 491h-80l30 150h80l11 59h302l-11 -59h216l11 59h302l-11 -59h80zM639 421l14 70h-216l-14 -70h216z" />
    <glyph glyph-name="Hcircumflex" unicode="&#x124;" horiz-adv-x="871" 
d="M210 750l185 210h352l103 -210h-221l-75 126l-123 -126h-221zM-26 0l136 700h302l-52 -269h216l52 269h302l-136 -700h-302l52 269h-216l-52 -269h-302z" />
    <glyph glyph-name="I" unicode="I" horiz-adv-x="353" 
d="M-26 0l136 700h302l-136 -700h-302z" />
    <glyph glyph-name="IJ" unicode="&#x132;" horiz-adv-x="1137" 
d="M-26 0l136 700h302l-136 -700h-302zM377 313h292l-19 -97c-15 -78 -4 -111 54 -111c57 0 82 33 97 111l94 484h302l-81 -413c-38 -195 -174 -307 -449 -307c-315 0 -328 128 -299 285z" />
    <glyph glyph-name="Iacute" unicode="&#xcd;" horiz-adv-x="353" 
d="M137 750l141 210h306l-211 -210h-236zM-26 0l136 700h302l-136 -700h-302z" />
    <glyph glyph-name="Ibreve" unicode="&#x12c;" horiz-adv-x="353" 
d="M29 960h216c-23 -91 0 -120 44 -120c45 0 77 29 90 120h216c-31 -161 -147 -220 -326 -220c-185 0 -270 64 -240 220zM-26 0l136 700h302l-136 -700h-302z" />
    <glyph glyph-name="Icircumflex" unicode="&#xce;" horiz-adv-x="353" 
d="M-49 750l185 210h352l103 -210h-221l-75 126l-123 -126h-221zM-26 0l136 700h302l-136 -700h-302z" />
    <glyph glyph-name="Idieresis" unicode="&#xcf;" horiz-adv-x="353" 
d="M-6 829c0 83 65 141 158 141c79 0 112 -40 112 -90c0 -81 -65 -140 -157 -140c-80 0 -113 39 -113 89zM319 829c0 83 65 141 158 141c79 0 112 -40 112 -90c0 -81 -65 -140 -157 -140c-80 0 -113 39 -113 89zM-26 0l136 700h302l-136 -700h-302z" />
    <glyph glyph-name="Idotaccent" unicode="&#x130;" horiz-adv-x="353" 
d="M138 832c0 82 72 138 176 138c92 0 131 -41 131 -93c0 -80 -73 -137 -176 -137c-92 0 -131 40 -131 92zM-26 0l136 700h302l-136 -700h-302z" />
    <glyph glyph-name="Igrave" unicode="&#xcc;" horiz-adv-x="353" 
d="M179 750l-129 210h306l59 -210h-236zM-26 0l136 700h302l-136 -700h-302z" />
    <glyph glyph-name="Imacron" unicode="&#x12a;" horiz-adv-x="353" 
d="M37 770l32 165h475l-32 -165h-475zM-26 0l136 700h302l-136 -700h-302z" />
    <glyph glyph-name="Iogonek" unicode="&#x12e;" horiz-adv-x="353" 
d="M276 0c-39 -28 -65 -59 -65 -84c0 -20 21 -26 55 -19l-21 -108c-38 -20 -98 -29 -144 -29c-87 0 -143 29 -143 84c0 72 85 135 206 156h-190l136 700h302z" />
    <glyph glyph-name="Itilde" unicode="&#x128;" horiz-adv-x="353" 
d="M445 933h112c-27 -131 -105 -193 -199 -193c-81 0 -137 54 -173 54c-29 0 -43 -10 -50 -44h-120l3 15c26 134 110 195 199 195c91 0 142 -54 178 -54c28 0 43 27 50 27zM557 935l3 -2h-3v2zM-26 0l136 700h302l-136 -700h-302z" />
    <glyph glyph-name="J" unicode="J" horiz-adv-x="784" 
d="M24 313h292l-19 -97c-15 -78 -4 -111 54 -111c57 0 82 33 97 111l94 484h302l-81 -413c-38 -195 -174 -307 -449 -307c-315 0 -328 128 -299 285z" />
    <glyph glyph-name="Jcircumflex" unicode="&#x134;" horiz-adv-x="784" 
d="M167 750l185 210h352l103 -210h-221l-75 126l-123 -126h-221zM24 313h292l-19 -97c-15 -78 -4 -111 54 -111c57 0 82 33 97 111l94 484h302l-81 -413c-38 -195 -174 -307 -449 -307c-315 0 -328 128 -299 285z" />
    <glyph glyph-name="K" unicode="K" horiz-adv-x="918" 
d="M987 700l-328 -330l202 -370h-357l-171 291l-57 -291h-302l136 700h302l-56 -289l274 289h357z" />
    <glyph glyph-name="uni0136" unicode="&#x136;" horiz-adv-x="918" 
d="M987 700l-328 -330l202 -370h-357l-171 291l-57 -291h-302l136 700h302l-56 -289l274 289h357zM205 -230l57 190h256l-127 -190h-186z" />
    <glyph glyph-name="L" unicode="L" horiz-adv-x="673" 
d="M-26 0l136 700h302l-103 -528h330l-33 -172h-632z" />
    <glyph glyph-name="Lacute" unicode="&#x139;" horiz-adv-x="673" 
d="M152 750l141 210h306l-211 -210h-236zM-26 0l136 700h302l-103 -528h330l-33 -172h-632z" />
    <glyph glyph-name="Lcaron" unicode="&#x13d;" horiz-adv-x="673" 
d="M409 475l53 275h226l-123 -275h-156zM-26 0l136 700h302l-103 -528h330l-33 -172h-632z" />
    <glyph glyph-name="uni013B" unicode="&#x13b;" horiz-adv-x="673" 
d="M-26 0l136 700h302l-103 -528h330l-33 -172h-632zM90 -230l57 190h256l-127 -190h-186z" />
    <glyph glyph-name="Ldot" unicode="&#x13f;" horiz-adv-x="724" 
d="M-26 0l136 700h302l-103 -528h330l-33 -172h-632zM372 332c0 -55 48 -97 133 -97c100 0 179 60 179 135c0 53 -47 95 -134 95c-100 0 -178 -59 -178 -133z" />
    <glyph glyph-name="Lslash" unicode="&#x141;" horiz-adv-x="691" 
d="M322 172h330l-33 -172h-632l36 183l-86 -36l34 175l86 36l66 342h302l-40 -204l154 65l-34 -175l-154 -65z" />
    <glyph glyph-name="M" unicode="M" horiz-adv-x="1095" 
d="M-26 0l136 700h374l80 -382l230 382h360l-136 -700h-282l79 407l-248 -407h-231l-86 407l-79 -407h-197z" />
    <glyph glyph-name="N" unicode="N" horiz-adv-x="854" 
d="M-26 0l136 700h339l188 -407l79 407h197l-136 -700h-347l-186 376l-73 -376h-197z" />
    <glyph glyph-name="Nacute" unicode="&#x143;" horiz-adv-x="854" 
d="M388 750l141 210h306l-211 -210h-236zM-26 0l136 700h339l188 -407l79 407h197l-136 -700h-347l-186 376l-73 -376h-197z" />
    <glyph glyph-name="Ncaron" unicode="&#x147;" horiz-adv-x="854" 
d="M343 750l-101 210h221l73 -134l125 134h221l-183 -210h-356zM-26 0l136 700h339l188 -407l79 407h197l-136 -700h-347l-186 376l-73 -376h-197z" />
    <glyph glyph-name="uni0145" unicode="&#x145;" horiz-adv-x="854" 
d="M-26 0l136 700h339l188 -407l79 407h197l-136 -700h-347l-186 376l-73 -376h-197zM181 -230l57 190h256l-127 -190h-186z" />
    <glyph glyph-name="Eng" unicode="&#x14a;" horiz-adv-x="854" 
d="M-26 0l136 700h339l188 -407l79 407h197l-128 -660c-16 -79 -60 -146 -102 -190h-222c25 34 38 71 48 120l6 30h-85l-186 376l-73 -376h-197z" />
    <glyph glyph-name="Ntilde" unicode="&#xd1;" horiz-adv-x="854" 
d="M436 794c-29 0 -43 -10 -50 -44h-120l3 15c26 134 110 195 199 195c91 0 142 -54 178 -54c28 0 43 27 50 27h112c-27 -131 -105 -193 -199 -193c-81 0 -137 54 -173 54zM808 935l3 -2h-3v2zM716 700h197l-136 -700h-347l-186 376l-73 -376h-197l136 700h339l188 -407z
" />
    <glyph glyph-name="O" unicode="O" horiz-adv-x="978" 
d="M25 268c0 274 217 452 552 452c269 0 409 -105 409 -288c0 -274 -218 -452 -553 -452c-268 0 -408 105 -408 288zM344 253c0 -98 37 -136 116 -136c122 0 207 131 207 330c0 98 -37 136 -116 136c-122 0 -207 -131 -207 -330z" />
    <glyph glyph-name="Oacute" unicode="&#xd3;" horiz-adv-x="978" 
d="M449 750l141 210h306l-211 -210h-236zM25 268c0 274 217 452 552 452c269 0 409 -105 409 -288c0 -274 -218 -452 -553 -452c-268 0 -408 105 -408 288zM344 253c0 -98 37 -136 116 -136c122 0 207 131 207 330c0 98 -37 136 -116 136c-122 0 -207 -131 -207 -330z" />
    <glyph glyph-name="Obreve" unicode="&#x14e;" horiz-adv-x="978" 
d="M341 960h216c-23 -91 0 -120 44 -120c45 0 77 29 90 120h216c-31 -161 -147 -220 -326 -220c-185 0 -270 64 -240 220zM25 268c0 274 217 452 552 452c269 0 409 -105 409 -288c0 -274 -218 -452 -553 -452c-268 0 -408 105 -408 288zM344 253c0 -98 37 -136 116 -136
c122 0 207 131 207 330c0 98 -37 136 -116 136c-122 0 -207 -131 -207 -330z" />
    <glyph glyph-name="Ocircumflex" unicode="&#xd4;" horiz-adv-x="978" 
d="M263 750l185 210h352l103 -210h-221l-75 126l-123 -126h-221zM25 268c0 274 217 452 552 452c269 0 409 -105 409 -288c0 -274 -218 -452 -553 -452c-268 0 -408 105 -408 288zM344 253c0 -98 37 -136 116 -136c122 0 207 131 207 330c0 98 -37 136 -116 136
c-122 0 -207 -131 -207 -330z" />
    <glyph glyph-name="Odieresis" unicode="&#xd6;" horiz-adv-x="978" 
d="M306 829c0 83 65 141 158 141c79 0 112 -40 112 -90c0 -81 -65 -140 -157 -140c-80 0 -113 39 -113 89zM631 829c0 83 65 141 158 141c79 0 112 -40 112 -90c0 -81 -65 -140 -157 -140c-80 0 -113 39 -113 89zM25 268c0 274 217 452 552 452c269 0 409 -105 409 -288
c0 -274 -218 -452 -553 -452c-268 0 -408 105 -408 288zM344 253c0 -98 37 -136 116 -136c122 0 207 131 207 330c0 98 -37 136 -116 136c-122 0 -207 -131 -207 -330z" />
    <glyph glyph-name="Ograve" unicode="&#xd2;" horiz-adv-x="978" 
d="M491 750l-129 210h306l59 -210h-236zM25 268c0 274 217 452 552 452c269 0 409 -105 409 -288c0 -274 -218 -452 -553 -452c-268 0 -408 105 -408 288zM344 253c0 -98 37 -136 116 -136c122 0 207 131 207 330c0 98 -37 136 -116 136c-122 0 -207 -131 -207 -330z" />
    <glyph glyph-name="Ohungarumlaut" unicode="&#x150;" horiz-adv-x="978" 
d="M307 750l131 210h266l-201 -210h-196zM623 750l131 210h266l-201 -210h-196zM25 268c0 274 217 452 552 452c269 0 409 -105 409 -288c0 -274 -218 -452 -553 -452c-268 0 -408 105 -408 288zM344 253c0 -98 37 -136 116 -136c122 0 207 131 207 330
c0 98 -37 136 -116 136c-122 0 -207 -131 -207 -330z" />
    <glyph glyph-name="Omacron" unicode="&#x14c;" horiz-adv-x="978" 
d="M349 770l32 165h475l-32 -165h-475zM25 268c0 274 217 452 552 452c269 0 409 -105 409 -288c0 -274 -218 -452 -553 -452c-268 0 -408 105 -408 288zM344 253c0 -98 37 -136 116 -136c122 0 207 131 207 330c0 98 -37 136 -116 136c-122 0 -207 -131 -207 -330z" />
    <glyph glyph-name="Oslash" unicode="&#xd8;" horiz-adv-x="978" 
d="M882 645c69 -49 104 -121 104 -213c0 -274 -218 -452 -553 -452c-55 0 -104 4 -148 13l-57 -63h-207l112 122c-72 49 -108 123 -108 216c0 274 217 452 552 452c57 0 108 -5 154 -14l58 64h207zM551 583c-116 0 -198 -117 -206 -299l264 289c-16 7 -35 10 -58 10z
M460 117c114 0 196 114 206 292l-260 -284c16 -5 33 -8 54 -8z" />
    <glyph glyph-name="Otilde" unicode="&#xd5;" horiz-adv-x="978" 
d="M497 794c-29 0 -43 -10 -50 -44h-120l3 15c26 134 110 195 199 195c91 0 142 -54 178 -54c28 0 43 27 50 27h112c-27 -131 -105 -193 -199 -193c-81 0 -137 54 -173 54zM869 935l3 -2h-3v2zM577 720c269 0 409 -105 409 -288c0 -274 -218 -452 -553 -452
c-268 0 -408 105 -408 288c0 274 217 452 552 452zM460 117c122 0 207 131 207 330c0 98 -37 136 -116 136c-122 0 -207 -131 -207 -330c0 -98 37 -136 116 -136z" />
    <glyph glyph-name="OE" unicode="&#x152;" horiz-adv-x="1350" 
d="M1383 538h-390l-21 -107h390l-31 -162h-390l-21 -107h390l-32 -162h-656c-57 -13 -120 -20 -189 -20c-268 0 -408 105 -408 288c0 274 217 452 552 452c69 0 129 -7 180 -20h657zM460 117c81 0 146 63 181 164l24 127c1 16 2 32 2 49c0 88 -37 126 -116 126
c-122 0 -207 -141 -207 -340c0 -88 37 -126 116 -126z" />
    <glyph glyph-name="P" unicode="P" horiz-adv-x="851" 
d="M-26 0l136 700h493c201 0 276 -74 276 -182c0 -182 -142 -295 -369 -295h-191l-43 -223h-302zM348 370h59c99 0 156 41 156 113c0 56 -55 70 -121 70h-59z" />
    <glyph glyph-name="Thorn" unicode="&#xde;" horiz-adv-x="850" 
d="M-29 -11l136 700h302l-19 -100h191c200 0 275 -74 275 -182c0 -182 -141 -295 -368 -295h-191l-24 -123h-302zM325 259h59c99 0 157 41 157 113c0 56 -56 70 -121 70h-59z" />
    <glyph glyph-name="Q" unicode="Q" horiz-adv-x="978" 
d="M986 432c0 -156 -71 -281 -194 -360l128 -162l-192 -100l-203 175c-30 -3 -60 -5 -92 -5c-268 0 -408 105 -408 288c0 274 217 452 552 452c269 0 409 -105 409 -288zM344 253c0 -98 37 -136 116 -136c122 0 207 131 207 330c0 98 -37 136 -116 136
c-122 0 -207 -131 -207 -330z" />
    <glyph glyph-name="R" unicode="R" horiz-adv-x="859" 
d="M-26 0l136 700h572c128 0 199 -55 199 -149c0 -123 -79 -197 -214 -223c117 -14 165 -69 142 -188l-27 -140h-320l25 130c15 77 6 127 -94 127h-67l-50 -257h-302zM351 384h76c89 0 149 46 149 116c0 49 -42 73 -113 73h-76z" />
    <glyph glyph-name="Racute" unicode="&#x154;" horiz-adv-x="859" 
d="M385 750l141 210h306l-211 -210h-236zM-26 0l136 700h572c128 0 199 -55 199 -149c0 -123 -79 -197 -214 -223c117 -14 165 -69 142 -188l-27 -140h-320l25 130c15 77 6 127 -94 127h-67l-50 -257h-302zM351 384h76c89 0 149 46 149 116c0 49 -42 73 -113 73h-76z" />
    <glyph glyph-name="Rcaron" unicode="&#x158;" horiz-adv-x="859" 
d="M340 750l-101 210h221l73 -134l125 134h221l-183 -210h-356zM-26 0l136 700h572c128 0 199 -55 199 -149c0 -123 -79 -197 -214 -223c117 -14 165 -69 142 -188l-27 -140h-320l25 130c15 77 6 127 -94 127h-67l-50 -257h-302zM351 384h76c89 0 149 46 149 116
c0 49 -42 73 -113 73h-76z" />
    <glyph glyph-name="uni0156" unicode="&#x156;" horiz-adv-x="859" 
d="M-26 0l136 700h572c128 0 199 -55 199 -149c0 -123 -79 -197 -214 -223c117 -14 165 -69 142 -188l-27 -140h-320l25 130c15 77 6 127 -94 127h-67l-50 -257h-302zM351 384h76c89 0 149 46 149 116c0 49 -42 73 -113 73h-76zM178 -230l57 190h256l-127 -190h-186z" />
    <glyph glyph-name="S" unicode="S" horiz-adv-x="779" 
d="M5 215h282c-25 -75 -14 -125 73 -125c61 0 105 30 105 73c0 30 -31 45 -80 57c-173 44 -323 90 -323 226c0 166 159 274 426 274c285 0 321 -119 300 -225h-277c25 87 -7 115 -69 115c-59 0 -98 -28 -98 -71c0 -28 21 -49 91 -64c216 -46 323 -103 323 -215
c0 -175 -157 -280 -420 -280c-296 0 -363 81 -333 235z" />
    <glyph glyph-name="Sacute" unicode="&#x15a;" horiz-adv-x="779" 
d="M349 750l141 210h306l-211 -210h-236zM5 215h282c-25 -75 -14 -125 73 -125c61 0 105 30 105 73c0 30 -31 45 -80 57c-173 44 -323 90 -323 226c0 166 159 274 426 274c285 0 321 -119 300 -225h-277c25 87 -7 115 -69 115c-59 0 -98 -28 -98 -71c0 -28 21 -49 91 -64
c216 -46 323 -103 323 -215c0 -175 -157 -280 -420 -280c-296 0 -363 81 -333 235z" />
    <glyph glyph-name="Scaron" unicode="&#x160;" horiz-adv-x="779" 
d="M305 750l-101 210h221l73 -134l125 134h221l-183 -210h-356zM5 215h282c-25 -75 -14 -125 73 -125c61 0 105 30 105 73c0 30 -31 45 -80 57c-173 44 -323 90 -323 226c0 166 159 274 426 274c285 0 321 -119 300 -225h-277c25 87 -7 115 -69 115c-59 0 -98 -28 -98 -71
c0 -28 21 -49 91 -64c216 -46 323 -103 323 -215c0 -175 -157 -280 -420 -280c-296 0 -363 81 -333 235z" />
    <glyph glyph-name="Scedilla" unicode="&#x15e;" horiz-adv-x="779" 
d="M788 495h-277c25 87 -7 115 -69 115c-59 0 -98 -28 -98 -71c0 -28 21 -49 91 -64c216 -46 323 -103 323 -215c0 -162 -135 -264 -365 -278l-13 -16c86 -6 119 -43 119 -80c0 -75 -89 -126 -218 -126c-49 0 -100 3 -174 20l41 98c127 -32 166 -25 166 -2
c0 11 -14 18 -109 18l68 87c-241 12 -296 92 -268 234h282c-25 -75 -14 -125 73 -125c61 0 105 30 105 73c0 30 -31 45 -80 57c-173 44 -323 90 -323 226c0 166 159 274 426 274c285 0 321 -119 300 -225z" />
    <glyph glyph-name="Scircumflex" unicode="&#x15c;" horiz-adv-x="779" 
d="M163 750l185 210h352l103 -210h-221l-75 126l-123 -126h-221zM5 215h282c-25 -75 -14 -125 73 -125c61 0 105 30 105 73c0 30 -31 45 -80 57c-173 44 -323 90 -323 226c0 166 159 274 426 274c285 0 321 -119 300 -225h-277c25 87 -7 115 -69 115c-59 0 -98 -28 -98 -71
c0 -28 21 -49 91 -64c216 -46 323 -103 323 -215c0 -175 -157 -280 -420 -280c-296 0 -363 81 -333 235z" />
    <glyph glyph-name="uni0218" unicode="&#x218;" horiz-adv-x="779" 
d="M5 215h282c-25 -75 -14 -125 73 -125c61 0 105 30 105 73c0 30 -31 45 -80 57c-173 44 -323 90 -323 226c0 166 159 274 426 274c285 0 321 -119 300 -225h-277c25 87 -7 115 -69 115c-59 0 -98 -28 -98 -71c0 -28 21 -49 91 -64c216 -46 323 -103 323 -215
c0 -175 -157 -280 -420 -280c-296 0 -363 81 -333 235zM142 -230l57 190h256l-127 -190h-186z" />
    <glyph glyph-name="T" unicode="T" horiz-adv-x="783" 
d="M189 0l105 538h-235l31 162h772l-31 -162h-235l-105 -538h-302z" />
    <glyph glyph-name="Tbar" unicode="&#x166;" horiz-adv-x="783" 
d="M831 538h-235l-30 -153h107l-29 -150h-107l-46 -235h-302l46 235h-103l29 150h103l30 153h-235l31 162h772z" />
    <glyph glyph-name="Tcaron" unicode="&#x164;" horiz-adv-x="783" 
d="M307 750l-101 210h221l73 -134l125 134h221l-183 -210h-356zM189 0l105 538h-235l31 162h772l-31 -162h-235l-105 -538h-302z" />
    <glyph glyph-name="uni0162" unicode="&#x162;" horiz-adv-x="783" 
d="M90 700h772l-31 -162h-235l-105 -538h-79l-29 -34c86 -6 119 -43 119 -80c0 -75 -89 -126 -218 -126c-49 0 -100 3 -174 20l41 98c127 -32 166 -25 166 -2c0 11 -14 18 -109 18l83 106h-102l105 538h-235z" />
    <glyph glyph-name="uni021A" unicode="&#x21a;" horiz-adv-x="783" 
d="M189 0l105 538h-235l31 162h772l-31 -162h-235l-105 -538h-302zM145 -230l57 190h256l-127 -190h-186z" />
    <glyph glyph-name="U" unicode="U" horiz-adv-x="871" 
d="M110 700h302l-89 -460c-15 -76 14 -113 86 -113c73 0 115 37 130 113l89 460h302l-80 -413c-40 -206 -195 -307 -470 -307c-274 0 -390 101 -350 307z" />
    <glyph glyph-name="Uacute" unicode="&#xda;" horiz-adv-x="871" 
d="M396 750l141 210h306l-211 -210h-236zM110 700h302l-89 -460c-15 -76 14 -113 86 -113c73 0 115 37 130 113l89 460h302l-80 -413c-40 -206 -195 -307 -470 -307c-274 0 -390 101 -350 307z" />
    <glyph glyph-name="Ubreve" unicode="&#x16c;" horiz-adv-x="871" 
d="M288 960h216c-23 -91 0 -120 44 -120c45 0 77 29 90 120h216c-31 -161 -147 -220 -326 -220c-185 0 -270 64 -240 220zM110 700h302l-89 -460c-15 -76 14 -113 86 -113c73 0 115 37 130 113l89 460h302l-80 -413c-40 -206 -195 -307 -470 -307c-274 0 -390 101 -350 307z
" />
    <glyph glyph-name="Ucircumflex" unicode="&#xdb;" horiz-adv-x="871" 
d="M210 750l185 210h352l103 -210h-221l-75 126l-123 -126h-221zM110 700h302l-89 -460c-15 -76 14 -113 86 -113c73 0 115 37 130 113l89 460h302l-80 -413c-40 -206 -195 -307 -470 -307c-274 0 -390 101 -350 307z" />
    <glyph glyph-name="Udieresis" unicode="&#xdc;" horiz-adv-x="871" 
d="M253 829c0 83 65 141 158 141c79 0 112 -40 112 -90c0 -81 -65 -140 -157 -140c-80 0 -113 39 -113 89zM578 829c0 83 65 141 158 141c79 0 112 -40 112 -90c0 -81 -65 -140 -157 -140c-80 0 -113 39 -113 89zM110 700h302l-89 -460c-15 -76 14 -113 86 -113
c73 0 115 37 130 113l89 460h302l-80 -413c-40 -206 -195 -307 -470 -307c-274 0 -390 101 -350 307z" />
    <glyph glyph-name="Ugrave" unicode="&#xd9;" horiz-adv-x="871" 
d="M438 750l-129 210h306l59 -210h-236zM110 700h302l-89 -460c-15 -76 14 -113 86 -113c73 0 115 37 130 113l89 460h302l-80 -413c-40 -206 -195 -307 -470 -307c-274 0 -390 101 -350 307z" />
    <glyph glyph-name="Uhungarumlaut" unicode="&#x170;" horiz-adv-x="871" 
d="M254 750l131 210h266l-201 -210h-196zM570 750l131 210h266l-201 -210h-196zM110 700h302l-89 -460c-15 -76 14 -113 86 -113c73 0 115 37 130 113l89 460h302l-80 -413c-40 -206 -195 -307 -470 -307c-274 0 -390 101 -350 307z" />
    <glyph glyph-name="Umacron" unicode="&#x16a;" horiz-adv-x="871" 
d="M296 770l32 165h475l-32 -165h-475zM110 700h302l-89 -460c-15 -76 14 -113 86 -113c73 0 115 37 130 113l89 460h302l-80 -413c-40 -206 -195 -307 -470 -307c-274 0 -390 101 -350 307z" />
    <glyph glyph-name="Uogonek" unicode="&#x172;" horiz-adv-x="871" 
d="M628 700h302l-80 -413c-30 -154 -124 -249 -284 -287c-38 -28 -64 -59 -64 -84c0 -20 21 -26 55 -19l-21 -108c-38 -20 -98 -29 -144 -29c-87 0 -143 29 -143 84c0 56 51 106 131 136c-274 0 -390 101 -350 307l80 413h302l-89 -460c-15 -76 14 -113 86 -113
c73 0 115 37 130 113z" />
    <glyph glyph-name="Uring" unicode="&#x16e;" horiz-adv-x="871" 
d="M317 846c0 88 101 144 259 144c136 0 211 -39 211 -106c0 -88 -100 -144 -259 -144c-134 0 -211 39 -211 106zM496 851c0 -24 17 -37 47 -37c38 0 64 26 64 65c0 24 -16 37 -44 37c-40 0 -67 -25 -67 -65zM110 700h302l-89 -460c-15 -76 14 -113 86 -113
c73 0 115 37 130 113l89 460h302l-80 -413c-40 -206 -195 -307 -470 -307c-274 0 -390 101 -350 307z" />
    <glyph glyph-name="Utilde" unicode="&#x168;" horiz-adv-x="871" 
d="M444 794c-29 0 -43 -10 -50 -44h-120l3 15c26 134 110 195 199 195c91 0 142 -54 178 -54c28 0 43 27 50 27h112c-27 -131 -105 -193 -199 -193c-81 0 -137 54 -173 54zM816 935l3 -2h-3v2zM628 700h302l-80 -413c-40 -206 -195 -307 -470 -307c-274 0 -390 101 -350 307
l80 413h302l-89 -460c-15 -76 14 -113 86 -113c73 0 115 37 130 113z" />
    <glyph glyph-name="V" unicode="V" horiz-adv-x="907" 
d="M987 700l-392 -700h-385l-120 700h337l48 -529l263 529h249z" />
    <glyph glyph-name="W" unicode="W" horiz-adv-x="1285" 
d="M1142 700h223l-324 -700h-355l-21 385l-170 -385h-355l-50 700h287l7 -529l219 529h311l5 -529z" />
    <glyph glyph-name="Wacute" unicode="&#x1e82;" horiz-adv-x="1285" 
d="M1051 960l-211 -210h-236l141 210h306zM1142 700h223l-324 -700h-355l-21 385l-170 -385h-355l-50 700h287l7 -529l219 529h311l5 -529z" />
    <glyph glyph-name="Wcircumflex" unicode="&#x174;" horiz-adv-x="1285" 
d="M762 876l-123 -126h-221l185 210h352l103 -210h-221zM1142 700h223l-324 -700h-355l-21 385l-170 -385h-355l-50 700h287l7 -529l219 529h311l5 -529z" />
    <glyph glyph-name="Wdieresis" unicode="&#x1e84;" horiz-adv-x="1285" 
d="M574 740c-80 0 -113 39 -113 89c0 83 65 141 158 141c79 0 112 -40 112 -90c0 -81 -65 -140 -157 -140zM899 740c-80 0 -113 39 -113 89c0 83 65 141 158 141c79 0 112 -40 112 -90c0 -81 -65 -140 -157 -140zM1142 700h223l-324 -700h-355l-21 385l-170 -385h-355
l-50 700h287l7 -529l219 529h311l5 -529z" />
    <glyph glyph-name="Wgrave" unicode="&#x1e80;" horiz-adv-x="1285" 
d="M882 750h-236l-129 210h306zM1142 700h223l-324 -700h-355l-21 385l-170 -385h-355l-50 700h287l7 -529l219 529h311l5 -529z" />
    <glyph glyph-name="X" unicode="X" horiz-adv-x="889" 
d="M-37 0l319 353l-187 347h380l75 -177l146 177h266l-319 -345l184 -355h-380l-68 177l-149 -177h-267z" />
    <glyph glyph-name="Y" unicode="Y" horiz-adv-x="909" 
d="M989 700l-387 -470l-45 -230h-302l43 223l-208 477h366l87 -261l192 261h254z" />
    <glyph glyph-name="Yacute" unicode="&#xdd;" horiz-adv-x="909" 
d="M873 960l-211 -210h-236l141 210h306zM989 700l-387 -470l-45 -230h-302l43 223l-208 477h366l87 -261l192 261h254z" />
    <glyph glyph-name="Ycircumflex" unicode="&#x176;" horiz-adv-x="909" 
d="M584 876l-123 -126h-221l185 210h352l103 -210h-221zM989 700l-387 -470l-45 -230h-302l43 223l-208 477h366l87 -261l192 261h254z" />
    <glyph glyph-name="Ydieresis" unicode="&#x178;" horiz-adv-x="909" 
d="M396 740c-80 0 -113 39 -113 89c0 83 65 141 158 141c79 0 112 -40 112 -90c0 -81 -65 -140 -157 -140zM721 740c-80 0 -113 39 -113 89c0 83 65 141 158 141c79 0 112 -40 112 -90c0 -81 -65 -140 -157 -140zM989 700l-387 -470l-45 -230h-302l43 223l-208 477h366
l87 -261l192 261h254z" />
    <glyph glyph-name="Ygrave" unicode="&#x1ef2;" horiz-adv-x="909" 
d="M704 750h-236l-129 210h306zM989 700l-387 -470l-45 -230h-302l43 223l-208 477h366l87 -261l192 261h254z" />
    <glyph glyph-name="Z" unicode="Z" horiz-adv-x="742" 
d="M-37 0l30 152l399 386h-319l31 162h702l-29 -152l-400 -386h329l-31 -162h-712z" />
    <glyph glyph-name="Zacute" unicode="&#x179;" horiz-adv-x="742" 
d="M331 750l141 210h306l-211 -210h-236zM-37 0l30 152l399 386h-319l31 162h702l-29 -152l-400 -386h329l-31 -162h-712z" />
    <glyph glyph-name="Zcaron" unicode="&#x17d;" horiz-adv-x="742" 
d="M287 750l-101 210h221l73 -134l125 134h221l-183 -210h-356zM-37 0l30 152l399 386h-319l31 162h702l-29 -152l-400 -386h329l-31 -162h-712z" />
    <glyph glyph-name="Zdotaccent" unicode="&#x17b;" horiz-adv-x="742" 
d="M332 832c0 82 72 138 176 138c92 0 131 -41 131 -93c0 -80 -73 -137 -176 -137c-92 0 -131 40 -131 92zM-37 0l30 152l399 386h-319l31 162h702l-29 -152l-400 -386h329l-31 -162h-712z" />
    <glyph glyph-name="Aacute.ss01" horiz-adv-x="947" 
d="M842 900l-14 -72l-501 -56l14 72zM550 0l-20 144h-255l-74 -144h-248l406 700h395l136 -700h-340zM358 306h151l-32 233z" />
    <glyph glyph-name="Abreve.ss01" horiz-adv-x="947" 
d="M828 828c-87 -40 -183 -60 -257 -60c-75 0 -162 20 -233 60l14 72c71 -40 158 -60 233 -60c74 0 170 20 257 60zM550 0l-20 144h-255l-74 -144h-248l406 700h395l136 -700h-340zM358 306h151l-32 233z" />
    <glyph glyph-name="Acircumflex.ss01" horiz-adv-x="947" 
d="M841 768l-258 60l-282 -60l14 72l282 60l258 -60zM550 0l-20 144h-255l-74 -144h-248l406 700h395l136 -700h-340zM358 306h151l-32 233z" />
    <glyph glyph-name="Adieresis.ss01" horiz-adv-x="947" 
d="M567 873l-14 -72h-282l14 72h282zM899 873l-14 -72h-282l14 72h282zM359 700h395l136 -700h-340l-20 144h-255l-74 -144h-248zM358 306h151l-32 233z" />
    <glyph glyph-name="Agrave.ss01" horiz-adv-x="947" 
d="M831 844l-14 -72l-479 56l14 72zM550 0l-20 144h-255l-74 -144h-248l406 700h395l136 -700h-340zM358 306h151l-32 233z" />
    <glyph glyph-name="Amacron.ss01" horiz-adv-x="947" 
d="M837 873l-14 -72h-490l14 72h490zM550 0l-20 144h-255l-74 -144h-248l406 700h395l136 -700h-340zM358 306h151l-32 233z" />
    <glyph glyph-name="Aogonek.ss01" horiz-adv-x="947" 
d="M515 -108c0 -16 15 -37 128 -37c71 0 151 15 177 26l-14 -70c-38 -20 -142 -29 -177 -29c-103 0 -207 21 -207 98c0 64 67 110 126 132l-18 132h-255l-74 -144h-248l406 700h395l136 -700h-159c-49 -7 -216 -45 -216 -108zM358 306h151l-32 233z" />
    <glyph glyph-name="Aring.ss01" horiz-adv-x="947" 
d="M566 740c-155 0 -241 40 -241 88c0 59 119 102 278 102c155 0 241 -39 241 -86c0 -60 -120 -104 -278 -104zM591 868c-117 0 -193 -15 -193 -33s67 -33 180 -33c116 0 193 16 193 35c0 17 -67 31 -180 31zM550 0l-20 144h-255l-74 -144h-248l406 700h395l136 -700h-340z
M358 306h151l-32 233z" />
    <glyph glyph-name="Atilde.ss01" horiz-adv-x="947" 
d="M694 778c-97 0 -159 53 -252 53c-38 0 -81 -9 -135 -33l12 67c66 31 119 35 164 35c92 0 152 -53 241 -53c38 0 83 8 139 33l-13 -67c-63 -29 -113 -35 -156 -35zM550 0l-20 144h-255l-74 -144h-248l406 700h395l136 -700h-340zM358 306h151l-32 233z" />
    <glyph glyph-name="Cacute.ss01" horiz-adv-x="920" 
d="M315 772l14 72l501 56l-14 -72zM24 267c0 269 213 453 522 453c290 0 422 -104 388 -282h-316c19 101 -15 145 -88 145c-106 0 -188 -143 -188 -338c0 -92 32 -128 97 -128c72 0 125 44 144 145h316c-34 -178 -207 -282 -496 -282c-243 0 -379 105 -379 287z" />
    <glyph glyph-name="Ccaron.ss01" horiz-adv-x="920" 
d="M315 900l258 -60l282 60l-14 -72l-282 -60l-258 60zM24 267c0 269 213 453 522 453c290 0 422 -104 388 -282h-316c19 101 -15 145 -88 145c-106 0 -188 -143 -188 -338c0 -92 32 -128 97 -128c72 0 125 44 144 145h316c-34 -178 -207 -282 -496 -282
c-243 0 -379 105 -379 287z" />
    <glyph glyph-name="Ccedilla.ss01" horiz-adv-x="920" 
d="M934 438h-316c19 101 -15 145 -88 145c-106 0 -188 -143 -188 -338c0 -92 32 -128 97 -128c72 0 125 44 144 145h316c-32 -169 -190 -271 -453 -281c71 -7 108 -31 108 -76c0 -79 -79 -127 -210 -127c-72 0 -103 18 -121 24l14 70c52 -14 97 -20 126 -20
c47 0 106 1 106 38c0 31 -51 35 -160 35l45 56c-212 14 -330 117 -330 286c0 269 213 453 522 453c290 0 422 -104 388 -282z" />
    <glyph glyph-name="Ccircumflex.ss01" horiz-adv-x="920" 
d="M289 768l14 72l282 60l258 -60l-14 -72l-258 60zM24 267c0 269 213 453 522 453c290 0 422 -104 388 -282h-316c19 101 -15 145 -88 145c-106 0 -188 -143 -188 -338c0 -92 32 -128 97 -128c72 0 125 44 144 145h316c-34 -178 -207 -282 -496 -282
c-243 0 -379 105 -379 287z" />
    <glyph glyph-name="Cdotaccent.ss01" horiz-adv-x="920" 
d="M415 801l14 72h302l-14 -72h-302zM24 267c0 269 213 453 522 453c290 0 422 -104 388 -282h-316c19 101 -15 145 -88 145c-106 0 -188 -143 -188 -338c0 -92 32 -128 97 -128c72 0 125 44 144 145h316c-34 -178 -207 -282 -496 -282c-243 0 -379 105 -379 287z" />
    <glyph glyph-name="Eth.ss01" horiz-adv-x="918" 
d="M528 700c263 0 393 -87 393 -263c0 -277 -194 -437 -529 -437h-414l61 315h-79l14 72h79l61 313h414zM377 127c134 0 222 125 222 311c0 101 -53 135 -136 135h-72l-36 -186h111l-14 -72h-111l-36 -188h72z" />
    <glyph glyph-name="Dcaron.ss01" horiz-adv-x="909" 
d="M267 900l258 -60l282 60l-14 -72l-282 -60l-258 60zM-26 0l136 700h414c263 0 393 -87 393 -263c0 -277 -194 -437 -529 -437h-414zM301 127h72c134 0 222 125 222 311c0 101 -53 135 -136 135h-72z" />
    <glyph glyph-name="Dcroat.ss01" horiz-adv-x="918" 
d="M528 700c263 0 393 -87 393 -263c0 -277 -194 -437 -529 -437h-414l61 315h-79l14 72h79l61 313h414zM377 127c134 0 222 125 222 311c0 101 -53 135 -136 135h-72l-36 -186h111l-14 -72h-111l-36 -188h72z" />
    <glyph glyph-name="Eacute.ss01" horiz-adv-x="738" 
d="M220 772l14 72l501 56l-14 -72zM-26 0l136 700h692l-31 -162h-390l-21 -107h390l-32 -162h-390l-21 -107h390l-31 -162h-692z" />
    <glyph glyph-name="Ebreve.ss01" horiz-adv-x="738" 
d="M231 828l14 72c71 -40 158 -60 233 -60c74 0 170 20 257 60l-14 -72c-87 -40 -183 -60 -257 -60c-75 0 -162 20 -233 60zM-26 0l136 700h692l-31 -162h-390l-21 -107h390l-32 -162h-390l-21 -107h390l-31 -162h-692z" />
    <glyph glyph-name="Ecaron.ss01" horiz-adv-x="738" 
d="M220 900l258 -60l282 60l-14 -72l-282 -60l-258 60zM-26 0l136 700h692l-31 -162h-390l-21 -107h390l-32 -162h-390l-21 -107h390l-31 -162h-692z" />
    <glyph glyph-name="Ecircumflex.ss01" horiz-adv-x="738" 
d="M194 768l14 72l282 60l258 -60l-14 -72l-258 60zM-26 0l136 700h692l-31 -162h-390l-21 -107h390l-32 -162h-390l-21 -107h390l-31 -162h-692z" />
    <glyph glyph-name="Edieresis.ss01" horiz-adv-x="738" 
d="M164 801l14 72h282l-14 -72h-282zM496 801l14 72h282l-14 -72h-282zM-26 0l136 700h692l-31 -162h-390l-21 -107h390l-32 -162h-390l-21 -107h390l-31 -162h-692z" />
    <glyph glyph-name="Edotaccent.ss01" horiz-adv-x="738" 
d="M320 801l14 72h302l-14 -72h-302zM-26 0l136 700h692l-31 -162h-390l-21 -107h390l-32 -162h-390l-21 -107h390l-31 -162h-692z" />
    <glyph glyph-name="Egrave.ss01" horiz-adv-x="738" 
d="M231 828l14 72l479 -56l-14 -72zM-26 0l136 700h692l-31 -162h-390l-21 -107h390l-32 -162h-390l-21 -107h390l-31 -162h-692z" />
    <glyph glyph-name="Emacron.ss01" horiz-adv-x="738" 
d="M226 801l14 72h490l-14 -72h-490zM-26 0l136 700h692l-31 -162h-390l-21 -107h390l-32 -162h-390l-21 -107h390l-31 -162h-692z" />
    <glyph glyph-name="Eogonek.ss01" horiz-adv-x="738" 
d="M771 538h-390l-21 -107h390l-32 -162h-390l-21 -107h390l-31 -162h-112c-49 -7 -216 -45 -216 -108c0 -16 15 -37 128 -37c71 0 151 15 177 26l-14 -70c-38 -20 -142 -29 -177 -29c-103 0 -207 21 -207 98c0 54 48 95 99 120h-370l136 700h692z" />
    <glyph glyph-name="Gbreve.ss01" horiz-adv-x="925" 
d="M818 828c-87 -40 -183 -60 -257 -60c-75 0 -162 20 -233 60l14 72c71 -40 158 -60 233 -60c74 0 170 20 257 60zM936 448h-316c15 81 -12 135 -85 135c-111 0 -194 -152 -194 -355c0 -90 37 -126 114 -126c37 0 89 8 121 24l20 103h-143l28 142h440l-28 -142l-28 -142
c-135 -64 -286 -107 -462 -107c-243 0 -379 105 -379 287c0 269 213 453 522 453c290 0 422 -104 390 -272z" />
    <glyph glyph-name="Gcircumflex.ss01" horiz-adv-x="925" 
d="M831 768l-258 60l-282 -60l14 72l282 60l258 -60zM936 448h-316c15 81 -12 135 -85 135c-111 0 -194 -152 -194 -355c0 -90 37 -126 114 -126c37 0 89 8 121 24l20 103h-143l28 142h440l-28 -142l-28 -142c-135 -64 -286 -107 -462 -107c-243 0 -379 105 -379 287
c0 269 213 453 522 453c290 0 422 -104 390 -272z" />
    <glyph glyph-name="uni0122.ss01" horiz-adv-x="925" 
d="M936 448h-316c15 81 -12 135 -85 135c-111 0 -194 -152 -194 -355c0 -90 37 -126 114 -126c37 0 89 8 121 24l20 103h-143l28 142h440l-28 -142l-28 -142c-135 -64 -286 -107 -462 -107c-243 0 -379 105 -379 287c0 269 213 453 522 453c290 0 422 -104 390 -272z
M89 -190l14 72l461 56l-14 -72z" />
    <glyph glyph-name="Gdotaccent.ss01" horiz-adv-x="925" 
d="M733 873l-14 -72h-302l14 72h302zM936 448h-316c15 81 -12 135 -85 135c-111 0 -194 -152 -194 -355c0 -90 37 -126 114 -126c37 0 89 8 121 24l20 103h-143l28 142h440l-28 -142l-28 -142c-135 -64 -286 -107 -462 -107c-243 0 -379 105 -379 287c0 269 213 453 522 453
c290 0 422 -104 390 -272z" />
    <glyph glyph-name="Hbar.ss01" horiz-adv-x="1000" 
d="M1006 603l-14 -72h-81l-103 -531h-302l52 269h-216l-52 -269h-302l103 531h-79l14 72h79l19 97h302l-19 -97h216l19 97h302l-19 -97h81zM590 431l19 100h-216l-19 -100h216z" />
    <glyph glyph-name="Hcircumflex.ss01" horiz-adv-x="871" 
d="M263 768l14 72l282 60l258 -60l-14 -72l-258 60zM-26 0l136 700h302l-52 -269h216l52 269h302l-136 -700h-302l52 269h-216l-52 -269h-302z" />
    <glyph glyph-name="Iacute.ss01" horiz-adv-x="353" 
d="M30 772l14 72l501 56l-14 -72zM-26 0l136 700h302l-136 -700h-302z" />
    <glyph glyph-name="Ibreve.ss01" horiz-adv-x="353" 
d="M41 828l14 72c71 -40 158 -60 233 -60c74 0 170 20 257 60l-14 -72c-87 -40 -183 -60 -257 -60c-75 0 -162 20 -233 60zM-26 0l136 700h302l-136 -700h-302z" />
    <glyph glyph-name="Icircumflex.ss01" horiz-adv-x="353" 
d="M4 768l14 72l282 60l258 -60l-14 -72l-258 60zM-26 0l136 700h302l-136 -700h-302z" />
    <glyph glyph-name="Idieresis.ss01" horiz-adv-x="353" 
d="M-26 801l14 72h282l-14 -72h-282zM306 801l14 72h282l-14 -72h-282zM-26 0l136 700h302l-136 -700h-302z" />
    <glyph glyph-name="Idotaccent.ss01" horiz-adv-x="353" 
d="M130 801l14 72h302l-14 -72h-302zM-26 0l136 700h302l-136 -700h-302z" />
    <glyph glyph-name="Igrave.ss01" horiz-adv-x="353" 
d="M41 828l14 72l479 -56l-14 -72zM-26 0l136 700h302l-136 -700h-302z" />
    <glyph glyph-name="Imacron.ss01" horiz-adv-x="353" 
d="M36 801l14 72h490l-14 -72h-490zM-26 0l136 700h302l-136 -700h-302z" />
    <glyph glyph-name="Iogonek.ss01" horiz-adv-x="353" 
d="M164 0c-49 -7 -216 -45 -216 -108c0 -16 15 -37 128 -37c71 0 151 15 177 26l-14 -70c-38 -20 -142 -29 -177 -29c-103 0 -207 21 -207 98c0 62 63 107 121 130l134 690h302l-136 -700h-112z" />
    <glyph glyph-name="Itilde.ss01" horiz-adv-x="353" 
d="M10 798l12 67c66 31 119 35 164 35c92 0 152 -53 241 -53c38 0 83 8 139 33l-13 -67c-63 -29 -113 -35 -156 -35c-97 0 -159 53 -252 53c-38 0 -81 -9 -135 -33zM-26 0l136 700h302l-136 -700h-302z" />
    <glyph glyph-name="Jcircumflex.ss01" horiz-adv-x="784" 
d="M220 768l14 72l282 60l258 -60l-14 -72l-258 60zM24 313h292l-19 -97c-15 -78 -4 -111 54 -111c57 0 82 33 97 111l94 484h302l-81 -413c-38 -195 -174 -307 -449 -307c-315 0 -328 128 -299 285z" />
    <glyph glyph-name="uni0136.ss01" horiz-adv-x="918" 
d="M987 700l-328 -330l202 -370h-357l-171 291l-57 -291h-302l136 700h302l-56 -289l274 289h357zM78 -190l14 72l461 56l-14 -72z" />
    <glyph glyph-name="Lacute.ss01" horiz-adv-x="673" 
d="M190 772l14 72l501 56l-14 -72zM-26 0l136 700h302l-103 -528h330l-33 -172h-632z" />
    <glyph glyph-name="Lcaron.ss01" horiz-adv-x="673" 
d="M607 780l-93 -285h-72l90 285h75zM-26 0l136 700h302l-103 -528h330l-33 -172h-632z" />
    <glyph glyph-name="uni013B.ss01" horiz-adv-x="673" 
d="M-26 0l136 700h302l-103 -528h330l-33 -172h-632zM27 -190l14 72l461 56l-14 -72z" />
    <glyph glyph-name="Ldot.ss01" horiz-adv-x="673" 
d="M-26 0l136 700h302l-103 -528h330l-33 -172h-632zM382 291l14 72l227 28l-14 -72z" />
    <glyph glyph-name="Lslash.ss01" horiz-adv-x="701" 
d="M332 172h330l-33 -172h-632l36 184l-87 -37l14 72l87 37l86 444h302l-60 -306l254 107l-14 -72l-254 -107z" />
    <glyph glyph-name="Nacute.ss01" horiz-adv-x="854" 
d="M281 772l14 72l501 56l-14 -72zM-26 0l136 700h339l188 -407l79 407h197l-136 -700h-347l-186 376l-73 -376h-197z" />
    <glyph glyph-name="Ncaron.ss01" horiz-adv-x="854" 
d="M281 900l258 -60l282 60l-14 -72l-282 -60l-258 60zM-26 0l136 700h339l188 -407l79 407h197l-136 -700h-347l-186 376l-73 -376h-197z" />
    <glyph glyph-name="uni0145.ss01" horiz-adv-x="854" 
d="M-26 0l136 700h339l188 -407l79 407h197l-136 -700h-347l-186 376l-73 -376h-197zM54 -190l14 72l461 56l-14 -72z" />
    <glyph glyph-name="Ntilde.ss01" horiz-adv-x="854" 
d="M261 798l12 67c66 31 119 35 164 35c92 0 152 -53 241 -53c38 0 83 8 139 33l-13 -67c-63 -29 -113 -35 -156 -35c-97 0 -159 53 -252 53c-38 0 -81 -9 -135 -33zM-26 0l136 700h339l188 -407l79 407h197l-136 -700h-347l-186 376l-73 -376h-197z" />
    <glyph glyph-name="Oacute.ss01" horiz-adv-x="978" 
d="M342 772l14 72l501 56l-14 -72zM25 268c0 274 217 452 552 452c269 0 409 -105 409 -288c0 -274 -218 -452 -553 -452c-268 0 -408 105 -408 288zM344 253c0 -98 37 -136 116 -136c122 0 207 131 207 330c0 98 -37 136 -116 136c-122 0 -207 -131 -207 -330z" />
    <glyph glyph-name="Obreve.ss01" horiz-adv-x="978" 
d="M353 828l14 72c71 -40 158 -60 233 -60c74 0 170 20 257 60l-14 -72c-87 -40 -183 -60 -257 -60c-75 0 -162 20 -233 60zM25 268c0 274 217 452 552 452c269 0 409 -105 409 -288c0 -274 -218 -452 -553 -452c-268 0 -408 105 -408 288zM344 253c0 -98 37 -136 116 -136
c122 0 207 131 207 330c0 98 -37 136 -116 136c-122 0 -207 -131 -207 -330z" />
    <glyph glyph-name="Ocircumflex.ss01" horiz-adv-x="978" 
d="M316 768l14 72l282 60l258 -60l-14 -72l-258 60zM25 268c0 274 217 452 552 452c269 0 409 -105 409 -288c0 -274 -218 -452 -553 -452c-268 0 -408 105 -408 288zM344 253c0 -98 37 -136 116 -136c122 0 207 131 207 330c0 98 -37 136 -116 136
c-122 0 -207 -131 -207 -330z" />
    <glyph glyph-name="Odieresis.ss01" horiz-adv-x="978" 
d="M286 801l14 72h282l-14 -72h-282zM618 801l14 72h282l-14 -72h-282zM25 268c0 274 217 452 552 452c269 0 409 -105 409 -288c0 -274 -218 -452 -553 -452c-268 0 -408 105 -408 288zM344 253c0 -98 37 -136 116 -136c122 0 207 131 207 330c0 98 -37 136 -116 136
c-122 0 -207 -131 -207 -330z" />
    <glyph glyph-name="Ograve.ss01" horiz-adv-x="978" 
d="M353 828l14 72l479 -56l-14 -72zM25 268c0 274 217 452 552 452c269 0 409 -105 409 -288c0 -274 -218 -452 -553 -452c-268 0 -408 105 -408 288zM344 253c0 -98 37 -136 116 -136c122 0 207 131 207 330c0 98 -37 136 -116 136c-122 0 -207 -131 -207 -330z" />
    <glyph glyph-name="Ohungarumlaut.ss01" horiz-adv-x="978" 
d="M186 772l14 72l387 56l-14 -72zM612 772l14 72l387 56l-14 -72zM25 268c0 274 217 452 552 452c269 0 409 -105 409 -288c0 -274 -218 -452 -553 -452c-268 0 -408 105 -408 288zM344 253c0 -98 37 -136 116 -136c122 0 207 131 207 330c0 98 -37 136 -116 136
c-122 0 -207 -131 -207 -330z" />
    <glyph glyph-name="Omacron.ss01" horiz-adv-x="978" 
d="M348 801l14 72h490l-14 -72h-490zM25 268c0 274 217 452 552 452c269 0 409 -105 409 -288c0 -274 -218 -452 -553 -452c-268 0 -408 105 -408 288zM344 253c0 -98 37 -136 116 -136c122 0 207 131 207 330c0 98 -37 136 -116 136c-122 0 -207 -131 -207 -330z" />
    <glyph glyph-name="Oslash.ss01" horiz-adv-x="978" 
d="M849 666c90 -49 137 -129 137 -234c0 -274 -218 -452 -553 -452c-78 0 -144 9 -200 26l-71 -76h-83l93 100c-97 47 -147 129 -147 238c0 274 217 452 552 452c83 0 154 -10 212 -29l74 79h83zM344 253c0 -13 1 -26 2 -37l302 323c-19 31 -51 44 -97 44
c-122 0 -207 -131 -207 -330zM460 117c122 0 207 131 207 330c0 8 0 16 -1 23l-297 -318c19 -24 49 -35 91 -35z" />
    <glyph glyph-name="Otilde.ss01" horiz-adv-x="978" 
d="M322 798l12 67c66 31 119 35 164 35c92 0 152 -53 241 -53c38 0 83 8 139 33l-13 -67c-63 -29 -113 -35 -156 -35c-97 0 -159 53 -252 53c-38 0 -81 -9 -135 -33zM25 268c0 274 217 452 552 452c269 0 409 -105 409 -288c0 -274 -218 -452 -553 -452
c-268 0 -408 105 -408 288zM344 253c0 -98 37 -136 116 -136c122 0 207 131 207 330c0 98 -37 136 -116 136c-122 0 -207 -131 -207 -330z" />
    <glyph glyph-name="Racute.ss01" horiz-adv-x="859" 
d="M278 772l14 72l501 56l-14 -72zM-26 0l136 700h572c128 0 199 -55 199 -149c0 -123 -79 -197 -214 -223c117 -14 165 -69 142 -188l-27 -140h-320l25 130c15 77 6 127 -94 127h-67l-50 -257h-302zM351 384h76c89 0 149 46 149 116c0 49 -42 73 -113 73h-76z" />
    <glyph glyph-name="Rcaron.ss01" horiz-adv-x="859" 
d="M278 900l258 -60l282 60l-14 -72l-282 -60l-258 60zM-26 0l136 700h572c128 0 199 -55 199 -149c0 -123 -79 -197 -214 -223c117 -14 165 -69 142 -188l-27 -140h-320l25 130c15 77 6 127 -94 127h-67l-50 -257h-302zM351 384h76c89 0 149 46 149 116
c0 49 -42 73 -113 73h-76z" />
    <glyph glyph-name="uni0156.ss01" horiz-adv-x="859" 
d="M-26 0l136 700h572c128 0 199 -55 199 -149c0 -123 -79 -197 -214 -223c117 -14 165 -69 142 -188l-27 -140h-320l25 130c15 77 6 127 -94 127h-67l-50 -257h-302zM351 384h76c89 0 149 46 149 116c0 49 -42 73 -113 73h-76zM51 -190l14 72l461 56l-14 -72z" />
    <glyph glyph-name="Sacute.ss01" horiz-adv-x="779" 
d="M242 772l14 72l501 56l-14 -72zM5 215h282c-25 -75 -14 -125 73 -125c61 0 105 30 105 73c0 30 -31 45 -80 57c-173 44 -323 90 -323 226c0 166 159 274 426 274c285 0 321 -119 300 -225h-277c25 87 -7 115 -69 115c-59 0 -98 -28 -98 -71c0 -28 21 -49 91 -64
c216 -46 323 -103 323 -215c0 -175 -157 -280 -420 -280c-296 0 -363 81 -333 235z" />
    <glyph glyph-name="Scaron.ss01" horiz-adv-x="779" 
d="M242 900l258 -60l282 60l-14 -72l-282 -60l-258 60zM5 215h282c-25 -75 -14 -125 73 -125c61 0 105 30 105 73c0 30 -31 45 -80 57c-173 44 -323 90 -323 226c0 166 159 274 426 274c285 0 321 -119 300 -225h-277c25 87 -7 115 -69 115c-59 0 -98 -28 -98 -71
c0 -28 21 -49 91 -64c216 -46 323 -103 323 -215c0 -175 -157 -280 -420 -280c-296 0 -363 81 -333 235z" />
    <glyph glyph-name="Scedilla.ss01" horiz-adv-x="779" 
d="M788 495h-277c25 87 -7 115 -69 115c-59 0 -98 -28 -98 -71c0 -28 21 -49 91 -64c216 -46 323 -103 323 -215c0 -167 -142 -270 -383 -279c71 -7 107 -31 107 -76c0 -79 -79 -127 -210 -127c-72 0 -103 18 -121 24l14 70c52 -14 97 -20 126 -20c47 0 106 1 106 38
c0 31 -51 35 -160 35l45 56c-249 10 -305 90 -277 234h282c-25 -75 -14 -125 73 -125c61 0 105 30 105 73c0 30 -31 45 -80 57c-173 44 -323 90 -323 226c0 166 159 274 426 274c285 0 321 -119 300 -225z" />
    <glyph glyph-name="Scircumflex.ss01" horiz-adv-x="779" 
d="M216 768l14 72l282 60l258 -60l-14 -72l-258 60zM5 215h282c-25 -75 -14 -125 73 -125c61 0 105 30 105 73c0 30 -31 45 -80 57c-173 44 -323 90 -323 226c0 166 159 274 426 274c285 0 321 -119 300 -225h-277c25 87 -7 115 -69 115c-59 0 -98 -28 -98 -71
c0 -28 21 -49 91 -64c216 -46 323 -103 323 -215c0 -175 -157 -280 -420 -280c-296 0 -363 81 -333 235z" />
    <glyph glyph-name="uni0218.ss01" horiz-adv-x="779" 
d="M5 215h282c-25 -75 -14 -125 73 -125c61 0 105 30 105 73c0 30 -31 45 -80 57c-173 44 -323 90 -323 226c0 166 159 274 426 274c285 0 321 -119 300 -225h-277c25 87 -7 115 -69 115c-59 0 -98 -28 -98 -71c0 -28 21 -49 91 -64c216 -46 323 -103 323 -215
c0 -175 -157 -280 -420 -280c-296 0 -363 81 -333 235zM15 -190l14 72l461 56l-14 -72z" />
    <glyph glyph-name="Tbar.ss01" horiz-adv-x="783" 
d="M831 538h-235l-38 -193h112l-15 -75h-111l-53 -270h-302l53 270h-99l15 75h98l38 193h-235l31 162h772z" />
    <glyph glyph-name="Tcaron.ss01" horiz-adv-x="783" 
d="M245 900l258 -60l282 60l-14 -72l-282 -60l-258 60zM189 0l105 538h-235l31 162h772l-31 -162h-235l-105 -538h-302z" />
    <glyph glyph-name="uni0162.ss01" horiz-adv-x="783" 
d="M90 700h772l-31 -162h-235l-105 -538h-111l-18 -18c81 -5 123 -29 123 -77c0 -79 -79 -127 -210 -127c-72 0 -103 18 -121 24l14 70c52 -14 97 -20 126 -20c47 0 106 1 106 38c0 31 -51 35 -160 35l60 75h-111l105 538h-235z" />
    <glyph glyph-name="uni021A.ss01" horiz-adv-x="783" 
d="M189 0l105 538h-235l31 162h772l-31 -162h-235l-105 -538h-302zM18 -190l14 72l461 56l-14 -72z" />
    <glyph glyph-name="Uacute.ss01" horiz-adv-x="871" 
d="M289 772l14 72l501 56l-14 -72zM110 700h302l-89 -460c-15 -76 14 -113 86 -113c73 0 115 37 130 113l89 460h302l-80 -413c-40 -206 -195 -307 -470 -307c-274 0 -390 101 -350 307z" />
    <glyph glyph-name="Ubreve.ss01" horiz-adv-x="871" 
d="M300 828l14 72c71 -40 158 -60 233 -60c74 0 170 20 257 60l-14 -72c-87 -40 -183 -60 -257 -60c-75 0 -162 20 -233 60zM110 700h302l-89 -460c-15 -76 14 -113 86 -113c73 0 115 37 130 113l89 460h302l-80 -413c-40 -206 -195 -307 -470 -307
c-274 0 -390 101 -350 307z" />
    <glyph glyph-name="Ucircumflex.ss01" horiz-adv-x="871" 
d="M263 768l14 72l282 60l258 -60l-14 -72l-258 60zM110 700h302l-89 -460c-15 -76 14 -113 86 -113c73 0 115 37 130 113l89 460h302l-80 -413c-40 -206 -195 -307 -470 -307c-274 0 -390 101 -350 307z" />
    <glyph glyph-name="Udieresis.ss01" horiz-adv-x="871" 
d="M233 801l14 72h282l-14 -72h-282zM565 801l14 72h282l-14 -72h-282zM110 700h302l-89 -460c-15 -76 14 -113 86 -113c73 0 115 37 130 113l89 460h302l-80 -413c-40 -206 -195 -307 -470 -307c-274 0 -390 101 -350 307z" />
    <glyph glyph-name="Ugrave.ss01" horiz-adv-x="871" 
d="M300 828l14 72l479 -56l-14 -72zM110 700h302l-89 -460c-15 -76 14 -113 86 -113c73 0 115 37 130 113l89 460h302l-80 -413c-40 -206 -195 -307 -470 -307c-274 0 -390 101 -350 307z" />
    <glyph glyph-name="Uhungarumlaut.ss01" horiz-adv-x="871" 
d="M133 772l14 72l387 56l-14 -72zM559 772l14 72l387 56l-14 -72zM110 700h302l-89 -460c-15 -76 14 -113 86 -113c73 0 115 37 130 113l89 460h302l-80 -413c-40 -206 -195 -307 -470 -307c-274 0 -390 101 -350 307z" />
    <glyph glyph-name="Umacron.ss01" horiz-adv-x="871" 
d="M295 801l14 72h490l-14 -72h-490zM110 700h302l-89 -460c-15 -76 14 -113 86 -113c73 0 115 37 130 113l89 460h302l-80 -413c-40 -206 -195 -307 -470 -307c-274 0 -390 101 -350 307z" />
    <glyph glyph-name="Uogonek.ss01" horiz-adv-x="871" 
d="M628 700h302l-80 -413c-31 -160 -131 -256 -302 -292c-68 -18 -163 -56 -163 -103c0 -16 15 -37 128 -37c71 0 151 15 177 26l-14 -70c-38 -20 -142 -29 -177 -29c-103 0 -207 21 -207 98c0 42 28 75 65 100c-258 6 -366 107 -327 307l80 413h302l-89 -460
c-15 -76 14 -113 86 -113c73 0 115 37 130 113z" />
    <glyph glyph-name="Uring.ss01" horiz-adv-x="871" 
d="M287 828c0 59 119 102 278 102c155 0 241 -39 241 -86c0 -60 -120 -104 -278 -104c-155 0 -241 40 -241 88zM360 835c0 -18 67 -33 180 -33c116 0 193 16 193 35c0 17 -67 31 -180 31c-117 0 -193 -15 -193 -33zM110 700h302l-89 -460c-15 -76 14 -113 86 -113
c73 0 115 37 130 113l89 460h302l-80 -413c-40 -206 -195 -307 -470 -307c-274 0 -390 101 -350 307z" />
    <glyph glyph-name="Utilde.ss01" horiz-adv-x="871" 
d="M269 798l12 67c66 31 119 35 164 35c92 0 152 -53 241 -53c38 0 83 8 139 33l-13 -67c-63 -29 -113 -35 -156 -35c-97 0 -159 53 -252 53c-38 0 -81 -9 -135 -33zM110 700h302l-89 -460c-15 -76 14 -113 86 -113c73 0 115 37 130 113l89 460h302l-80 -413
c-40 -206 -195 -307 -470 -307c-274 0 -390 101 -350 307z" />
    <glyph glyph-name="Wacute.ss01" horiz-adv-x="1285" 
d="M1012 900l-14 -72l-501 -56l14 72zM1142 700h223l-324 -700h-355l-21 385l-170 -385h-355l-50 700h287l7 -529l219 529h311l5 -529z" />
    <glyph glyph-name="Wcircumflex.ss01" horiz-adv-x="1285" 
d="M1011 768l-258 60l-282 -60l14 72l282 60l258 -60zM1142 700h223l-324 -700h-355l-21 385l-170 -385h-355l-50 700h287l7 -529l219 529h311l5 -529z" />
    <glyph glyph-name="Wdieresis.ss01" horiz-adv-x="1285" 
d="M737 873l-14 -72h-282l14 72h282zM1069 873l-14 -72h-282l14 72h282zM1142 700h223l-324 -700h-355l-21 385l-170 -385h-355l-50 700h287l7 -529l219 529h311l5 -529z" />
    <glyph glyph-name="Wgrave.ss01" horiz-adv-x="1285" 
d="M1001 844l-14 -72l-479 56l14 72zM1142 700h223l-324 -700h-355l-21 385l-170 -385h-355l-50 700h287l7 -529l219 529h311l5 -529z" />
    <glyph glyph-name="Yacute.ss01" horiz-adv-x="909" 
d="M834 900l-14 -72l-501 -56l14 72zM989 700l-387 -470l-45 -230h-302l43 223l-208 477h366l87 -261l192 261h254z" />
    <glyph glyph-name="Ycircumflex.ss01" horiz-adv-x="909" 
d="M833 768l-258 60l-282 -60l14 72l282 60l258 -60zM989 700l-387 -470l-45 -230h-302l43 223l-208 477h366l87 -261l192 261h254z" />
    <glyph glyph-name="Ydieresis.ss01" horiz-adv-x="909" 
d="M559 873l-14 -72h-282l14 72h282zM891 873l-14 -72h-282l14 72h282zM989 700l-387 -470l-45 -230h-302l43 223l-208 477h366l87 -261l192 261h254z" />
    <glyph glyph-name="Ygrave.ss01" horiz-adv-x="909" 
d="M823 844l-14 -72l-479 56l14 72zM989 700l-387 -470l-45 -230h-302l43 223l-208 477h366l87 -261l192 261h254z" />
    <glyph glyph-name="Zacute.ss01" horiz-adv-x="742" 
d="M224 772l14 72l501 56l-14 -72zM-37 0l30 152l399 386h-319l31 162h702l-29 -152l-400 -386h329l-31 -162h-712z" />
    <glyph glyph-name="Zcaron.ss01" horiz-adv-x="742" 
d="M224 900l258 -60l282 60l-14 -72l-282 -60l-258 60zM-37 0l30 152l399 386h-319l31 162h702l-29 -152l-400 -386h329l-31 -162h-712z" />
    <glyph glyph-name="Zdotaccent.ss01" horiz-adv-x="742" 
d="M324 801l14 72h302l-14 -72h-302zM-37 0l30 152l399 386h-319l31 162h702l-29 -152l-400 -386h329l-31 -162h-712z" />
    <glyph glyph-name="a" unicode="a" horiz-adv-x="794" 
d="M10 199c0 195 154 351 346 351c74 0 141 -30 186 -105l16 85h262l-103 -530h-262l17 85c-74 -75 -153 -105 -227 -105c-147 0 -235 87 -235 219zM292 216c0 -71 28 -101 81 -101c80 0 140 78 140 199c0 71 -28 101 -81 101c-80 0 -140 -78 -140 -199z" />
    <glyph glyph-name="aacute" unicode="&#xe1;" horiz-adv-x="794" 
d="M328 600l127 190h286l-197 -190h-216zM10 199c0 195 154 351 346 351c74 0 141 -30 186 -105l16 85h262l-103 -530h-262l17 85c-74 -75 -153 -105 -227 -105c-147 0 -235 87 -235 219zM292 216c0 -71 28 -101 81 -101c80 0 140 78 140 199c0 71 -28 101 -81 101
c-80 0 -140 -78 -140 -199z" />
    <glyph glyph-name="abreve" unicode="&#x103;" horiz-adv-x="794" 
d="M214 790h221c-21 -81 -3 -110 41 -110c45 0 72 29 83 110h221c-27 -137 -137 -200 -322 -200s-270 64 -244 200zM10 199c0 195 154 351 346 351c74 0 141 -30 186 -105l16 85h262l-103 -530h-262l17 85c-74 -75 -153 -105 -227 -105c-147 0 -235 87 -235 219zM292 216
c0 -71 28 -101 81 -101c80 0 140 78 140 199c0 71 -28 101 -81 101c-80 0 -140 -78 -140 -199z" />
    <glyph glyph-name="acircumflex" unicode="&#xe2;" horiz-adv-x="794" 
d="M154 600l167 190h352l93 -190h-221l-64 106l-106 -106h-221zM10 199c0 195 154 351 346 351c74 0 141 -30 186 -105l16 85h262l-103 -530h-262l17 85c-74 -75 -153 -105 -227 -105c-147 0 -235 87 -235 219zM292 216c0 -71 28 -101 81 -101c80 0 140 78 140 199
c0 71 -28 101 -81 101c-80 0 -140 -78 -140 -199z" />
    <glyph glyph-name="adieresis" unicode="&#xe4;" horiz-adv-x="794" 
d="M195 673c0 75 62 127 151 127c77 0 110 -36 110 -83c0 -75 -63 -127 -151 -127c-78 0 -110 36 -110 83zM501 673c0 75 62 127 151 127c77 0 110 -36 110 -83c0 -75 -63 -127 -151 -127c-78 0 -110 36 -110 83zM10 199c0 195 154 351 346 351c74 0 141 -30 186 -105l16 85
h262l-103 -530h-262l17 85c-74 -75 -153 -105 -227 -105c-147 0 -235 87 -235 219zM292 216c0 -71 28 -101 81 -101c80 0 140 78 140 199c0 71 -28 101 -81 101c-80 0 -140 -78 -140 -199z" />
    <glyph glyph-name="agrave" unicode="&#xe0;" horiz-adv-x="794" 
d="M371 600l-123 190h286l53 -190h-216zM10 199c0 195 154 351 346 351c74 0 141 -30 186 -105l16 85h262l-103 -530h-262l17 85c-74 -75 -153 -105 -227 -105c-147 0 -235 87 -235 219zM292 216c0 -71 28 -101 81 -101c80 0 140 78 140 199c0 71 -28 101 -81 101
c-80 0 -140 -78 -140 -199z" />
    <glyph glyph-name="amacron" unicode="&#x101;" horiz-adv-x="794" 
d="M244 610l30 155h435l-30 -155h-435zM10 199c0 195 154 351 346 351c74 0 141 -30 186 -105l16 85h262l-103 -530h-262l17 85c-74 -75 -153 -105 -227 -105c-147 0 -235 87 -235 219zM292 216c0 -71 28 -101 81 -101c80 0 140 78 140 199c0 71 -28 101 -81 101
c-80 0 -140 -78 -140 -199z" />
    <glyph glyph-name="aogonek" unicode="&#x105;" horiz-adv-x="794" 
d="M717 0c-39 -28 -65 -59 -65 -84c0 -20 21 -26 55 -19l-21 -108c-38 -20 -98 -29 -144 -29c-87 0 -143 29 -143 84c0 72 85 135 206 156h-150l17 85c-74 -75 -153 -105 -227 -105c-147 0 -235 87 -235 219c0 195 154 351 346 351c74 0 141 -30 186 -105l16 85h262z
M373 115c80 0 140 78 140 199c0 71 -28 101 -81 101c-80 0 -140 -78 -140 -199c0 -71 28 -101 81 -101z" />
    <glyph glyph-name="aring" unicode="&#xe5;" horiz-adv-x="794" 
d="M261 691c0 85 95 139 243 139c125 0 197 -37 197 -101c0 -85 -95 -139 -243 -139c-126 0 -197 37 -197 101zM431 697c0 -22 15 -33 41 -33c35 0 59 23 59 59c0 22 -15 33 -41 33c-36 0 -59 -23 -59 -59zM10 199c0 195 154 351 346 351c74 0 141 -30 186 -105l16 85h262
l-103 -530h-262l17 85c-74 -75 -153 -105 -227 -105c-147 0 -235 87 -235 219zM292 216c0 -71 28 -101 81 -101c80 0 140 78 140 199c0 71 -28 101 -81 101c-80 0 -140 -78 -140 -199z" />
    <glyph glyph-name="atilde" unicode="&#xe3;" horiz-adv-x="794" 
d="M324 600h-115l4 20c28 135 111 180 196 180c91 0 137 -54 173 -54c28 0 43 10 50 44h115c-28 -143 -102 -200 -200 -200c-81 0 -137 54 -173 54c-29 0 -43 -10 -50 -44zM10 199c0 195 154 351 346 351c74 0 141 -30 186 -105l16 85h262l-103 -530h-262l17 85
c-74 -75 -153 -105 -227 -105c-147 0 -235 87 -235 219zM292 216c0 -71 28 -101 81 -101c80 0 140 78 140 199c0 71 -28 101 -81 101c-80 0 -140 -78 -140 -199z" />
    <glyph glyph-name="ae" unicode="&#xe6;" horiz-adv-x="1250" 
d="M1019 550c182 0 247 -138 217 -294l-6 -28h-465c-18 -95 13 -133 75 -133c54 0 90 25 106 77h264c-45 -120 -151 -192 -293 -192c-91 0 -164 29 -186 91l-14 -71h-262l17 85c-74 -75 -153 -105 -227 -105c-147 0 -235 87 -235 219c0 195 154 351 346 351
c74 0 141 -30 186 -105l16 85h262l-14 -72c42 55 131 92 213 92zM906 435c-52 0 -94 -31 -117 -97h192c7 66 -22 97 -75 97zM373 115c81 0 140 89 140 209c0 61 -28 91 -81 91c-80 0 -140 -88 -140 -209c0 -61 28 -91 81 -91z" />
    <glyph glyph-name="b" unicode="b" horiz-adv-x="790" 
d="M-26 0l136 700h262l-50 -255c74 75 154 105 227 105c147 0 235 -87 235 -219c0 -195 -154 -351 -346 -351c-73 0 -141 30 -185 105l-17 -85h-262zM281 216c0 -71 28 -101 81 -101c81 0 140 79 140 199c0 71 -28 101 -81 101c-81 0 -140 -79 -140 -199z" />
    <glyph glyph-name="c" unicode="c" horiz-adv-x="755" 
d="M11 206c0 205 175 344 432 344c220 0 339 -83 310 -231h-261c13 63 -11 106 -68 106c-82 0 -142 -88 -142 -217c0 -73 27 -103 80 -103c58 0 97 43 109 106h261c-28 -148 -180 -231 -399 -231c-205 0 -322 83 -322 226z" />
    <glyph glyph-name="cacute" unicode="&#x107;" horiz-adv-x="755" 
d="M318 580l127 190h286l-197 -190h-216zM11 206c0 205 175 344 432 344c220 0 339 -83 310 -231h-261c13 63 -11 106 -68 106c-82 0 -142 -88 -142 -217c0 -73 27 -103 80 -103c58 0 97 43 109 106h261c-28 -148 -180 -231 -399 -231c-205 0 -322 83 -322 226z" />
    <glyph glyph-name="ccaron" unicode="&#x10d;" horiz-adv-x="755" 
d="M272 580l-91 190h221l63 -114l107 114h221l-165 -190h-356zM11 206c0 205 175 344 432 344c220 0 339 -83 310 -231h-261c13 63 -11 106 -68 106c-82 0 -142 -88 -142 -217c0 -73 27 -103 80 -103c58 0 97 43 109 106h261c-28 -148 -180 -231 -399 -231
c-205 0 -322 83 -322 226z" />
    <glyph glyph-name="ccedilla" unicode="&#xe7;" horiz-adv-x="755" 
d="M753 319h-261c13 63 -11 106 -68 106c-82 0 -142 -88 -142 -217c0 -73 27 -103 80 -103c58 0 97 43 109 106h261c-26 -135 -155 -216 -345 -229l-13 -16c86 -6 119 -43 119 -80c0 -75 -89 -126 -218 -126c-49 0 -100 3 -174 20l41 98c127 -32 166 -25 166 -2
c0 11 -14 18 -109 18l70 89c-165 16 -258 96 -258 223c0 205 175 344 432 344c220 0 339 -83 310 -231z" />
    <glyph glyph-name="ccircumflex" unicode="&#x109;" horiz-adv-x="755" 
d="M144 580l167 190h352l93 -190h-221l-64 106l-106 -106h-221zM11 206c0 205 175 344 432 344c220 0 339 -83 310 -231h-261c13 63 -11 106 -68 106c-82 0 -142 -88 -142 -217c0 -73 27 -103 80 -103c58 0 97 43 109 106h261c-28 -148 -180 -231 -399 -231
c-205 0 -322 83 -322 226z" />
    <glyph glyph-name="cdotaccent" unicode="&#x10b;" horiz-adv-x="755" 
d="M325 654c0 75 67 126 163 126c87 0 123 -37 123 -84c0 -75 -67 -126 -163 -126c-87 0 -123 37 -123 84zM11 206c0 205 175 344 432 344c220 0 339 -83 310 -231h-261c13 63 -11 106 -68 106c-82 0 -142 -88 -142 -217c0 -73 27 -103 80 -103c58 0 97 43 109 106h261
c-28 -148 -180 -231 -399 -231c-205 0 -322 83 -322 226z" />
    <glyph glyph-name="d" unicode="d" horiz-adv-x="794" 
d="M10 199c0 195 154 351 346 351c74 0 141 -30 186 -105l49 255h262l-136 -700h-262l17 85c-74 -75 -153 -105 -227 -105c-147 0 -235 87 -235 219zM292 216c0 -71 28 -101 81 -101c81 0 140 79 140 199c0 71 -28 101 -81 101c-80 0 -140 -78 -140 -199z" />
    <glyph glyph-name="eth" unicode="&#xf0;" horiz-adv-x="791" 
d="M812 720l-26 -132l-109 -26c62 -69 107 -153 107 -244c0 -195 -191 -338 -449 -338c-213 0 -332 77 -332 196c0 145 141 257 324 257c89 0 129 -21 152 -43c-13 37 -35 74 -65 109l-268 -65l26 132l132 32c-33 23 -68 44 -106 63l245 59c38 -12 79 -33 120 -60zM366 105
c78 0 134 58 134 136c0 50 -31 83 -91 83c-76 0 -133 -60 -133 -138c0 -49 31 -81 90 -81z" />
    <glyph glyph-name="dcaron" unicode="&#x10f;" horiz-adv-x="1042" 
d="M10 199c0 195 154 351 346 351c74 0 141 -30 186 -105l49 255h262l-136 -700h-262l17 85c-74 -75 -153 -105 -227 -105c-147 0 -235 87 -235 219zM843 425l53 275h226l-123 -275h-156zM292 216c0 -71 28 -101 81 -101c81 0 140 79 140 199c0 71 -28 101 -81 101
c-80 0 -140 -78 -140 -199z" />
    <glyph glyph-name="dcroat" unicode="&#x111;" horiz-adv-x="859" 
d="M920 630l-25 -130h-81l-97 -500h-262l14 72c-71 -66 -151 -92 -223 -92c-150 0 -241 79 -241 199c0 169 148 301 338 301c73 0 142 -26 188 -92l22 112h-150l25 130h150l13 70h262l-14 -70h81zM374 115c78 0 130 60 130 152c0 53 -30 78 -86 78c-78 0 -130 -60 -130 -152
c0 -53 30 -78 86 -78z" />
    <glyph glyph-name="e" unicode="e" horiz-adv-x="763" 
d="M433 550c219 0 351 -88 316 -294l-5 -28h-466c-18 -96 14 -133 75 -133c52 0 91 25 106 77h264c-44 -120 -166 -192 -378 -192c-205 0 -331 86 -331 242c0 192 162 328 419 328zM419 435c-50 0 -93 -30 -117 -97h193c6 66 -22 97 -76 97z" />
    <glyph glyph-name="eacute" unicode="&#xe9;" horiz-adv-x="763" 
d="M728 770l-197 -190h-216l127 190h286zM433 550c219 0 351 -88 316 -294l-5 -28h-466c-18 -96 14 -133 75 -133c52 0 91 25 106 77h264c-44 -120 -166 -192 -378 -192c-205 0 -331 86 -331 242c0 192 162 328 419 328zM419 435c-50 0 -93 -30 -117 -97h193
c6 66 -22 97 -76 97z" />
    <glyph glyph-name="ebreve" unicode="&#x115;" horiz-adv-x="763" 
d="M445 570c-185 0 -270 64 -244 200h221c-21 -81 -3 -110 41 -110c45 0 72 29 83 110h221c-27 -137 -137 -200 -322 -200zM433 550c219 0 351 -88 316 -294l-5 -28h-466c-18 -96 14 -133 75 -133c52 0 91 25 106 77h264c-44 -120 -166 -192 -378 -192
c-205 0 -331 86 -331 242c0 192 162 328 419 328zM419 435c-50 0 -93 -30 -117 -97h193c6 66 -22 97 -76 97z" />
    <glyph glyph-name="ecaron" unicode="&#x11b;" horiz-adv-x="763" 
d="M625 580h-356l-91 190h221l63 -114l107 114h221zM433 550c219 0 351 -88 316 -294l-5 -28h-466c-18 -96 14 -133 75 -133c52 0 91 25 106 77h264c-44 -120 -166 -192 -378 -192c-205 0 -331 86 -331 242c0 192 162 328 419 328zM419 435c-50 0 -93 -30 -117 -97h193
c6 66 -22 97 -76 97z" />
    <glyph glyph-name="ecircumflex" unicode="&#xea;" horiz-adv-x="763" 
d="M468 686l-106 -106h-221l167 190h352l93 -190h-221zM433 550c219 0 351 -88 316 -294l-5 -28h-466c-18 -96 14 -133 75 -133c52 0 91 25 106 77h264c-44 -120 -166 -192 -378 -192c-205 0 -331 86 -331 242c0 192 162 328 419 328zM419 435c-50 0 -93 -30 -117 -97h193
c6 66 -22 97 -76 97z" />
    <glyph glyph-name="edieresis" unicode="&#xeb;" horiz-adv-x="763" 
d="M292 570c-78 0 -110 36 -110 83c0 75 62 127 151 127c77 0 110 -36 110 -83c0 -75 -63 -127 -151 -127zM598 570c-78 0 -110 36 -110 83c0 75 62 127 151 127c77 0 110 -36 110 -83c0 -75 -63 -127 -151 -127zM433 550c219 0 351 -88 316 -294l-5 -28h-466
c-18 -96 14 -133 75 -133c52 0 91 25 106 77h264c-44 -120 -166 -192 -378 -192c-205 0 -331 86 -331 242c0 192 162 328 419 328zM419 435c-50 0 -93 -30 -117 -97h193c6 66 -22 97 -76 97z" />
    <glyph glyph-name="edotaccent" unicode="&#x117;" horiz-adv-x="763" 
d="M445 570c-87 0 -123 37 -123 84c0 75 67 126 163 126c87 0 123 -37 123 -84c0 -75 -67 -126 -163 -126zM433 550c219 0 351 -88 316 -294l-5 -28h-466c-18 -96 14 -133 75 -133c52 0 91 25 106 77h264c-44 -120 -166 -192 -378 -192c-205 0 -331 86 -331 242
c0 192 162 328 419 328zM419 435c-50 0 -93 -30 -117 -97h193c6 66 -22 97 -76 97z" />
    <glyph glyph-name="egrave" unicode="&#xe8;" horiz-adv-x="763" 
d="M574 580h-216l-123 190h286zM433 550c219 0 351 -88 316 -294l-5 -28h-466c-18 -96 14 -133 75 -133c52 0 91 25 106 77h264c-44 -120 -166 -192 -378 -192c-205 0 -331 86 -331 242c0 192 162 328 419 328zM419 435c-50 0 -93 -30 -117 -97h193c6 66 -22 97 -76 97z" />
    <glyph glyph-name="emacron" unicode="&#x113;" horiz-adv-x="763" 
d="M696 745l-30 -155h-435l30 155h435zM433 550c219 0 351 -88 316 -294l-5 -28h-466c-18 -96 14 -133 75 -133c52 0 91 25 106 77h264c-44 -120 -166 -192 -378 -192c-205 0 -331 86 -331 242c0 192 162 328 419 328zM419 435c-50 0 -93 -30 -117 -97h193
c6 66 -22 97 -76 97z" />
    <glyph glyph-name="eogonek" unicode="&#x119;" horiz-adv-x="763" 
d="M433 550c219 0 351 -88 316 -294l-5 -28h-466c-18 -96 14 -133 75 -133c52 0 91 25 106 77h264c-22 -61 -65 -110 -129 -143c-37 -28 -71 -70 -71 -113c0 -20 21 -26 55 -19l-21 -108c-38 -20 -98 -29 -144 -29c-87 0 -143 29 -143 84c0 58 66 111 155 140
c-25 -3 -52 -4 -80 -4c-205 0 -331 86 -331 242c0 192 162 328 419 328zM419 435c-50 0 -93 -30 -117 -97h193c6 66 -22 97 -76 97z" />
    <glyph glyph-name="f" unicode="f" horiz-adv-x="552" 
d="M549 574c-82 0 -110 -38 -117 -76l-5 -28h150l-26 -132h-150l-66 -338h-262l66 338h-115l26 132h115l6 33c31 157 185 217 333 217c43 0 97 -5 119 -14l-27 -135c-13 2 -34 3 -47 3z" />
    <glyph glyph-name="g" unicode="g" horiz-adv-x="794" 
d="M559 530h262l-83 -425c-37 -192 -199 -295 -435 -295c-232 0 -323 62 -300 181h247c-10 -53 15 -86 81 -86c65 0 114 36 127 106l18 94l3 13c-73 -70 -152 -98 -225 -98c-149 0 -239 83 -239 208c0 179 151 322 342 322c73 0 141 -28 187 -98zM382 155
c79 0 134 67 134 166c0 66 -29 94 -84 94c-79 0 -134 -67 -134 -166c0 -66 29 -94 84 -94z" />
    <glyph glyph-name="gbreve" unicode="&#x11f;" horiz-adv-x="794" 
d="M458 570c-185 0 -270 64 -244 200h221c-21 -81 -3 -110 41 -110c45 0 72 29 83 110h221c-27 -137 -137 -200 -322 -200zM559 530h262l-83 -425c-37 -192 -199 -295 -435 -295c-232 0 -323 62 -300 181h247c-10 -53 15 -86 81 -86c65 0 114 36 127 106l18 94l3 13
c-73 -70 -152 -98 -225 -98c-149 0 -239 83 -239 208c0 179 151 322 342 322c73 0 141 -28 187 -98zM382 155c79 0 134 67 134 166c0 66 -29 94 -84 94c-79 0 -134 -67 -134 -166c0 -66 29 -94 84 -94z" />
    <glyph glyph-name="gcircumflex" unicode="&#x11d;" horiz-adv-x="794" 
d="M481 686l-106 -106h-221l167 190h352l93 -190h-221zM559 530h262l-83 -425c-37 -192 -199 -295 -435 -295c-232 0 -323 62 -300 181h247c-10 -53 15 -86 81 -86c65 0 114 36 127 106l18 94l3 13c-73 -70 -152 -98 -225 -98c-149 0 -239 83 -239 208
c0 179 151 322 342 322c73 0 141 -28 187 -98zM382 155c79 0 134 67 134 166c0 66 -29 94 -84 94c-79 0 -134 -67 -134 -166c0 -66 29 -94 84 -94z" />
    <glyph glyph-name="uni0123" unicode="&#x123;" horiz-adv-x="794" 
d="M645 760l-57 -190h-256l127 190h186zM559 530h262l-83 -425c-37 -192 -199 -295 -435 -295c-232 0 -323 62 -300 181h247c-10 -53 15 -86 81 -86c65 0 114 36 127 106l18 94l3 13c-73 -70 -152 -98 -225 -98c-149 0 -239 83 -239 208c0 179 151 322 342 322
c73 0 141 -28 187 -98zM382 155c79 0 134 67 134 166c0 66 -29 94 -84 94c-79 0 -134 -67 -134 -166c0 -66 29 -94 84 -94z" />
    <glyph glyph-name="gdotaccent" unicode="&#x121;" horiz-adv-x="794" 
d="M458 570c-87 0 -123 37 -123 84c0 75 67 126 163 126c87 0 123 -37 123 -84c0 -75 -67 -126 -163 -126zM559 530h262l-83 -425c-37 -192 -199 -295 -435 -295c-232 0 -323 62 -300 181h247c-10 -53 15 -86 81 -86c65 0 114 36 127 106l18 94l3 13
c-73 -70 -152 -98 -225 -98c-149 0 -239 83 -239 208c0 179 151 322 342 322c73 0 141 -28 187 -98zM382 155c79 0 134 67 134 166c0 66 -29 94 -84 94c-79 0 -134 -67 -134 -166c0 -66 29 -94 84 -94z" />
    <glyph glyph-name="h" unicode="h" horiz-adv-x="765" 
d="M-26 0l136 700h262l-50 -255c59 54 143 105 241 105c146 0 215 -84 185 -240l-60 -310h-262l54 278c14 70 -25 103 -73 103c-36 0 -77 -18 -107 -53l-64 -328h-262z" />
    <glyph glyph-name="hbar" unicode="&#x127;" horiz-adv-x="835" 
d="M619 480c149 0 216 -87 186 -240l-47 -240h-262l40 208c13 67 -21 103 -73 103c-35 0 -77 -18 -107 -53l-50 -258h-262l97 500h-80l25 130h80l14 70h262l-14 -70h150l-25 -130h-150l-24 -125c58 54 143 105 240 105z" />
    <glyph glyph-name="hcircumflex" unicode="&#x125;" horiz-adv-x="765" 
d="M155 750l185 210h352l103 -210h-221l-75 126l-123 -126h-221zM-26 0l136 700h262l-50 -255c59 54 143 105 241 105c146 0 215 -84 185 -240l-60 -310h-262l54 278c14 70 -25 103 -73 103c-36 0 -77 -18 -107 -53l-64 -328h-262z" />
    <glyph glyph-name="i" unicode="i" horiz-adv-x="312" 
d="M93 655c0 75 67 126 164 126c86 0 122 -37 122 -84c0 -75 -67 -127 -163 -127c-87 0 -123 38 -123 85zM-26 0l103 530h262l-103 -530h-262z" />
    <glyph glyph-name="dotlessi" unicode="&#x131;" horiz-adv-x="313" 
d="M-26 0l103 530h262l-103 -530h-262z" />
    <glyph glyph-name="iacute" unicode="&#xed;" horiz-adv-x="313" 
d="M88 580l127 190h286l-197 -190h-216zM-26 0l103 530h262l-103 -530h-262z" />
    <glyph glyph-name="ibreve" unicode="&#x12d;" horiz-adv-x="313" 
d="M-26 770h221c-21 -81 -3 -110 41 -110c45 0 72 29 83 110h221c-27 -137 -137 -200 -322 -200s-270 64 -244 200zM-26 0l103 530h262l-103 -530h-262z" />
    <glyph glyph-name="icircumflex" unicode="&#xee;" horiz-adv-x="313" 
d="M-86 580l167 190h352l93 -190h-221l-64 106l-106 -106h-221zM-26 0l103 530h262l-103 -530h-262z" />
    <glyph glyph-name="idieresis" unicode="&#xef;" horiz-adv-x="313" 
d="M-45 653c0 75 62 127 151 127c77 0 110 -36 110 -83c0 -75 -63 -127 -151 -127c-78 0 -110 36 -110 83zM261 653c0 75 62 127 151 127c77 0 110 -36 110 -83c0 -75 -63 -127 -151 -127c-78 0 -110 36 -110 83zM-26 0l103 530h262l-103 -530h-262z" />
    <glyph glyph-name="igrave" unicode="&#xec;" horiz-adv-x="313" 
d="M131 580l-123 190h286l53 -190h-216zM-26 0l103 530h262l-103 -530h-262z" />
    <glyph glyph-name="ij" unicode="&#x133;" horiz-adv-x="624" 
d="M93 655c0 75 67 126 164 126c86 0 122 -37 122 -84c0 -75 -67 -127 -163 -127c-87 0 -123 38 -123 85zM404 655c0 75 67 126 164 126c86 0 123 -37 123 -84c0 -75 -67 -127 -164 -127c-87 0 -123 38 -123 85zM-26 0l103 530h262l-103 -530h-262zM231 -150
c23 31 38 68 48 120l109 560h262l-95 -490c-15 -76 -59 -146 -102 -190h-222z" />
    <glyph glyph-name="imacron" unicode="&#x12b;" horiz-adv-x="313" 
d="M4 590l30 155h435l-30 -155h-435zM-26 0l103 530h262l-103 -530h-262z" />
    <glyph glyph-name="iogonek" unicode="&#x12f;" horiz-adv-x="312" 
d="M257 781c86 0 122 -37 122 -84c0 -75 -67 -127 -163 -127c-87 0 -123 38 -123 85c0 75 67 126 164 126zM-26 0l103 530h262l-103 -530c-39 -28 -65 -59 -65 -84c0 -20 21 -26 55 -19l-21 -108c-38 -20 -98 -29 -144 -29c-87 0 -143 29 -143 84c0 72 85 135 206 156h-150z
" />
    <glyph glyph-name="itilde" unicode="&#x129;" horiz-adv-x="313" 
d="M84 580h-115l4 20c28 135 111 180 196 180c91 0 137 -54 173 -54c28 0 43 10 50 44h115c-28 -143 -102 -200 -200 -200c-81 0 -137 54 -173 54c-29 0 -43 -10 -50 -44zM-26 0l103 530h262l-103 -530h-262z" />
    <glyph glyph-name="j" unicode="j" horiz-adv-x="312" 
d="M92 655c0 75 67 126 164 126c86 0 123 -37 123 -84c0 -75 -67 -127 -164 -127c-87 0 -123 38 -123 85zM-81 -150c23 31 38 68 48 120l109 560h262l-95 -490c-15 -76 -59 -146 -102 -190h-222z" />
    <glyph glyph-name="uni0237" unicode="&#x237;" horiz-adv-x="312" 
d="M-81 -150c23 31 38 68 48 120l109 560h262l-95 -490c-15 -76 -59 -146 -102 -190h-222z" />
    <glyph glyph-name="jcircumflex" unicode="&#x135;" horiz-adv-x="312" 
d="M-88 580l167 190h352l93 -190h-221l-64 106l-106 -106h-221zM-81 -150c23 31 38 68 48 120l109 560h262l-95 -490c-15 -76 -59 -146 -102 -190h-222z" />
    <glyph glyph-name="k" unicode="k" horiz-adv-x="817" 
d="M848 530l-283 -265l200 -265h-321l-165 219l-43 -219h-262l136 700h262l-76 -389l251 219h301z" />
    <glyph glyph-name="uni0137" unicode="&#x137;" horiz-adv-x="817" 
d="M848 530l-283 -265l200 -265h-321l-165 219l-43 -219h-262l136 700h262l-76 -389l251 219h301zM155 -230l57 190h256l-127 -190h-186z" />
    <glyph glyph-name="l" unicode="l" horiz-adv-x="313" 
d="M-26 0l136 700h262l-136 -700h-262z" />
    <glyph glyph-name="lacute" unicode="&#x13a;" horiz-adv-x="313" 
d="M119 750l127 190h286l-197 -190h-216zM-26 0l136 700h262l-136 -700h-262z" />
    <glyph glyph-name="lcaron" unicode="&#x13e;" horiz-adv-x="561" 
d="M-26 0l136 700h262l-136 -700h-262zM362 425l53 275h226l-123 -275h-156z" />
    <glyph glyph-name="uni013C" unicode="&#x13c;" horiz-adv-x="313" 
d="M-26 0l136 700h262l-136 -700h-262zM-90 -230l57 190h256l-127 -190h-186z" />
    <glyph glyph-name="ldot" unicode="&#x140;" horiz-adv-x="621" 
d="M-26 0l136 700h262l-136 -700h-262zM327 332c0 -55 48 -97 133 -97c100 0 179 60 179 135c0 53 -47 95 -134 95c-100 0 -178 -59 -178 -133z" />
    <glyph glyph-name="lslash" unicode="&#x142;" horiz-adv-x="452" 
d="M486 515l-34 -175l-89 -37l-59 -303h-262l36 183l-86 -36l34 175l86 36l66 342h262l-43 -222z" />
    <glyph glyph-name="m" unicode="m" horiz-adv-x="1177" 
d="M971 550c149 0 219 -84 189 -240l-60 -310h-262l56 289c12 62 -21 92 -65 92c-30 0 -69 -16 -96 -38c-1 -11 -3 -22 -5 -33l-60 -310h-262l56 289c12 62 -21 92 -65 92c-32 0 -69 -16 -96 -47l-65 -334h-262l103 530h262l-17 -85c57 54 138 105 231 105
c92 0 151 -36 173 -105c60 54 146 105 245 105z" />
    <glyph glyph-name="n" unicode="n" horiz-adv-x="765" 
d="M-26 0l103 530h262l-17 -85c59 54 143 105 241 105c146 0 215 -84 185 -240l-60 -310h-262l54 278c14 70 -25 103 -73 103c-36 0 -77 -18 -107 -53l-64 -328h-262z" />
    <glyph glyph-name="nacute" unicode="&#x144;" horiz-adv-x="765" 
d="M300 580l127 190h286l-197 -190h-216zM-26 0l103 530h262l-17 -85c59 54 143 105 241 105c146 0 215 -84 185 -240l-60 -310h-262l54 278c14 70 -25 103 -73 103c-36 0 -77 -18 -107 -53l-64 -328h-262z" />
    <glyph glyph-name="ncaron" unicode="&#x148;" horiz-adv-x="765" 
d="M254 580l-91 190h221l63 -114l107 114h221l-165 -190h-356zM-26 0l103 530h262l-17 -85c59 54 143 105 241 105c146 0 215 -84 185 -240l-60 -310h-262l54 278c14 70 -25 103 -73 103c-36 0 -77 -18 -107 -53l-64 -328h-262z" />
    <glyph glyph-name="uni0146" unicode="&#x146;" horiz-adv-x="765" 
d="M-26 0l103 530h262l-17 -85c59 54 143 105 241 105c146 0 215 -84 185 -240l-60 -310h-262l54 278c14 70 -25 103 -73 103c-36 0 -77 -18 -107 -53l-64 -328h-262zM134 -230l57 190h256l-127 -190h-186z" />
    <glyph glyph-name="eng" unicode="&#x14b;" horiz-adv-x="760" 
d="M-26 0l103 530h262l-17 -85c59 54 143 105 241 105c146 0 215 -84 185 -240l-52 -270c-16 -79 -60 -146 -102 -190h-222c21 30 37 64 48 120l60 308c14 70 -25 103 -73 103c-36 0 -77 -18 -107 -53l-64 -328h-262z" />
    <glyph glyph-name="ntilde" unicode="&#xf1;" horiz-adv-x="765" 
d="M296 580h-115l4 20c28 135 111 180 196 180c91 0 137 -54 173 -54c28 0 43 10 50 44h115c-28 -143 -102 -200 -200 -200c-81 0 -137 54 -173 54c-29 0 -43 -10 -50 -44zM-26 0l103 530h262l-17 -85c59 54 143 105 241 105c146 0 215 -84 185 -240l-60 -310h-262l54 278
c14 70 -25 103 -73 103c-36 0 -77 -18 -107 -53l-64 -328h-262z" />
    <glyph glyph-name="o" unicode="o" horiz-adv-x="792" 
d="M11 206c0 208 176 344 442 344c226 0 332 -90 332 -226c0 -208 -176 -344 -442 -344c-226 0 -332 90 -332 226zM282 211c0 -75 29 -106 85 -106c85 0 147 86 147 214c0 74 -29 106 -85 106c-85 0 -147 -86 -147 -214z" />
    <glyph glyph-name="oacute" unicode="&#xf3;" horiz-adv-x="792" 
d="M325 580l127 190h286l-197 -190h-216zM11 206c0 208 176 344 442 344c226 0 332 -90 332 -226c0 -208 -176 -344 -442 -344c-226 0 -332 90 -332 226zM282 211c0 -75 29 -106 85 -106c85 0 147 86 147 214c0 74 -29 106 -85 106c-85 0 -147 -86 -147 -214z" />
    <glyph glyph-name="obreve" unicode="&#x14f;" horiz-adv-x="792" 
d="M211 770h221c-21 -81 -3 -110 41 -110c45 0 72 29 83 110h221c-27 -137 -137 -200 -322 -200s-270 64 -244 200zM11 206c0 208 176 344 442 344c226 0 332 -90 332 -226c0 -208 -176 -344 -442 -344c-226 0 -332 90 -332 226zM282 211c0 -75 29 -106 85 -106
c85 0 147 86 147 214c0 74 -29 106 -85 106c-85 0 -147 -86 -147 -214z" />
    <glyph glyph-name="ocircumflex" unicode="&#xf4;" horiz-adv-x="792" 
d="M151 580l167 190h352l93 -190h-221l-64 106l-106 -106h-221zM11 206c0 208 176 344 442 344c226 0 332 -90 332 -226c0 -208 -176 -344 -442 -344c-226 0 -332 90 -332 226zM282 211c0 -75 29 -106 85 -106c85 0 147 86 147 214c0 74 -29 106 -85 106
c-85 0 -147 -86 -147 -214z" />
    <glyph glyph-name="odieresis" unicode="&#xf6;" horiz-adv-x="792" 
d="M192 653c0 75 62 127 151 127c77 0 110 -36 110 -83c0 -75 -63 -127 -151 -127c-78 0 -110 36 -110 83zM498 653c0 75 62 127 151 127c77 0 110 -36 110 -83c0 -75 -63 -127 -151 -127c-78 0 -110 36 -110 83zM11 206c0 208 176 344 442 344c226 0 332 -90 332 -226
c0 -208 -176 -344 -442 -344c-226 0 -332 90 -332 226zM282 211c0 -75 29 -106 85 -106c85 0 147 86 147 214c0 74 -29 106 -85 106c-85 0 -147 -86 -147 -214z" />
    <glyph glyph-name="ograve" unicode="&#xf2;" horiz-adv-x="792" 
d="M368 580l-123 190h286l53 -190h-216zM11 206c0 208 176 344 442 344c226 0 332 -90 332 -226c0 -208 -176 -344 -442 -344c-226 0 -332 90 -332 226zM282 211c0 -75 29 -106 85 -106c85 0 147 86 147 214c0 74 -29 106 -85 106c-85 0 -147 -86 -147 -214z" />
    <glyph glyph-name="ohungarumlaut" unicode="&#x151;" horiz-adv-x="792" 
d="M210 580l117 190h246l-187 -190h-176zM496 580l117 190h246l-187 -190h-176zM11 206c0 208 176 344 442 344c226 0 332 -90 332 -226c0 -208 -176 -344 -442 -344c-226 0 -332 90 -332 226zM282 211c0 -75 29 -106 85 -106c85 0 147 86 147 214c0 74 -29 106 -85 106
c-85 0 -147 -86 -147 -214z" />
    <glyph glyph-name="omacron" unicode="&#x14d;" horiz-adv-x="792" 
d="M241 590l30 155h435l-30 -155h-435zM11 206c0 208 176 344 442 344c226 0 332 -90 332 -226c0 -208 -176 -344 -442 -344c-226 0 -332 90 -332 226zM282 211c0 -75 29 -106 85 -106c85 0 147 86 147 214c0 74 -29 106 -85 106c-85 0 -147 -86 -147 -214z" />
    <glyph glyph-name="oslash" unicode="&#xf8;" horiz-adv-x="792" 
d="M698 492c59 -40 87 -98 87 -168c0 -208 -176 -344 -442 -344c-42 0 -80 3 -114 9l-55 -59h-173l99 106c-60 40 -89 99 -89 170c0 208 176 344 442 344c44 0 83 -3 117 -10l56 60h173zM429 425c-80 0 -140 -77 -146 -193l176 189c-9 3 -19 4 -30 4zM367 105
c79 0 138 75 146 189l-173 -186c8 -2 17 -3 27 -3z" />
    <glyph glyph-name="otilde" unicode="&#xf5;" horiz-adv-x="792" 
d="M321 580h-115l4 20c28 135 111 180 196 180c91 0 137 -54 173 -54c28 0 43 10 50 44h115c-28 -143 -102 -200 -200 -200c-81 0 -137 54 -173 54c-29 0 -43 -10 -50 -44zM11 206c0 208 176 344 442 344c226 0 332 -90 332 -226c0 -208 -176 -344 -442 -344
c-226 0 -332 90 -332 226zM282 211c0 -75 29 -106 85 -106c85 0 147 86 147 214c0 74 -29 106 -85 106c-85 0 -147 -86 -147 -214z" />
    <glyph glyph-name="oe" unicode="&#x153;" horiz-adv-x="1250" 
d="M933 550c219 0 341 -73 303 -294l-5 -28h-466c-18 -96 14 -133 75 -133c53 0 91 25 106 77h264c-44 -120 -175 -192 -387 -192c-95 0 -171 18 -226 51c-67 -32 -152 -51 -254 -51c-226 0 -332 90 -332 226c0 208 176 344 442 344c102 0 180 -19 235 -51
c67 33 149 51 245 51zM908 445c-52 0 -95 -34 -119 -107h193c8 72 -20 107 -74 107zM367 105c85 0 147 96 147 224c0 64 -29 96 -85 96c-85 0 -147 -96 -147 -224c0 -65 29 -96 85 -96z" />
    <glyph glyph-name="p" unicode="p" horiz-adv-x="792" 
d="M-55 -150l132 680h262l-16 -85c61 75 153 105 232 105c141 0 229 -98 229 -230c0 -195 -154 -340 -321 -340c-98 0 -169 36 -210 105l-46 -235h-262zM284 221c0 -71 26 -106 83 -106c76 0 132 79 132 194c0 71 -26 106 -84 106c-75 0 -131 -79 -131 -194z" />
    <glyph glyph-name="thorn" unicode="&#xfe;" horiz-adv-x="790" 
d="M-55 -150l165 850h262l-49 -255c73 75 153 105 226 105c147 0 235 -87 235 -219c0 -195 -154 -351 -346 -351c-73 0 -141 30 -185 105l-46 -235h-262zM281 206c0 -61 28 -91 82 -91c80 0 139 89 139 209c0 61 -28 91 -81 91c-80 0 -140 -88 -140 -209z" />
    <glyph glyph-name="q" unicode="q" horiz-adv-x="798" 
d="M14 222c0 190 148 328 330 328c90 0 157 -30 202 -105l16 85h262l-132 -680h-262l46 235c-74 -79 -151 -105 -236 -105c-136 0 -226 105 -226 242zM295 208c0 -60 31 -92 85 -92c80 0 138 85 138 206c0 60 -31 92 -85 92c-79 0 -138 -84 -138 -206z" />
    <glyph glyph-name="r" unicode="r" horiz-adv-x="650" 
d="M400 226l7 36c9 46 -6 73 -43 73s-68 -27 -77 -73l30 153c53 85 129 135 205 135c111 0 144 -93 119 -225l-19 -99h-222zM-26 0l103 530h262l-103 -530h-262z" />
    <glyph glyph-name="racute" unicode="&#x155;" horiz-adv-x="650" 
d="M255 580l127 190h286l-197 -190h-216zM400 226l7 36c9 46 -6 73 -43 73s-68 -27 -77 -73l30 153c53 85 129 135 205 135c111 0 144 -93 119 -225l-19 -99h-222zM-26 0l103 530h262l-103 -530h-262z" />
    <glyph glyph-name="rcaron" unicode="&#x159;" horiz-adv-x="650" 
d="M209 580l-91 190h221l63 -114l107 114h221l-165 -190h-356zM400 226l7 36c9 46 -6 73 -43 73s-68 -27 -77 -73l30 153c53 85 129 135 205 135c111 0 144 -93 119 -225l-19 -99h-222zM-26 0l103 530h262l-103 -530h-262z" />
    <glyph glyph-name="uni0157" unicode="&#x157;" horiz-adv-x="650" 
d="M400 226l7 36c9 46 -6 73 -43 73s-68 -27 -77 -73l30 153c53 85 129 135 205 135c111 0 144 -93 119 -225l-19 -99h-222zM-26 0l103 530h262l-103 -530h-262zM-93 -230l57 190h256l-127 -190h-186z" />
    <glyph glyph-name="s" unicode="s" horiz-adv-x="660" 
d="M-7 149h245c-13 -41 1 -79 55 -79s84 25 84 53c0 22 -20 34 -76 45c-169 32 -267 70 -267 178c0 130 125 204 335 204c221 0 299 -65 279 -169h-235c13 41 4 79 -55 79c-42 0 -74 -23 -74 -53c0 -21 18 -35 56 -42c188 -35 287 -72 287 -178c0 -135 -150 -207 -354 -207
c-219 0 -300 64 -280 169z" />
    <glyph glyph-name="sacute" unicode="&#x15b;" horiz-adv-x="660" 
d="M259 580l127 190h286l-197 -190h-216zM-7 149h245c-13 -41 1 -79 55 -79s84 25 84 53c0 22 -20 34 -76 45c-169 32 -267 70 -267 178c0 130 125 204 335 204c221 0 299 -65 279 -169h-235c13 41 4 79 -55 79c-42 0 -74 -23 -74 -53c0 -21 18 -35 56 -42
c188 -35 287 -72 287 -178c0 -135 -150 -207 -354 -207c-219 0 -300 64 -280 169z" />
    <glyph glyph-name="scaron" unicode="&#x161;" horiz-adv-x="660" 
d="M213 580l-91 190h221l63 -114l107 114h221l-165 -190h-356zM-7 149h245c-13 -41 1 -79 55 -79s84 25 84 53c0 22 -20 34 -76 45c-169 32 -267 70 -267 178c0 130 125 204 335 204c221 0 299 -65 279 -169h-235c13 41 4 79 -55 79c-42 0 -74 -23 -74 -53
c0 -21 18 -35 56 -42c188 -35 287 -72 287 -178c0 -135 -150 -207 -354 -207c-219 0 -300 64 -280 169z" />
    <glyph glyph-name="scedilla" unicode="&#x15f;" horiz-adv-x="660" 
d="M648 381h-235c13 41 4 79 -55 79c-42 0 -74 -23 -74 -53c0 -21 18 -35 56 -42c188 -35 287 -72 287 -178c0 -121 -120 -191 -292 -205l-14 -16c86 -6 119 -43 119 -80c0 -75 -89 -126 -218 -126c-49 0 -100 3 -174 20l41 98c127 -32 166 -25 166 -2c0 11 -14 18 -109 18
l69 88c-175 10 -240 72 -222 167h245c-13 -41 1 -79 55 -79s84 25 84 53c0 22 -20 34 -76 45c-169 32 -267 70 -267 178c0 130 125 204 335 204c221 0 299 -65 279 -169z" />
    <glyph glyph-name="scircumflex" unicode="&#x15d;" horiz-adv-x="660" 
d="M85 580l167 190h352l93 -190h-221l-64 106l-106 -106h-221zM-7 149h245c-13 -41 1 -79 55 -79s84 25 84 53c0 22 -20 34 -76 45c-169 32 -267 70 -267 178c0 130 125 204 335 204c221 0 299 -65 279 -169h-235c13 41 4 79 -55 79c-42 0 -74 -23 -74 -53
c0 -21 18 -35 56 -42c188 -35 287 -72 287 -178c0 -135 -150 -207 -354 -207c-219 0 -300 64 -280 169z" />
    <glyph glyph-name="uni0219" unicode="&#x219;" horiz-adv-x="660" 
d="M-7 149h245c-13 -41 1 -79 55 -79s84 25 84 53c0 22 -20 34 -76 45c-169 32 -267 70 -267 178c0 130 125 204 335 204c221 0 299 -65 279 -169h-235c13 41 4 79 -55 79c-42 0 -74 -23 -74 -53c0 -21 18 -35 56 -42c188 -35 287 -72 287 -178c0 -135 -150 -207 -354 -207
c-219 0 -300 64 -280 169zM83 -230l57 190h256l-127 -190h-186z" />
    <glyph glyph-name="germandbls" unicode="&#xdf;" horiz-adv-x="775" 
d="M-27 0l92 473c34 173 192 247 410 247c245 0 312 -80 312 -162c0 -87 -71 -166 -166 -184c49 -9 129 -43 129 -139c0 -142 -130 -245 -312 -245c-84 0 -130 24 -159 51l21 107c16 -11 40 -17 65 -17c62 0 113 50 113 111c0 40 -29 66 -88 66h-49l26 132h49
c68 0 115 40 115 96c0 35 -26 59 -81 59c-60 0 -107 -39 -118 -97l-97 -498h-262z" />
    <glyph glyph-name="longs" unicode="&#x17f;" horiz-adv-x="457" 
d="M-27 0l98 503c31 157 185 217 333 217c42 0 97 -5 118 -14l-26 -135c-14 2 -33 3 -47 3c-82 0 -110 -38 -117 -76l-97 -498h-262z" />
    <glyph glyph-name="t" unicode="t" horiz-adv-x="588" 
d="M408 398l-36 -186c-17 -87 39 -113 174 -79l-21 -113c-36 -19 -115 -40 -198 -40c-163 0 -250 65 -224 197l43 221h-115l26 132h115l63 170h232l-33 -170h190l-26 -132h-190z" />
    <glyph glyph-name="tbar" unicode="&#x167;" horiz-adv-x="588" 
d="M598 398h-190l-13 -66h136l-25 -130h-136c-10 -79 46 -102 176 -69l-21 -113c-36 -19 -115 -40 -198 -40c-163 0 -250 65 -224 197l5 25h-115l25 130h115l13 66h-115l26 132h115l63 170h232l-33 -170h190z" />
    <glyph glyph-name="tcaron" unicode="&#x165;" horiz-adv-x="611" 
d="M538 843h226l-123 -275h-156zM467 700l-33 -170h190l-26 -132h-190l-36 -186c-17 -87 39 -113 174 -79l-21 -113c-36 -19 -115 -40 -198 -40c-163 0 -250 65 -224 197l43 221h-115l26 132h115l63 170h232z" />
    <glyph glyph-name="uni0163" unicode="&#x163;" horiz-adv-x="588" 
d="M408 398l-36 -186c-17 -87 39 -113 174 -79l-21 -113c-34 -18 -107 -38 -185 -40l-12 -14c86 -6 119 -43 119 -80c0 -75 -89 -126 -218 -126c-49 0 -100 3 -174 20l41 98c127 -32 166 -25 166 -2c0 11 -14 18 -109 18l75 96c-98 23 -145 85 -125 187l43 221h-115l26 132
h115l63 170h232l-33 -170h190l-26 -132h-190z" />
    <glyph glyph-name="uni021B" unicode="&#x21b;" horiz-adv-x="588" 
d="M408 398l-36 -186c-17 -87 39 -113 174 -79l-21 -113c-36 -19 -115 -40 -198 -40c-163 0 -250 65 -224 197l43 221h-115l26 132h115l63 170h232l-33 -170h190l-26 -132h-190zM50 -230l57 190h256l-127 -190h-186z" />
    <glyph glyph-name="u" unicode="u" horiz-adv-x="765" 
d="M77 530h262l-54 -278c-14 -70 25 -103 73 -103c35 0 78 18 108 53l63 328h262l-103 -530h-262l17 85c-59 -54 -143 -105 -241 -105c-145 0 -215 84 -185 240z" />
    <glyph glyph-name="uacute" unicode="&#xfa;" horiz-adv-x="765" 
d="M315 580l127 190h286l-197 -190h-216zM77 530h262l-54 -278c-14 -70 25 -103 73 -103c35 0 78 18 108 53l63 328h262l-103 -530h-262l17 85c-59 -54 -143 -105 -241 -105c-145 0 -215 84 -185 240z" />
    <glyph glyph-name="ubreve" unicode="&#x16d;" horiz-adv-x="765" 
d="M201 770h221c-21 -81 -3 -110 41 -110c45 0 72 29 83 110h221c-27 -137 -137 -200 -322 -200s-270 64 -244 200zM77 530h262l-54 -278c-14 -70 25 -103 73 -103c35 0 78 18 108 53l63 328h262l-103 -530h-262l17 85c-59 -54 -143 -105 -241 -105c-145 0 -215 84 -185 240
z" />
    <glyph glyph-name="ucircumflex" unicode="&#xfb;" horiz-adv-x="765" 
d="M141 580l167 190h352l93 -190h-221l-64 106l-106 -106h-221zM77 530h262l-54 -278c-14 -70 25 -103 73 -103c35 0 78 18 108 53l63 328h262l-103 -530h-262l17 85c-59 -54 -143 -105 -241 -105c-145 0 -215 84 -185 240z" />
    <glyph glyph-name="udieresis" unicode="&#xfc;" horiz-adv-x="765" 
d="M182 653c0 75 62 127 151 127c77 0 110 -36 110 -83c0 -75 -63 -127 -151 -127c-78 0 -110 36 -110 83zM488 653c0 75 62 127 151 127c77 0 110 -36 110 -83c0 -75 -63 -127 -151 -127c-78 0 -110 36 -110 83zM77 530h262l-54 -278c-14 -70 25 -103 73 -103
c35 0 78 18 108 53l63 328h262l-103 -530h-262l17 85c-59 -54 -143 -105 -241 -105c-145 0 -215 84 -185 240z" />
    <glyph glyph-name="ugrave" unicode="&#xf9;" horiz-adv-x="765" 
d="M358 580l-123 190h286l53 -190h-216zM77 530h262l-54 -278c-14 -70 25 -103 73 -103c35 0 78 18 108 53l63 328h262l-103 -530h-262l17 85c-59 -54 -143 -105 -241 -105c-145 0 -215 84 -185 240z" />
    <glyph glyph-name="uhungarumlaut" unicode="&#x171;" horiz-adv-x="765" 
d="M200 580l117 190h246l-187 -190h-176zM486 580l117 190h246l-187 -190h-176zM77 530h262l-54 -278c-14 -70 25 -103 73 -103c35 0 78 18 108 53l63 328h262l-103 -530h-262l17 85c-59 -54 -143 -105 -241 -105c-145 0 -215 84 -185 240z" />
    <glyph glyph-name="umacron" unicode="&#x16b;" horiz-adv-x="765" 
d="M231 590l30 155h435l-30 -155h-435zM77 530h262l-54 -278c-14 -70 25 -103 73 -103c35 0 78 18 108 53l63 328h262l-103 -530h-262l17 85c-59 -54 -143 -105 -241 -105c-145 0 -215 84 -185 240z" />
    <glyph glyph-name="uogonek" unicode="&#x173;" horiz-adv-x="765" 
d="M688 0c-39 -28 -65 -59 -65 -84c0 -20 21 -26 55 -19l-21 -108c-38 -20 -98 -29 -144 -29c-87 0 -143 29 -143 84c0 72 85 135 206 156h-150l17 85c-59 -54 -143 -105 -241 -105c-145 0 -215 84 -185 240l60 310h262l-54 -278c-14 -70 25 -103 73 -103c35 0 78 18 108 53
l63 328h262z" />
    <glyph glyph-name="uring" unicode="&#x16f;" horiz-adv-x="765" 
d="M248 671c0 85 95 139 243 139c125 0 197 -37 197 -101c0 -85 -95 -139 -243 -139c-126 0 -197 37 -197 101zM418 677c0 -22 15 -33 41 -33c35 0 59 23 59 59c0 22 -15 33 -41 33c-36 0 -59 -23 -59 -59zM77 530h262l-54 -278c-14 -70 25 -103 73 -103c35 0 78 18 108 53
l63 328h262l-103 -530h-262l17 85c-59 -54 -143 -105 -241 -105c-145 0 -215 84 -185 240z" />
    <glyph glyph-name="utilde" unicode="&#x169;" horiz-adv-x="765" 
d="M311 580h-115l4 20c28 135 111 180 196 180c91 0 137 -54 173 -54c28 0 43 10 50 44h115c-28 -143 -102 -200 -200 -200c-81 0 -137 54 -173 54c-29 0 -43 -10 -50 -44zM77 530h262l-54 -278c-14 -70 25 -103 73 -103c35 0 78 18 108 53l63 328h262l-103 -530h-262l17 85
c-59 -54 -143 -105 -241 -105c-145 0 -215 84 -185 240z" />
    <glyph glyph-name="v" unicode="v" horiz-adv-x="772" 
d="M589 530h235l-338 -530h-302l-132 530h296l67 -319z" />
    <glyph glyph-name="w" unicode="w" horiz-adv-x="1162" 
d="M164 0l-112 530h276l58 -273l143 273h269l58 -273l143 273h215l-318 -530h-262l-54 282l-164 -282h-252z" />
    <glyph glyph-name="wacute" unicode="&#x1e83;" horiz-adv-x="1162" 
d="M511 580l127 190h286l-197 -190h-216zM164 0l-112 530h276l58 -273l143 273h269l58 -273l143 273h215l-318 -530h-262l-54 282l-164 -282h-252z" />
    <glyph glyph-name="wcircumflex" unicode="&#x175;" horiz-adv-x="1162" 
d="M337 580l167 190h352l93 -190h-221l-64 106l-106 -106h-221zM164 0l-112 530h276l58 -273l143 273h269l58 -273l143 273h215l-318 -530h-262l-54 282l-164 -282h-252z" />
    <glyph glyph-name="wdieresis" unicode="&#x1e85;" horiz-adv-x="1162" 
d="M378 653c0 75 62 127 151 127c77 0 110 -36 110 -83c0 -75 -63 -127 -151 -127c-78 0 -110 36 -110 83zM684 653c0 75 62 127 151 127c77 0 110 -36 110 -83c0 -75 -63 -127 -151 -127c-78 0 -110 36 -110 83zM164 0l-112 530h276l58 -273l143 273h269l58 -273l143 273
h215l-318 -530h-262l-54 282l-164 -282h-252z" />
    <glyph glyph-name="wgrave" unicode="&#x1e81;" horiz-adv-x="1162" 
d="M554 580l-123 190h286l53 -190h-216zM164 0l-112 530h276l58 -273l143 273h269l58 -273l143 273h215l-318 -530h-262l-54 282l-164 -282h-252z" />
    <glyph glyph-name="x" unicode="x" horiz-adv-x="814" 
d="M-42 0l285 264l-177 266h330l68 -116l99 116h282l-277 -256l184 -274h-340l-62 119l-120 -119h-272z" />
    <glyph glyph-name="y" unicode="y" horiz-adv-x="772" 
d="M599 530h225l-454 -680h-261l75 148l-132 532h296l57 -328z" />
    <glyph glyph-name="yacute" unicode="&#xfd;" horiz-adv-x="772" 
d="M729 770l-197 -190h-216l127 190h286zM599 530h225l-454 -680h-261l75 148l-132 532h296l57 -328z" />
    <glyph glyph-name="ycircumflex" unicode="&#x177;" horiz-adv-x="772" 
d="M469 686l-106 -106h-221l167 190h352l93 -190h-221zM599 530h225l-454 -680h-261l75 148l-132 532h296l57 -328z" />
    <glyph glyph-name="ydieresis" unicode="&#xff;" horiz-adv-x="772" 
d="M293 570c-78 0 -110 36 -110 83c0 75 62 127 151 127c77 0 110 -36 110 -83c0 -75 -63 -127 -151 -127zM599 570c-78 0 -110 36 -110 83c0 75 62 127 151 127c77 0 110 -36 110 -83c0 -75 -63 -127 -151 -127zM599 530h225l-454 -680h-261l75 148l-132 532h296l57 -328z
" />
    <glyph glyph-name="ygrave" unicode="&#x1ef3;" horiz-adv-x="772" 
d="M575 580h-216l-123 190h286zM599 530h225l-454 -680h-261l75 148l-132 532h296l57 -328z" />
    <glyph glyph-name="z" unicode="z" horiz-adv-x="648" 
d="M-36 0l31 162l295 226h-246l28 142h607l-28 -142l-307 -246h265l-28 -142h-617z" />
    <glyph glyph-name="zacute" unicode="&#x17a;" horiz-adv-x="648" 
d="M254 580l127 190h286l-197 -190h-216zM-36 0l31 162l295 226h-246l28 142h607l-28 -142l-307 -246h265l-28 -142h-617z" />
    <glyph glyph-name="zcaron" unicode="&#x17e;" horiz-adv-x="648" 
d="M208 580l-91 190h221l63 -114l107 114h221l-165 -190h-356zM-36 0l31 162l295 226h-246l28 142h607l-28 -142l-307 -246h265l-28 -142h-617z" />
    <glyph glyph-name="zdotaccent" unicode="&#x17c;" horiz-adv-x="648" 
d="M261 654c0 75 67 126 163 126c87 0 123 -37 123 -84c0 -75 -67 -126 -163 -126c-87 0 -123 37 -123 84zM-36 0l31 162l295 226h-246l28 142h607l-28 -142l-307 -246h265l-28 -142h-617z" />
    <glyph glyph-name="aacute.ss01" horiz-adv-x="794" 
d="M277 612l14 72l461 56l-14 -72zM10 199c0 195 154 351 346 351c74 0 141 -30 186 -105l16 85h262l-103 -530h-262l17 85c-74 -75 -153 -105 -227 -105c-147 0 -235 87 -235 219zM292 216c0 -71 28 -101 81 -101c80 0 140 78 140 199c0 71 -28 101 -81 101
c-80 0 -140 -78 -140 -199z" />
    <glyph glyph-name="abreve.ss01" horiz-adv-x="794" 
d="M248 668l14 72c65 -40 144 -60 213 -60c68 0 156 20 237 60l-14 -72c-81 -40 -169 -60 -237 -60c-69 0 -148 20 -213 60zM10 199c0 195 154 351 346 351c74 0 141 -30 186 -105l16 85h262l-103 -530h-262l17 85c-74 -75 -153 -105 -227 -105c-147 0 -235 87 -235 219z
M292 216c0 -71 28 -101 81 -101c80 0 140 78 140 199c0 71 -28 101 -81 101c-80 0 -140 -78 -140 -199z" />
    <glyph glyph-name="acircumflex.ss01" horiz-adv-x="794" 
d="M211 608l14 72l262 60l238 -60l-14 -72l-238 60zM10 199c0 195 154 351 346 351c74 0 141 -30 186 -105l16 85h262l-103 -530h-262l17 85c-74 -75 -153 -105 -227 -105c-147 0 -235 87 -235 219zM292 216c0 -71 28 -101 81 -101c80 0 140 78 140 199
c0 71 -28 101 -81 101c-80 0 -140 -78 -140 -199z" />
    <glyph glyph-name="adieresis.ss01" horiz-adv-x="794" 
d="M181 641l14 72h262l-14 -72h-262zM493 641l14 72h262l-14 -72h-262zM10 199c0 195 154 351 346 351c74 0 141 -30 186 -105l16 85h262l-103 -530h-262l17 85c-74 -75 -153 -105 -227 -105c-147 0 -235 87 -235 219zM292 216c0 -71 28 -101 81 -101c80 0 140 78 140 199
c0 71 -28 101 -81 101c-80 0 -140 -78 -140 -199z" />
    <glyph glyph-name="agrave.ss01" horiz-adv-x="794" 
d="M248 668l14 72l439 -56l-14 -72zM10 199c0 195 154 351 346 351c74 0 141 -30 186 -105l16 85h262l-103 -530h-262l17 85c-74 -75 -153 -105 -227 -105c-147 0 -235 87 -235 219zM292 216c0 -71 28 -101 81 -101c80 0 140 78 140 199c0 71 -28 101 -81 101
c-80 0 -140 -78 -140 -199z" />
    <glyph glyph-name="amacron.ss01" horiz-adv-x="794" 
d="M243 641l14 72h450l-14 -72h-450zM10 199c0 195 154 351 346 351c74 0 141 -30 186 -105l16 85h262l-103 -530h-262l17 85c-74 -75 -153 -105 -227 -105c-147 0 -235 87 -235 219zM292 216c0 -71 28 -101 81 -101c80 0 140 78 140 199c0 71 -28 101 -81 101
c-80 0 -140 -78 -140 -199z" />
    <glyph glyph-name="aogonek.ss01" horiz-adv-x="794" 
d="M604 0c-49 -7 -216 -45 -216 -108c0 -16 15 -37 128 -37c71 0 151 15 177 26l-14 -70c-38 -20 -142 -29 -177 -29c-103 0 -207 21 -207 98c0 78 100 130 164 142l13 63c-74 -75 -153 -105 -227 -105c-147 0 -235 87 -235 219c0 195 154 351 346 351
c74 0 141 -30 186 -105l16 85h262l-103 -530h-113zM373 115c80 0 140 78 140 199c0 71 -28 101 -81 101c-80 0 -140 -78 -140 -199c0 -71 28 -101 81 -101z" />
    <glyph glyph-name="aring.ss01" horiz-adv-x="794" 
d="M235 667c0 59 110 103 258 103c140 0 221 -38 221 -86c0 -59 -110 -104 -258 -104c-140 0 -221 39 -221 87zM308 674c0 -17 59 -32 160 -32c103 0 173 16 173 35c0 17 -59 31 -160 31c-104 0 -173 -15 -173 -34zM10 199c0 195 154 351 346 351c74 0 141 -30 186 -105
l16 85h262l-103 -530h-262l17 85c-74 -75 -153 -105 -227 -105c-147 0 -235 87 -235 219zM292 216c0 -71 28 -101 81 -101c80 0 140 78 140 199c0 71 -28 101 -81 101c-80 0 -140 -78 -140 -199z" />
    <glyph glyph-name="atilde.ss01" horiz-adv-x="794" 
d="M217 638l13 66c63 29 109 36 150 36c90 0 138 -53 225 -53c33 0 75 9 128 33l-13 -66c-63 -29 -110 -36 -150 -36c-90 0 -138 53 -225 53c-34 0 -75 -9 -128 -33zM10 199c0 195 154 351 346 351c74 0 141 -30 186 -105l16 85h262l-103 -530h-262l17 85
c-74 -75 -153 -105 -227 -105c-147 0 -235 87 -235 219zM292 216c0 -71 28 -101 81 -101c80 0 140 78 140 199c0 71 -28 101 -81 101c-80 0 -140 -78 -140 -199z" />
    <glyph glyph-name="cacute.ss01" horiz-adv-x="755" 
d="M267 592l14 72l461 56l-14 -72zM11 206c0 205 175 344 432 344c220 0 339 -83 310 -231h-261c13 63 -11 106 -68 106c-82 0 -142 -88 -142 -217c0 -73 27 -103 80 -103c58 0 97 43 109 106h261c-28 -148 -180 -231 -399 -231c-205 0 -322 83 -322 226z" />
    <glyph glyph-name="ccaron.ss01" horiz-adv-x="755" 
d="M227 720l238 -60l262 60l-14 -72l-262 -60l-238 60zM11 206c0 205 175 344 432 344c220 0 339 -83 310 -231h-261c13 63 -11 106 -68 106c-82 0 -142 -88 -142 -217c0 -73 27 -103 80 -103c58 0 97 43 109 106h261c-28 -148 -180 -231 -399 -231c-205 0 -322 83 -322 226
z" />
    <glyph glyph-name="ccedilla.ss01" horiz-adv-x="755" 
d="M753 319h-261c13 63 -11 106 -68 106c-82 0 -142 -88 -142 -217c0 -73 27 -103 80 -103c58 0 97 43 109 106h261c-26 -140 -164 -222 -363 -230c70 -7 107 -31 107 -76c0 -79 -79 -127 -210 -127c-72 0 -103 18 -121 24l14 70c52 -14 97 -20 126 -20c47 0 106 1 106 38
c0 31 -51 35 -160 35l46 57c-170 14 -266 95 -266 224c0 205 175 344 432 344c220 0 339 -83 310 -231z" />
    <glyph glyph-name="ccircumflex.ss01" horiz-adv-x="755" 
d="M201 588l14 72l262 60l238 -60l-14 -72l-238 60zM11 206c0 205 175 344 432 344c220 0 339 -83 310 -231h-261c13 63 -11 106 -68 106c-82 0 -142 -88 -142 -217c0 -73 27 -103 80 -103c58 0 97 43 109 106h261c-28 -148 -180 -231 -399 -231c-205 0 -322 83 -322 226z
" />
    <glyph glyph-name="cdotaccent.ss01" horiz-adv-x="755" 
d="M327 621l14 72h262l-14 -72h-262zM11 206c0 205 175 344 432 344c220 0 339 -83 310 -231h-261c13 63 -11 106 -68 106c-82 0 -142 -88 -142 -217c0 -73 27 -103 80 -103c58 0 97 43 109 106h261c-28 -148 -180 -231 -399 -231c-205 0 -322 83 -322 226z" />
    <glyph glyph-name="dcaron.ss01" horiz-adv-x="919" 
d="M1014 780l-93 -285h-72l90 285h75zM10 199c0 195 154 351 346 351c74 0 141 -30 186 -105l49 255h262l-136 -700h-262l17 85c-74 -75 -153 -105 -227 -105c-147 0 -235 87 -235 219zM292 216c0 -71 28 -101 81 -101c81 0 140 79 140 199c0 71 -28 101 -81 101
c-80 0 -140 -78 -140 -199z" />
    <glyph glyph-name="dcroat.ss01" horiz-adv-x="859" 
d="M915 603l-14 -72h-81l-103 -531h-262l14 72c-71 -66 -151 -92 -223 -92c-150 0 -241 79 -241 199c0 169 148 301 338 301c73 0 142 -26 188 -92l28 143h-150l14 72h149l19 97h262l-19 -97h81zM374 115c78 0 130 60 130 152c0 53 -30 78 -86 78c-78 0 -130 -60 -130 -152
c0 -53 30 -78 86 -78z" />
    <glyph glyph-name="eacute.ss01" horiz-adv-x="763" 
d="M739 720l-14 -72l-461 -56l14 72zM433 550c219 0 351 -88 316 -294l-5 -28h-466c-18 -96 14 -133 75 -133c52 0 91 25 106 77h264c-44 -120 -166 -192 -378 -192c-205 0 -331 86 -331 242c0 192 162 328 419 328zM419 435c-50 0 -93 -30 -117 -97h193c6 66 -22 97 -76 97
z" />
    <glyph glyph-name="ebreve.ss01" horiz-adv-x="763" 
d="M685 648c-81 -40 -169 -60 -237 -60c-69 0 -148 20 -213 60l14 72c65 -40 144 -60 213 -60c68 0 156 20 237 60zM433 550c219 0 351 -88 316 -294l-5 -28h-466c-18 -96 14 -133 75 -133c52 0 91 25 106 77h264c-44 -120 -166 -192 -378 -192c-205 0 -331 86 -331 242
c0 192 162 328 419 328zM419 435c-50 0 -93 -30 -117 -97h193c6 66 -22 97 -76 97z" />
    <glyph glyph-name="ecaron.ss01" horiz-adv-x="763" 
d="M710 648l-262 -60l-238 60l14 72l238 -60l262 60zM433 550c219 0 351 -88 316 -294l-5 -28h-466c-18 -96 14 -133 75 -133c52 0 91 25 106 77h264c-44 -120 -166 -192 -378 -192c-205 0 -331 86 -331 242c0 192 162 328 419 328zM419 435c-50 0 -93 -30 -117 -97h193
c6 66 -22 97 -76 97z" />
    <glyph glyph-name="ecircumflex.ss01" horiz-adv-x="763" 
d="M698 588l-238 60l-262 -60l14 72l262 60l238 -60zM433 550c219 0 351 -88 316 -294l-5 -28h-466c-18 -96 14 -133 75 -133c52 0 91 25 106 77h264c-44 -120 -166 -192 -378 -192c-205 0 -331 86 -331 242c0 192 162 328 419 328zM419 435c-50 0 -93 -30 -117 -97h193
c6 66 -22 97 -76 97z" />
    <glyph glyph-name="edieresis.ss01" horiz-adv-x="763" 
d="M444 693l-14 -72h-262l14 72h262zM756 693l-14 -72h-262l14 72h262zM433 550c219 0 351 -88 316 -294l-5 -28h-466c-18 -96 14 -133 75 -133c52 0 91 25 106 77h264c-44 -120 -166 -192 -378 -192c-205 0 -331 86 -331 242c0 192 162 328 419 328zM419 435
c-50 0 -93 -30 -117 -97h193c6 66 -22 97 -76 97z" />
    <glyph glyph-name="edotaccent.ss01" horiz-adv-x="763" 
d="M600 693l-14 -72h-262l14 72h262zM433 550c219 0 351 -88 316 -294l-5 -28h-466c-18 -96 14 -133 75 -133c52 0 91 25 106 77h264c-44 -120 -166 -192 -378 -192c-205 0 -331 86 -331 242c0 192 162 328 419 328zM419 435c-50 0 -93 -30 -117 -97h193c6 66 -22 97 -76 97
z" />
    <glyph glyph-name="egrave.ss01" horiz-adv-x="763" 
d="M688 664l-14 -72l-439 56l14 72zM433 550c219 0 351 -88 316 -294l-5 -28h-466c-18 -96 14 -133 75 -133c52 0 91 25 106 77h264c-44 -120 -166 -192 -378 -192c-205 0 -331 86 -331 242c0 192 162 328 419 328zM419 435c-50 0 -93 -30 -117 -97h193c6 66 -22 97 -76 97z
" />
    <glyph glyph-name="emacron.ss01" horiz-adv-x="763" 
d="M694 693l-14 -72h-450l14 72h450zM433 550c219 0 351 -88 316 -294l-5 -28h-466c-18 -96 14 -133 75 -133c52 0 91 25 106 77h264c-44 -120 -166 -192 -378 -192c-205 0 -331 86 -331 242c0 192 162 328 419 328zM419 435c-50 0 -93 -30 -117 -97h193c6 66 -22 97 -76 97
z" />
    <glyph glyph-name="eogonek.ss01" horiz-adv-x="763" 
d="M433 550c219 0 351 -88 316 -294l-5 -28h-466c-18 -96 14 -133 75 -133c52 0 91 25 106 77h264c-29 -80 -94 -139 -197 -169c-68 -21 -169 -62 -169 -111c0 -16 15 -37 128 -37c71 0 151 15 177 26l-14 -70c-38 -20 -142 -29 -177 -29c-103 0 -207 21 -207 98
c0 40 26 74 60 100c-192 6 -310 91 -310 242c0 192 162 328 419 328zM419 435c-50 0 -93 -30 -117 -97h193c6 66 -22 97 -76 97z" />
    <glyph glyph-name="gbreve.ss01" horiz-adv-x="794" 
d="M698 648c-81 -40 -169 -60 -237 -60c-69 0 -148 20 -213 60l14 72c65 -40 144 -60 213 -60c68 0 156 20 237 60zM559 530h262l-83 -425c-37 -192 -199 -295 -435 -295c-232 0 -323 62 -300 181h247c-10 -53 15 -86 81 -86c65 0 114 36 127 106l18 94l3 13
c-73 -70 -152 -98 -225 -98c-149 0 -239 83 -239 208c0 179 151 322 342 322c73 0 141 -28 187 -98zM382 155c79 0 134 67 134 166c0 66 -29 94 -84 94c-79 0 -134 -67 -134 -166c0 -66 29 -94 84 -94z" />
    <glyph glyph-name="gcircumflex.ss01" horiz-adv-x="794" 
d="M711 588l-238 60l-262 -60l14 72l262 60l238 -60zM559 530h262l-83 -425c-37 -192 -199 -295 -435 -295c-232 0 -323 62 -300 181h247c-10 -53 15 -86 81 -86c65 0 114 36 127 106l18 94l3 13c-73 -70 -152 -98 -225 -98c-149 0 -239 83 -239 208c0 179 151 322 342 322
c73 0 141 -28 187 -98zM382 155c79 0 134 67 134 166c0 66 -29 94 -84 94c-79 0 -134 -67 -134 -166c0 -66 29 -94 84 -94z" />
    <glyph glyph-name="uni0123.ss01" horiz-adv-x="794" 
d="M772 720l-14 -72l-461 -56l14 72zM559 530h262l-83 -425c-37 -192 -199 -295 -435 -295c-232 0 -323 62 -300 181h247c-10 -53 15 -86 81 -86c65 0 114 36 127 106l18 94l3 13c-73 -70 -152 -98 -225 -98c-149 0 -239 83 -239 208c0 179 151 322 342 322
c73 0 141 -28 187 -98zM382 155c79 0 134 67 134 166c0 66 -29 94 -84 94c-79 0 -134 -67 -134 -166c0 -66 29 -94 84 -94z" />
    <glyph glyph-name="gdotaccent.ss01" horiz-adv-x="794" 
d="M613 693l-14 -72h-262l14 72h262zM559 530h262l-83 -425c-37 -192 -199 -295 -435 -295c-232 0 -323 62 -300 181h247c-10 -53 15 -86 81 -86c65 0 114 36 127 106l18 94l3 13c-73 -70 -152 -98 -225 -98c-149 0 -239 83 -239 208c0 179 151 322 342 322
c73 0 141 -28 187 -98zM382 155c79 0 134 67 134 166c0 66 -29 94 -84 94c-79 0 -134 -67 -134 -166c0 -66 29 -94 84 -94z" />
    <glyph glyph-name="hbar.ss01" horiz-adv-x="835" 
d="M619 480c149 0 216 -87 186 -240l-47 -240h-262l40 208c13 67 -21 103 -73 103c-35 0 -77 -18 -107 -53l-50 -258h-262l103 531h-80l14 72h80l19 97h262l-19 -97h150l-14 -72h-150l-30 -156c58 54 143 105 240 105z" />
    <glyph glyph-name="hcircumflex.ss01" horiz-adv-x="765" 
d="M208 768l14 72l282 60l258 -60l-14 -72l-258 60zM-26 0l136 700h262l-50 -255c59 54 143 105 241 105c146 0 215 -84 185 -240l-60 -310h-262l54 278c14 70 -25 103 -73 103c-36 0 -77 -18 -107 -53l-64 -328h-262z" />
    <glyph glyph-name="i.ss01" horiz-adv-x="313" 
d="M97 621l14 72h262l-14 -72h-262zM-26 0l103 530h262l-103 -530h-262z" />
    <glyph glyph-name="iacute.ss01" horiz-adv-x="313" 
d="M37 592l14 72l461 56l-14 -72zM-26 0l103 530h262l-103 -530h-262z" />
    <glyph glyph-name="ibreve.ss01" horiz-adv-x="313" 
d="M8 648l14 72c65 -40 144 -60 213 -60c68 0 156 20 237 60l-14 -72c-81 -40 -169 -60 -237 -60c-69 0 -148 20 -213 60zM-26 0l103 530h262l-103 -530h-262z" />
    <glyph glyph-name="icircumflex.ss01" horiz-adv-x="313" 
d="M-29 588l14 72l262 60l238 -60l-14 -72l-238 60zM-26 0l103 530h262l-103 -530h-262z" />
    <glyph glyph-name="idieresis.ss01" horiz-adv-x="313" 
d="M-59 621l14 72h262l-14 -72h-262zM253 621l14 72h262l-14 -72h-262zM-26 0l103 530h262l-103 -530h-262z" />
    <glyph glyph-name="igrave.ss01" horiz-adv-x="313" 
d="M8 648l14 72l439 -56l-14 -72zM-26 0l103 530h262l-103 -530h-262z" />
    <glyph glyph-name="ij.ss01" horiz-adv-x="625" 
d="M97 621l14 72h262l-14 -72h-262zM408 621l14 72h262l-14 -72h-262zM-26 0l103 530h262l-103 -530h-262zM232 -150c23 31 38 68 48 120l109 560h262l-95 -490c-15 -76 -59 -146 -102 -190h-222z" />
    <glyph glyph-name="imacron.ss01" horiz-adv-x="313" 
d="M3 621l14 72h450l-14 -72h-450zM-26 0l103 530h262l-103 -530h-262z" />
    <glyph glyph-name="iogonek.ss01" horiz-adv-x="312" 
d="M257 781c86 0 122 -37 122 -84c0 -75 -67 -127 -163 -127c-87 0 -123 38 -123 85c0 75 67 126 164 126zM-22 20l99 510h262l-103 -530h-102c-49 -7 -216 -45 -216 -108c0 -16 15 -37 128 -37c71 0 151 15 177 26l-14 -70c-38 -20 -142 -29 -177 -29
c-103 0 -207 21 -207 98c0 73 89 124 153 140z" />
    <glyph glyph-name="itilde.ss01" horiz-adv-x="313" 
d="M-23 618l13 66c63 29 109 36 150 36c90 0 138 -53 225 -53c33 0 75 9 128 33l-13 -66c-63 -29 -110 -36 -150 -36c-90 0 -138 53 -225 53c-34 0 -75 -9 -128 -33zM-26 0l103 530h262l-103 -530h-262z" />
    <glyph glyph-name="j.ss01" horiz-adv-x="312" 
d="M95 621l14 72h262l-14 -72h-262zM-81 -150c23 31 38 68 48 120l109 560h262l-95 -490c-15 -76 -59 -146 -102 -190h-222z" />
    <glyph glyph-name="jcircumflex.ss01" horiz-adv-x="312" 
d="M-31 588l14 72l262 60l238 -60l-14 -72l-238 60zM-81 -150c23 31 38 68 48 120l109 560h262l-95 -490c-15 -76 -59 -146 -102 -190h-222z" />
    <glyph glyph-name="uni0137.ss01" horiz-adv-x="817" 
d="M848 530l-283 -265l200 -265h-321l-165 219l-43 -219h-262l136 700h262l-76 -389l251 219h301zM28 -190l14 72l461 56l-14 -72z" />
    <glyph glyph-name="lacute.ss01" horiz-adv-x="313" 
d="M68 762l14 72l461 56l-14 -72zM-26 0l136 700h262l-136 -700h-262z" />
    <glyph glyph-name="lcaron.ss01" horiz-adv-x="437" 
d="M532 780l-93 -285h-72l90 285h75zM-26 0l136 700h262l-136 -700h-262z" />
    <glyph glyph-name="uni013C.ss01" horiz-adv-x="313" 
d="M-26 0l136 700h262l-136 -700h-262zM-217 -190l14 72l461 56l-14 -72z" />
    <glyph glyph-name="ldot.ss01" horiz-adv-x="569" 
d="M-26 0l136 700h262l-136 -700h-262zM327 291l14 72l227 28l-14 -72z" />
    <glyph glyph-name="lslash.ss01" horiz-adv-x="462" 
d="M421 412l-14 -72l-89 -37l-59 -303h-262l36 183l-86 -36l14 72l86 36l86 445h262l-63 -325z" />
    <glyph glyph-name="nacute.ss01" horiz-adv-x="765" 
d="M249 592l14 72l461 56l-14 -72zM-26 0l103 530h262l-17 -85c59 54 143 105 241 105c146 0 215 -84 185 -240l-60 -310h-262l54 278c14 70 -25 103 -73 103c-36 0 -77 -18 -107 -53l-64 -328h-262z" />
    <glyph glyph-name="ncaron.ss01" horiz-adv-x="765" 
d="M209 720l238 -60l262 60l-14 -72l-262 -60l-238 60zM-26 0l103 530h262l-17 -85c59 54 143 105 241 105c146 0 215 -84 185 -240l-60 -310h-262l54 278c14 70 -25 103 -73 103c-36 0 -77 -18 -107 -53l-64 -328h-262z" />
    <glyph glyph-name="uni0146.ss01" horiz-adv-x="765" 
d="M-26 0l103 530h262l-17 -85c59 54 143 105 241 105c146 0 215 -84 185 -240l-60 -310h-262l54 278c14 70 -25 103 -73 103c-36 0 -77 -18 -107 -53l-64 -328h-262zM7 -190l14 72l461 56l-14 -72z" />
    <glyph glyph-name="ntilde.ss01" horiz-adv-x="765" 
d="M189 618l13 66c63 29 109 36 150 36c90 0 138 -53 225 -53c33 0 75 9 128 33l-13 -66c-63 -29 -110 -36 -150 -36c-90 0 -138 53 -225 53c-34 0 -75 -9 -128 -33zM-26 0l103 530h262l-17 -85c59 54 143 105 241 105c146 0 215 -84 185 -240l-60 -310h-262l54 278
c14 70 -25 103 -73 103c-36 0 -77 -18 -107 -53l-64 -328h-262z" />
    <glyph glyph-name="oacute.ss01" horiz-adv-x="792" 
d="M274 592l14 72l461 56l-14 -72zM11 206c0 208 176 344 442 344c226 0 332 -90 332 -226c0 -208 -176 -344 -442 -344c-226 0 -332 90 -332 226zM282 211c0 -75 29 -106 85 -106c85 0 147 86 147 214c0 74 -29 106 -85 106c-85 0 -147 -86 -147 -214z" />
    <glyph glyph-name="obreve.ss01" horiz-adv-x="792" 
d="M245 648l14 72c65 -40 144 -60 213 -60c68 0 156 20 237 60l-14 -72c-81 -40 -169 -60 -237 -60c-69 0 -148 20 -213 60zM11 206c0 208 176 344 442 344c226 0 332 -90 332 -226c0 -208 -176 -344 -442 -344c-226 0 -332 90 -332 226zM282 211c0 -75 29 -106 85 -106
c85 0 147 86 147 214c0 74 -29 106 -85 106c-85 0 -147 -86 -147 -214z" />
    <glyph glyph-name="ocircumflex.ss01" horiz-adv-x="792" 
d="M208 588l14 72l262 60l238 -60l-14 -72l-238 60zM11 206c0 208 176 344 442 344c226 0 332 -90 332 -226c0 -208 -176 -344 -442 -344c-226 0 -332 90 -332 226zM282 211c0 -75 29 -106 85 -106c85 0 147 86 147 214c0 74 -29 106 -85 106c-85 0 -147 -86 -147 -214z" />
    <glyph glyph-name="odieresis.ss01" horiz-adv-x="792" 
d="M178 621l14 72h262l-14 -72h-262zM490 621l14 72h262l-14 -72h-262zM11 206c0 208 176 344 442 344c226 0 332 -90 332 -226c0 -208 -176 -344 -442 -344c-226 0 -332 90 -332 226zM282 211c0 -75 29 -106 85 -106c85 0 147 86 147 214c0 74 -29 106 -85 106
c-85 0 -147 -86 -147 -214z" />
    <glyph glyph-name="ograve.ss01" horiz-adv-x="792" 
d="M245 648l14 72l439 -56l-14 -72zM11 206c0 208 176 344 442 344c226 0 332 -90 332 -226c0 -208 -176 -344 -442 -344c-226 0 -332 90 -332 226zM282 211c0 -75 29 -106 85 -106c85 0 147 86 147 214c0 74 -29 106 -85 106c-85 0 -147 -86 -147 -214z" />
    <glyph glyph-name="ohungarumlaut.ss01" horiz-adv-x="792" 
d="M78 592l14 72l367 56l-14 -72zM484 592l14 72l367 56l-14 -72zM11 206c0 208 176 344 442 344c226 0 332 -90 332 -226c0 -208 -176 -344 -442 -344c-226 0 -332 90 -332 226zM282 211c0 -75 29 -106 85 -106c85 0 147 86 147 214c0 74 -29 106 -85 106
c-85 0 -147 -86 -147 -214z" />
    <glyph glyph-name="omacron.ss01" horiz-adv-x="792" 
d="M240 621l14 72h450l-14 -72h-450zM11 206c0 208 176 344 442 344c226 0 332 -90 332 -226c0 -208 -176 -344 -442 -344c-226 0 -332 90 -332 226zM282 211c0 -75 29 -106 85 -106c85 0 147 86 147 214c0 74 -29 106 -85 106c-85 0 -147 -86 -147 -214z" />
    <glyph glyph-name="oslash.ss01" horiz-adv-x="792" 
d="M672 508c76 -40 113 -104 113 -184c0 -208 -176 -344 -442 -344c-57 0 -106 6 -148 16l-62 -66h-83l83 88c-83 39 -122 105 -122 188c0 208 176 344 442 344c61 0 114 -7 158 -19l64 69h83zM282 211c0 -11 1 -21 2 -30l206 221c-14 16 -34 23 -61 23
c-85 0 -147 -86 -147 -214zM367 105c85 0 147 86 147 214c0 7 0 13 -1 19l-201 -216c14 -12 32 -17 55 -17z" />
    <glyph glyph-name="otilde.ss01" horiz-adv-x="792" 
d="M214 618l13 66c63 29 109 36 150 36c90 0 138 -53 225 -53c33 0 75 9 128 33l-13 -66c-63 -29 -110 -36 -150 -36c-90 0 -138 53 -225 53c-34 0 -75 -9 -128 -33zM11 206c0 208 176 344 442 344c226 0 332 -90 332 -226c0 -208 -176 -344 -442 -344
c-226 0 -332 90 -332 226zM282 211c0 -75 29 -106 85 -106c85 0 147 86 147 214c0 74 -29 106 -85 106c-85 0 -147 -86 -147 -214z" />
    <glyph glyph-name="racute.ss01" horiz-adv-x="650" 
d="M204 592l14 72l461 56l-14 -72zM400 226l7 36c9 46 -6 73 -43 73s-68 -27 -77 -73l30 153c53 85 129 135 205 135c111 0 144 -93 119 -225l-19 -99h-222zM-26 0l103 530h262l-103 -530h-262z" />
    <glyph glyph-name="rcaron.ss01" horiz-adv-x="650" 
d="M164 720l238 -60l262 60l-14 -72l-262 -60l-238 60zM400 226l7 36c9 46 -6 73 -43 73s-68 -27 -77 -73l30 153c53 85 129 135 205 135c111 0 144 -93 119 -225l-19 -99h-222zM-26 0l103 530h262l-103 -530h-262z" />
    <glyph glyph-name="uni0157.ss01" horiz-adv-x="650" 
d="M400 226l7 36c9 46 -6 73 -43 73s-68 -27 -77 -73l30 153c53 85 129 135 205 135c111 0 144 -93 119 -225l-19 -99h-222zM-26 0l103 530h262l-103 -530h-262zM-220 -190l14 72l461 56l-14 -72z" />
    <glyph glyph-name="sacute.ss01" horiz-adv-x="660" 
d="M208 592l14 72l461 56l-14 -72zM-7 149h245c-13 -41 1 -79 55 -79s84 25 84 53c0 22 -20 34 -76 45c-169 32 -267 70 -267 178c0 130 125 204 335 204c221 0 299 -65 279 -169h-235c13 41 4 79 -55 79c-42 0 -74 -23 -74 -53c0 -21 18 -35 56 -42
c188 -35 287 -72 287 -178c0 -135 -150 -207 -354 -207c-219 0 -300 64 -280 169z" />
    <glyph glyph-name="scaron.ss01" horiz-adv-x="660" 
d="M168 720l238 -60l262 60l-14 -72l-262 -60l-238 60zM-7 149h245c-13 -41 1 -79 55 -79s84 25 84 53c0 22 -20 34 -76 45c-169 32 -267 70 -267 178c0 130 125 204 335 204c221 0 299 -65 279 -169h-235c13 41 4 79 -55 79c-42 0 -74 -23 -74 -53c0 -21 18 -35 56 -42
c188 -35 287 -72 287 -178c0 -135 -150 -207 -354 -207c-219 0 -300 64 -280 169z" />
    <glyph glyph-name="scedilla.ss01" horiz-adv-x="660" 
d="M648 381h-235c13 41 4 79 -55 79c-42 0 -74 -23 -74 -53c0 -21 18 -35 56 -42c188 -35 287 -72 287 -178c0 -126 -131 -197 -314 -206c73 -7 110 -31 110 -76c0 -79 -79 -127 -210 -127c-72 0 -103 18 -121 24l14 70c52 -14 97 -20 126 -20c47 0 106 1 106 38
c0 31 -51 35 -160 35l45 56c-181 10 -248 71 -230 168h245c-13 -41 1 -79 55 -79s84 25 84 53c0 22 -20 34 -76 45c-169 32 -267 70 -267 178c0 130 125 204 335 204c221 0 299 -65 279 -169z" />
    <glyph glyph-name="scircumflex.ss01" horiz-adv-x="660" 
d="M142 588l14 72l262 60l238 -60l-14 -72l-238 60zM-7 149h245c-13 -41 1 -79 55 -79s84 25 84 53c0 22 -20 34 -76 45c-169 32 -267 70 -267 178c0 130 125 204 335 204c221 0 299 -65 279 -169h-235c13 41 4 79 -55 79c-42 0 -74 -23 -74 -53c0 -21 18 -35 56 -42
c188 -35 287 -72 287 -178c0 -135 -150 -207 -354 -207c-219 0 -300 64 -280 169z" />
    <glyph glyph-name="uni0219.ss01" horiz-adv-x="660" 
d="M-7 149h245c-13 -41 1 -79 55 -79s84 25 84 53c0 22 -20 34 -76 45c-169 32 -267 70 -267 178c0 130 125 204 335 204c221 0 299 -65 279 -169h-235c13 41 4 79 -55 79c-42 0 -74 -23 -74 -53c0 -21 18 -35 56 -42c188 -35 287 -72 287 -178c0 -135 -150 -207 -354 -207
c-219 0 -300 64 -280 169zM-44 -190l14 72l461 56l-14 -72z" />
    <glyph glyph-name="tbar.ss01" horiz-adv-x="588" 
d="M598 398h-190l-18 -94h136l-14 -72h-136l-4 -20c-17 -87 39 -113 174 -79l-21 -113c-36 -19 -115 -40 -198 -40c-163 0 -250 65 -224 197l11 55h-115l14 72h115l18 94h-115l26 132h115l63 170h232l-33 -170h190z" />
    <glyph glyph-name="tcaron.ss01" horiz-adv-x="588" 
d="M650 865l-93 -285h-72l90 285h75zM467 700l-33 -170h190l-26 -132h-190l-36 -186c-17 -87 39 -113 174 -79l-21 -113c-36 -19 -115 -40 -198 -40c-163 0 -250 65 -224 197l43 221h-115l26 132h115l63 170h232z" />
    <glyph glyph-name="uni0163.ss01" horiz-adv-x="588" 
d="M408 398l-36 -186c-17 -87 39 -113 174 -79l-21 -113c-36 -19 -115 -40 -198 -40h-8c67 -8 101 -32 101 -75c0 -79 -79 -127 -210 -127c-72 0 -103 18 -121 24l14 70c52 -14 97 -20 126 -20c47 0 106 1 106 38c0 31 -51 35 -160 35l52 65c-97 23 -144 85 -124 187l43 221
h-115l26 132h115l63 170h232l-33 -170h190l-26 -132h-190z" />
    <glyph glyph-name="uni021B.ss01" horiz-adv-x="588" 
d="M408 398l-36 -186c-17 -87 39 -113 174 -79l-21 -113c-36 -19 -115 -40 -198 -40c-163 0 -250 65 -224 197l43 221h-115l26 132h115l63 170h232l-33 -170h190l-26 -132h-190zM-77 -190l14 72l461 56l-14 -72z" />
    <glyph glyph-name="uacute.ss01" horiz-adv-x="765" 
d="M264 592l14 72l461 56l-14 -72zM77 530h262l-54 -278c-14 -70 25 -103 73 -103c35 0 78 18 108 53l63 328h262l-103 -530h-262l17 85c-59 -54 -143 -105 -241 -105c-145 0 -215 84 -185 240z" />
    <glyph glyph-name="ubreve.ss01" horiz-adv-x="765" 
d="M235 648l14 72c65 -40 144 -60 213 -60c68 0 156 20 237 60l-14 -72c-81 -40 -169 -60 -237 -60c-69 0 -148 20 -213 60zM77 530h262l-54 -278c-14 -70 25 -103 73 -103c35 0 78 18 108 53l63 328h262l-103 -530h-262l17 85c-59 -54 -143 -105 -241 -105
c-145 0 -215 84 -185 240z" />
    <glyph glyph-name="ucircumflex.ss01" horiz-adv-x="765" 
d="M198 588l14 72l262 60l238 -60l-14 -72l-238 60zM77 530h262l-54 -278c-14 -70 25 -103 73 -103c35 0 78 18 108 53l63 328h262l-103 -530h-262l17 85c-59 -54 -143 -105 -241 -105c-145 0 -215 84 -185 240z" />
    <glyph glyph-name="udieresis.ss01" horiz-adv-x="765" 
d="M168 621l14 72h262l-14 -72h-262zM480 621l14 72h262l-14 -72h-262zM77 530h262l-54 -278c-14 -70 25 -103 73 -103c35 0 78 18 108 53l63 328h262l-103 -530h-262l17 85c-59 -54 -143 -105 -241 -105c-145 0 -215 84 -185 240z" />
    <glyph glyph-name="ugrave.ss01" horiz-adv-x="765" 
d="M235 648l14 72l439 -56l-14 -72zM77 530h262l-54 -278c-14 -70 25 -103 73 -103c35 0 78 18 108 53l63 328h262l-103 -530h-262l17 85c-59 -54 -143 -105 -241 -105c-145 0 -215 84 -185 240z" />
    <glyph glyph-name="uhungarumlaut.ss01" horiz-adv-x="765" 
d="M68 592l14 72l367 56l-14 -72zM474 592l14 72l367 56l-14 -72zM77 530h262l-54 -278c-14 -70 25 -103 73 -103c35 0 78 18 108 53l63 328h262l-103 -530h-262l17 85c-59 -54 -143 -105 -241 -105c-145 0 -215 84 -185 240z" />
    <glyph glyph-name="umacron.ss01" horiz-adv-x="765" 
d="M230 621l14 72h450l-14 -72h-450zM77 530h262l-54 -278c-14 -70 25 -103 73 -103c35 0 78 18 108 53l63 328h262l-103 -530h-262l17 85c-59 -54 -143 -105 -241 -105c-145 0 -215 84 -185 240z" />
    <glyph glyph-name="uogonek.ss01" horiz-adv-x="765" 
d="M576 0c-49 -7 -216 -45 -216 -108c0 -16 15 -37 128 -37c71 0 151 15 177 26l-14 -70c-38 -20 -142 -29 -177 -29c-103 0 -207 21 -207 98c0 78 99 129 163 142l13 63c-59 -54 -143 -105 -241 -105c-145 0 -215 84 -185 240l60 310h262l-54 -278c-14 -70 25 -103 73 -103
c35 0 78 18 108 53l63 328h262l-103 -530h-112z" />
    <glyph glyph-name="uring.ss01" horiz-adv-x="765" 
d="M222 647c0 59 110 103 258 103c140 0 221 -38 221 -86c0 -59 -110 -104 -258 -104c-140 0 -221 39 -221 87zM295 654c0 -17 59 -32 160 -32c103 0 173 16 173 35c0 17 -59 31 -160 31c-104 0 -173 -15 -173 -34zM77 530h262l-54 -278c-14 -70 25 -103 73 -103
c35 0 78 18 108 53l63 328h262l-103 -530h-262l17 85c-59 -54 -143 -105 -241 -105c-145 0 -215 84 -185 240z" />
    <glyph glyph-name="utilde.ss01" horiz-adv-x="765" 
d="M204 618l13 66c63 29 109 36 150 36c90 0 138 -53 225 -53c33 0 75 9 128 33l-13 -66c-63 -29 -110 -36 -150 -36c-90 0 -138 53 -225 53c-34 0 -75 -9 -128 -33zM77 530h262l-54 -278c-14 -70 25 -103 73 -103c35 0 78 18 108 53l63 328h262l-103 -530h-262l17 85
c-59 -54 -143 -105 -241 -105c-145 0 -215 84 -185 240z" />
    <glyph glyph-name="wacute.ss01" horiz-adv-x="1162" 
d="M460 592l14 72l461 56l-14 -72zM164 0l-112 530h276l58 -273l143 273h269l58 -273l143 273h215l-318 -530h-262l-54 282l-164 -282h-252z" />
    <glyph glyph-name="wcircumflex.ss01" horiz-adv-x="1162" 
d="M394 588l14 72l262 60l238 -60l-14 -72l-238 60zM164 0l-112 530h276l58 -273l143 273h269l58 -273l143 273h215l-318 -530h-262l-54 282l-164 -282h-252z" />
    <glyph glyph-name="wdieresis.ss01" horiz-adv-x="1162" 
d="M364 621l14 72h262l-14 -72h-262zM676 621l14 72h262l-14 -72h-262zM164 0l-112 530h276l58 -273l143 273h269l58 -273l143 273h215l-318 -530h-262l-54 282l-164 -282h-252z" />
    <glyph glyph-name="wgrave.ss01" horiz-adv-x="1162" 
d="M431 648l14 72l439 -56l-14 -72zM164 0l-112 530h276l58 -273l143 273h269l58 -273l143 273h215l-318 -530h-262l-54 282l-164 -282h-252z" />
    <glyph glyph-name="yacute.ss01" horiz-adv-x="772" 
d="M740 720l-14 -72l-461 -56l14 72zM599 530h225l-454 -680h-261l75 148l-132 532h296l57 -328z" />
    <glyph glyph-name="ycircumflex.ss01" horiz-adv-x="772" 
d="M699 588l-238 60l-262 -60l14 72l262 60l238 -60zM599 530h225l-454 -680h-261l75 148l-132 532h296l57 -328z" />
    <glyph glyph-name="ydieresis.ss01" horiz-adv-x="772" 
d="M445 693l-14 -72h-262l14 72h262zM757 693l-14 -72h-262l14 72h262zM599 530h225l-454 -680h-261l75 148l-132 532h296l57 -328z" />
    <glyph glyph-name="ygrave.ss01" horiz-adv-x="772" 
d="M689 664l-14 -72l-439 56l14 72zM599 530h225l-454 -680h-261l75 148l-132 532h296l57 -328z" />
    <glyph glyph-name="zacute.ss01" horiz-adv-x="648" 
d="M203 592l14 72l461 56l-14 -72zM-36 0l31 162l295 226h-246l28 142h607l-28 -142l-307 -246h265l-28 -142h-617z" />
    <glyph glyph-name="zcaron.ss01" horiz-adv-x="648" 
d="M163 720l238 -60l262 60l-14 -72l-262 -60l-238 60zM-36 0l31 162l295 226h-246l28 142h607l-28 -142l-307 -246h265l-28 -142h-617z" />
    <glyph glyph-name="zdotaccent.ss01" horiz-adv-x="648" 
d="M263 621l14 72h262l-14 -72h-262zM-36 0l31 162l295 226h-246l28 142h607l-28 -142l-307 -246h265l-28 -142h-617z" />
    <glyph glyph-name="uni00CD_uni00A40301" horiz-adv-x="1137" 
d="M119 750l141 210h306l-211 -210h-236zM902 750l141 210h306l-211 -210h-236zM-26 0l136 700h302l-136 -700h-302zM377 313h292l-19 -97c-15 -78 -4 -111 54 -111c57 0 82 33 97 111l94 484h302l-81 -413c-38 -195 -174 -307 -449 -307c-315 0 -328 128 -299 285z" />
    <glyph glyph-name="uni00ED_uni006A0301" horiz-adv-x="625" 
d="M88 580l127 190h286l-197 -190h-216zM399 580l127 190h286l-197 -190h-216zM-26 0l103 530h262l-103 -530h-262zM232 -150c23 31 38 68 48 120l109 560h262l-95 -490c-15 -76 -59 -146 -102 -190h-222z" />
    <glyph glyph-name="f_i.salt" horiz-adv-x="865" 
d="M880 470l-92 -470h-262l66 338h-191l-66 -338h-262l66 338h-115l26 132h115l6 33c31 157 185 217 333 217c43 0 97 -5 119 -14l-27 -135c-13 2 -34 3 -47 3c-82 0 -110 -38 -117 -76l-5 -28h453zM797 720c87 0 123 -37 123 -84c0 -75 -67 -127 -164 -127
c-86 0 -122 38 -122 85c0 75 66 126 163 126z" />
    <glyph glyph-name="ordfeminine" unicode="&#xaa;" horiz-adv-x="482" 
d="M65 504c0 114 91 206 204 206c43 0 83 -18 108 -62l11 52h154l-62 -315h-154l10 52c-42 -44 -89 -62 -133 -62c-86 0 -138 51 -138 129zM242 511c0 -32 15 -47 44 -47c43 0 74 45 74 109c0 32 -15 48 -44 48c-43 0 -74 -46 -74 -110z" />
    <glyph glyph-name="ordmasculine" unicode="&#xba;" horiz-adv-x="479" 
d="M66 508c0 123 105 204 260 202c136 -2 195 -55 195 -133c0 -122 -103 -202 -260 -202c-133 0 -195 53 -195 133zM236 506c0 -33 14 -48 41 -48c43 0 75 52 75 121c0 32 -14 47 -42 47c-43 0 -74 -50 -74 -120z" />
    <glyph glyph-name="uni0394" unicode="&#x394;" horiz-adv-x="937" 
d="M749 700l136 -700h-937l406 700h395zM289 182h231l-48 357z" />
    <glyph glyph-name="uni03A9" unicode="&#x3a9;" horiz-adv-x="975" 
d="M-36 0l31 162h188c-93 43 -146 104 -146 191c0 210 229 367 539 367c259 0 415 -104 415 -266c0 -141 -95 -236 -240 -292h188l-31 -162h-412l31 162c29 26 140 129 140 292c0 86 -41 129 -118 129c-110 0 -194 -113 -194 -262c0 -64 22 -116 52 -159l-31 -162h-412z" />
    <glyph glyph-name="pi" unicode="&#x3c0;" horiz-adv-x="894" 
d="M39 0l77 398h-75l26 132h864l-26 -132h-75l-77 -398h-262l77 398h-190l-77 -398h-262z" />
    <glyph glyph-name="zero" unicode="0" horiz-adv-x="832" 
d="M24 259c0 271 198 461 480 461c216 0 337 -102 337 -279c0 -271 -198 -461 -481 -461c-216 0 -336 102 -336 279zM296 213c0 -75 28 -103 90 -103c102 0 182 168 182 377c0 76 -28 103 -89 103c-102 0 -183 -168 -183 -377z" />
    <glyph glyph-name="one" unicode="1" horiz-adv-x="593" 
d="M370 700h282l-136 -700h-282l92 472l-289 -70l33 172l291 80z" />
    <glyph glyph-name="two" unicode="2" horiz-adv-x="751" 
d="M-26 0l31 162c285 105 476 199 476 361c0 43 -21 67 -62 67c-80 0 -113 -100 -111 -216h-259c0 7 -1 15 -1 25c0 204 150 321 410 321c226 0 324 -75 324 -188c0 -147 -99 -234 -281 -298l-204 -72h393l-31 -162h-685z" />
    <glyph glyph-name="three" unicode="3" horiz-adv-x="775" 
d="M8 231h265c-26 -83 -1 -131 68 -131c63 0 109 45 109 106c0 42 -30 66 -81 66h-58l29 148h58c69 0 115 45 115 113c0 42 -25 67 -75 67c-75 0 -115 -61 -120 -140h-265c35 182 190 260 430 260c203 0 318 -60 318 -169c0 -103 -88 -188 -216 -206
c102 -11 166 -59 166 -133c0 -141 -162 -232 -412 -232c-262 0 -368 61 -331 251z" />
    <glyph glyph-name="four" unicode="4" horiz-adv-x="762" 
d="M759 700l-83 -428h77l-29 -148h-77l-24 -124h-272l24 124h-392l33 170l408 406h335zM223 272h181l53 274z" />
    <glyph glyph-name="five" unicode="5" horiz-adv-x="741" 
d="M743 538h-409l-21 -111c38 19 101 43 179 43c140 0 237 -64 237 -186c0 -188 -161 -304 -426 -304c-266 0 -334 103 -310 221l2 10h265c-11 -58 -5 -111 66 -111c72 0 128 70 128 161c0 44 -18 84 -79 84c-55 0 -87 -38 -102 -65h-241l74 380l8 40h660z" />
    <glyph glyph-name="six" unicode="6" horiz-adv-x="793" 
d="M802 489h-265c15 76 -2 111 -71 111c-67 0 -117 -50 -143 -184c252 44 451 11 451 -151c0 -167 -176 -285 -424 -285c-229 0 -329 88 -329 257c0 294 190 483 488 483c260 0 315 -118 293 -231zM498 236c0 62 -58 85 -198 64c-35 -151 -11 -200 68 -200
c74 0 130 58 130 136z" />
    <glyph glyph-name="seven" unicode="7" horiz-adv-x="726" 
d="M14 0c64 117 336 423 497 538h-447l31 162h706l-28 -143c-210 -197 -323 -366 -426 -557h-333z" />
    <glyph glyph-name="eight" unicode="8" horiz-adv-x="839" 
d="M-8 155c0 107 89 188 231 210c-64 15 -122 54 -122 124c0 133 171 231 406 231c222 0 328 -79 328 -176c0 -85 -71 -155 -182 -179c67 -11 164 -47 164 -143c0 -152 -168 -242 -453 -242c-240 0 -372 57 -372 175zM358 484c0 -43 31 -76 89 -76c69 0 125 51 125 115
c0 43 -30 77 -88 77c-69 0 -126 -53 -126 -116zM290 178c0 -44 36 -78 97 -78c76 0 134 51 134 116c0 47 -34 82 -96 82c-72 0 -135 -56 -135 -120z" />
    <glyph glyph-name="nine" unicode="9" horiz-adv-x="788" 
d="M471 720c229 0 329 -88 329 -257c0 -294 -190 -483 -488 -483c-260 0 -315 118 -293 231h265c-15 -76 2 -111 71 -111c67 0 117 50 143 184c-253 -44 -451 -11 -451 151c0 167 176 285 424 285zM521 400c35 151 11 200 -68 200c-74 0 -130 -58 -130 -136
c0 -62 58 -85 198 -64z" />
    <glyph glyph-name="zero.zero" horiz-adv-x="832" 
d="M504 720c216 0 337 -102 337 -279c0 -271 -198 -461 -481 -461c-216 0 -336 102 -336 279c0 271 198 461 480 461zM479 590c-85 0 -156 -117 -177 -278l241 259c-15 13 -36 19 -64 19zM386 110c83 0 152 112 174 267l-233 -252c14 -10 34 -15 59 -15z" />
    <glyph glyph-name="zero.tf" horiz-adv-x="830" 
d="M23 259c0 271 198 461 480 461c216 0 337 -102 337 -279c0 -271 -198 -461 -481 -461c-216 0 -336 102 -336 279zM295 213c0 -75 28 -103 90 -103c102 0 182 168 182 377c0 76 -28 103 -89 103c-102 0 -183 -168 -183 -377z" />
    <glyph glyph-name="one.tf" horiz-adv-x="830" 
d="M574 148h195l-29 -148h-753l30 148h275l63 324l-289 -70l34 172l290 80l9 46h282z" />
    <glyph glyph-name="two.tf" horiz-adv-x="830" 
d="M13 0l31 162c285 105 476 199 476 361c0 43 -21 67 -62 67c-80 0 -113 -100 -111 -216h-259c0 7 -1 15 -1 25c0 204 150 321 410 321c226 0 324 -75 324 -188c0 -147 -99 -234 -281 -298l-204 -72h393l-31 -162h-685z" />
    <glyph glyph-name="three.tf" horiz-adv-x="830" 
d="M33 231h265c-26 -83 -1 -131 68 -131c63 0 109 45 109 106c0 42 -30 66 -81 66h-58l29 148h58c69 0 115 45 115 113c0 42 -25 67 -75 67c-75 0 -115 -61 -120 -140h-265c35 182 190 260 430 260c203 0 318 -60 318 -169c0 -103 -88 -188 -216 -206
c102 -11 166 -59 166 -133c0 -141 -162 -232 -412 -232c-262 0 -368 61 -331 251z" />
    <glyph glyph-name="four.tf" horiz-adv-x="830" 
d="M793 700l-83 -428h77l-29 -148h-77l-24 -124h-272l24 124h-392l33 170l408 406h335zM257 272h181l53 274z" />
    <glyph glyph-name="five.tf" horiz-adv-x="830" 
d="M790 538h-409l-21 -111c38 19 101 43 179 43c140 0 237 -64 237 -186c0 -188 -161 -304 -426 -304c-266 0 -334 103 -310 221l2 10h265c-11 -58 -5 -111 66 -111c72 0 128 70 128 161c0 44 -18 84 -79 84c-55 0 -87 -38 -102 -65h-241l74 380l8 40h660z" />
    <glyph glyph-name="six.tf" horiz-adv-x="830" 
d="M820 489h-265c15 76 -2 111 -71 111c-67 0 -117 -50 -143 -184c252 44 451 11 451 -151c0 -167 -176 -285 -424 -285c-229 0 -329 88 -329 257c0 294 190 483 488 483c260 0 315 -118 293 -231zM516 236c0 62 -58 85 -198 64c-35 -151 -11 -200 68 -200
c74 0 130 58 130 136z" />
    <glyph glyph-name="seven.tf" horiz-adv-x="830" 
d="M66 0c64 117 336 423 497 538h-447l31 162h706l-28 -143c-210 -197 -323 -366 -426 -557h-333z" />
    <glyph glyph-name="eight.tf" horiz-adv-x="830" 
d="M-12 155c0 107 89 188 231 210c-64 15 -122 54 -122 124c0 133 171 231 406 231c222 0 328 -79 328 -176c0 -85 -71 -155 -182 -179c67 -11 164 -47 164 -143c0 -152 -168 -242 -453 -242c-240 0 -372 57 -372 175zM354 484c0 -43 31 -76 89 -76c69 0 125 51 125 115
c0 43 -30 77 -88 77c-69 0 -126 -53 -126 -116zM286 178c0 -44 36 -78 97 -78c76 0 134 51 134 116c0 47 -34 82 -96 82c-72 0 -135 -56 -135 -120z" />
    <glyph glyph-name="nine.tf" horiz-adv-x="830" 
d="M494 720c229 0 329 -88 329 -257c0 -294 -190 -483 -488 -483c-260 0 -315 118 -293 231h265c-15 -76 2 -111 71 -111c67 0 117 50 143 184c-253 -44 -451 -11 -451 151c0 167 176 285 424 285zM544 400c35 151 11 200 -68 200c-74 0 -130 -58 -130 -136
c0 -62 58 -85 198 -64z" />
    <glyph glyph-name="zero.tf.zero" horiz-adv-x="834" 
d="M505 720c216 0 337 -102 337 -279c0 -271 -198 -461 -481 -461c-216 0 -336 102 -336 279c0 271 198 461 480 461zM480 590c-85 0 -156 -117 -177 -278l241 259c-15 13 -36 19 -64 19zM387 110c83 0 152 112 174 267l-233 -252c14 -10 34 -15 59 -15z" />
    <glyph glyph-name="uni00B9" unicode="&#xb9;" horiz-adv-x="334" 
d="M228 700h161l-68 -350h-161l42 216l-145 -35l21 106l145 40z" />
    <glyph glyph-name="uni00B2" unicode="&#xb2;" horiz-adv-x="452" 
d="M42 350l20 101c184 60 252 85 252 154c0 20 -10 30 -29 30c-36 0 -50 -45 -48 -98h-158v17c0 100 83 156 230 156c130 0 188 -38 188 -96c0 -67 -42 -106 -155 -137l-93 -26h205l-20 -101h-392z" />
    <glyph glyph-name="uni00B3" unicode="&#xb3;" horiz-adv-x="469" 
d="M59 466l161 -1c-12 -35 0 -55 33 -55c28 0 50 19 50 43c0 18 -15 28 -39 28h-33l16 84h33c32 0 53 18 53 46c0 18 -12 29 -35 29c-35 0 -54 -25 -55 -58l-162 -2c18 90 103 130 242 130c117 0 184 -30 184 -86c0 -54 -52 -93 -120 -101c57 -5 97 -30 97 -68
c0 -70 -91 -115 -232 -115c-148 0 -212 30 -193 126z" />
    <glyph glyph-name="fraction" unicode="&#x2044;" horiz-adv-x="781" 
d="M-62 0l752 700h186l-752 -700h-186z" />
    <glyph glyph-name="onehalf" unicode="&#xbd;" horiz-adv-x="953" 
d="M944 700l-752 -700h-188l752 700h188zM58 531h-1l21 106l145 40l5 23h162l-68 -350h-162l42 216zM742 360c130 0 188 -38 188 -96c0 -67 -42 -106 -155 -137l-93 -26h205l-20 -101h-392l20 101c184 60 252 85 252 154c0 20 -10 30 -29 30c-36 0 -50 -45 -48 -98h-158v17
c0 100 83 156 230 156z" />
    <glyph glyph-name="onequarter" unicode="&#xbc;" horiz-adv-x="944" 
d="M756 700h186l-752 -700h-186zM160 350l42 216l-145 -35l21 106l145 40l5 23h161l-68 -350h-161zM907 350l-41 -209h44l-16 -84h-44l-11 -57h-165l11 57h-214l17 90l228 203h191zM621 141h80l21 106z" />
    <glyph glyph-name="threequarters" unicode="&#xbe;" horiz-adv-x="993" 
d="M484 455c0 -70 -91 -115 -232 -115c-148 0 -212 30 -193 126l161 -1c-12 -35 0 -55 33 -55c28 0 50 19 50 43c0 18 -15 28 -39 28h-33l16 84h33c32 0 53 18 53 46c0 18 -12 29 -35 29c-35 0 -54 -25 -55 -58l-162 -2c18 90 103 130 242 130c117 0 184 -30 184 -86
c0 -54 -52 -93 -120 -101c57 -5 97 -30 97 -68zM842 700h186l-752 -700h-186zM956 350l-41 -209h44l-16 -84h-44l-11 -57h-165l11 57h-214l17 90l228 203h191zM670 141h80l21 106z" />
    <glyph glyph-name="period" unicode="." horiz-adv-x="338" 
d="M-18 87c0 -55 48 -97 133 -97c100 0 179 60 179 135c0 53 -47 95 -134 95c-100 0 -178 -59 -178 -133z" />
    <glyph glyph-name="comma" unicode="," horiz-adv-x="277" 
d="M-78 -160c25 81 61 215 82 325h239c-21 -106 -72 -245 -113 -325h-208z" />
    <glyph glyph-name="colon" unicode=":" horiz-adv-x="339" 
d="M45 407c0 -54 47 -97 134 -97c99 0 178 60 178 135c0 53 -47 95 -134 95c-100 0 -178 -59 -178 -133zM-17 87c0 -55 48 -97 133 -97c100 0 179 60 179 135c0 53 -47 95 -134 95c-100 0 -178 -59 -178 -133z" />
    <glyph glyph-name="semicolon" unicode=";" horiz-adv-x="339" 
d="M45 407c0 -55 48 -97 133 -97c100 0 179 60 179 135c0 53 -47 95 -134 95c-100 0 -178 -59 -178 -133zM-52 -160c26 80 61 215 82 325h239c-21 -106 -72 -245 -113 -325h-208z" />
    <glyph glyph-name="ellipsis" unicode="&#x2026;" horiz-adv-x="1054" 
d="M-18 87c0 -55 48 -97 133 -97c100 0 179 60 179 135c0 53 -47 95 -134 95c-100 0 -178 -59 -178 -133zM340 87c0 -55 48 -97 133 -97c100 0 179 60 179 135c0 53 -47 95 -134 95c-100 0 -178 -59 -178 -133zM698 87c0 -55 48 -97 133 -97c100 0 179 60 179 135
c0 53 -47 95 -134 95c-100 0 -178 -59 -178 -133z" />
    <glyph glyph-name="exclam" unicode="!" horiz-adv-x="348" 
d="M127 700h262l-97 -450h-242zM-15 77c0 -55 48 -97 133 -97c100 0 179 60 179 135c0 53 -47 95 -134 95c-100 0 -178 -59 -178 -133z" />
    <glyph glyph-name="exclamdown" unicode="&#xa1;" horiz-adv-x="349" 
d="M367 473c0 55 -48 97 -133 97c-100 0 -179 -60 -179 -135c0 -53 47 -95 134 -95c100 0 178 59 178 133zM225 -150h-262l97 450h242z" />
    <glyph glyph-name="question" unicode="?" horiz-adv-x="704" 
d="M237 268c32 172 217 113 217 269c0 35 -22 53 -57 53c-70 0 -100 -71 -98 -159h-246c4 166 100 289 385 289c224 0 302 -64 302 -164c0 -259 -279 -198 -302 -315h-206zM149 77c0 -54 46 -97 133 -97c100 0 179 60 179 135c0 53 -47 95 -134 95
c-100 0 -178 -59 -178 -133z" />
    <glyph glyph-name="questiondown" unicode="&#xbf;" horiz-adv-x="704" 
d="M559 473c0 54 -46 97 -133 97c-100 0 -179 -60 -179 -135c0 -53 47 -95 134 -95c100 0 178 59 178 133zM471 282c-32 -172 -217 -113 -217 -269c0 -35 22 -53 57 -53c70 0 100 71 98 159h246c-4 -166 -100 -289 -385 -289c-224 0 -302 64 -302 164c0 259 279 198 302 315
h206z" />
    <glyph glyph-name="periodcentered" unicode="&#xb7;" horiz-adv-x="338" 
d="M18 272c0 -55 48 -97 133 -97c100 0 179 60 179 135c0 53 -47 95 -134 95c-100 0 -178 -59 -178 -133z" />
    <glyph glyph-name="bullet" unicode="&#x2022;" horiz-adv-x="565" 
d="M36 291c0 175 132 306 311 306c134 0 215 -69 215 -188c0 -175 -132 -306 -311 -306c-134 0 -215 69 -215 188z" />
    <glyph glyph-name="asterisk" unicode="*" horiz-adv-x="371" 
d="M166 350l22 116l-108 -60l-25 63l115 56l-93 56l49 63l85 -60l23 116h72l-23 -116l109 60l25 -63l-115 -56l93 -56l-49 -63l-86 60l-22 -116h-72z" />
    <glyph glyph-name="numbersign" unicode="#" horiz-adv-x="901" 
d="M852 412h-150l-64 -124h149l-101 -198h-148l-46 -90h-125l46 90h-155l-46 -90h-125l46 90h-152l101 198h151l64 124h-150l101 198h149l46 90h125l-46 -90h155l46 90h125l-46 -90h151zM513 288l64 124h-155l-64 -124h155z" />
    <glyph glyph-name="slash" unicode="/" horiz-adv-x="728" 
d="M-37 0l563 700h272l-563 -700h-272z" />
    <glyph glyph-name="backslash" unicode="\" horiz-adv-x="730" 
d="M391 0l-291 700h272l291 -700h-272z" />
    <glyph glyph-name="exclamdown.case" horiz-adv-x="348" 
d="M396 623c0 55 -48 97 -133 97c-100 0 -179 -60 -179 -135c0 -53 47 -95 134 -95c100 0 178 59 178 133zM254 0h-262l97 450h242z" />
    <glyph glyph-name="questiondown.case" horiz-adv-x="704" 
d="M588 623c0 54 -46 97 -133 97c-100 0 -179 -60 -179 -135c0 -53 47 -95 134 -95c100 0 178 59 178 133zM500 432c-32 -172 -217 -113 -217 -269c0 -35 22 -53 57 -53c70 0 100 71 98 159h246c-4 -166 -100 -289 -385 -289c-224 0 -302 64 -302 164c0 259 279 198 302 315
h206z" />
    <glyph glyph-name="periodcentered.case" horiz-adv-x="339" 
d="M30 332c0 -55 48 -97 133 -97c100 0 179 60 179 135c0 53 -47 95 -134 95c-100 0 -178 -59 -178 -133z" />
    <glyph glyph-name="periodcentered.ss01" horiz-adv-x="272" 
d="M30 291l14 72l227 28l-14 -72z" />
    <glyph glyph-name="parenleft" unicode="(" horiz-adv-x="376" 
d="M95 -75c-46 83 -72 181 -72 288c0 212 102 418 237 562h215c-113 -153 -196 -417 -196 -632c0 -79 9 -155 31 -218h-215z" />
    <glyph glyph-name="parenright" unicode=")" horiz-adv-x="376" 
d="M-66 -75c114 153 196 421 196 632c0 79 -9 156 -31 218h215c46 -83 72 -180 72 -288c0 -213 -102 -418 -237 -562h-215z" />
    <glyph glyph-name="braceleft" unicode="{" horiz-adv-x="406" 
d="M9 284l26 132c70 0 85 29 97 91l4 20c34 172 141 248 300 248h58l-25 -132c-38 0 -62 -20 -72 -70l-16 -81c-19 -95 -80 -142 -158 -142c77 0 122 -47 103 -142l-16 -81c-9 -46 3 -70 45 -70l-26 -132h-58c-161 0 -238 76 -204 248l4 20c14 69 4 91 -62 91z" />
    <glyph glyph-name="braceright" unicode="}" horiz-adv-x="405" 
d="M-56 -75l26 132c38 0 61 20 71 70l16 81c19 95 81 142 159 142c-77 0 -123 47 -104 142l16 81c10 51 -7 70 -44 70l25 132h58c161 0 238 -76 204 -248l-4 -20c-12 -61 -10 -91 62 -91l-25 -132c-66 0 -84 -22 -98 -91l-4 -20c-34 -172 -140 -248 -300 -248h-58z" />
    <glyph glyph-name="bracketleft" unicode="[" horiz-adv-x="380" 
d="M-41 -75l165 850h344l-25 -132h-92l-114 -586h92l-26 -132h-344z" />
    <glyph glyph-name="bracketright" unicode="]" horiz-adv-x="379" 
d="M-56 -75l26 132h92l114 586h-92l25 132h344l-165 -850h-344z" />
    <glyph glyph-name="hyphen" unicode="-" horiz-adv-x="381" 
d="M43 382h340l-35 -182h-340z" />
    <glyph glyph-name="endash" unicode="&#x2013;" horiz-adv-x="501" 
d="M43 382h460l-35 -182h-460z" />
    <glyph glyph-name="emdash" unicode="&#x2014;" horiz-adv-x="1001" 
d="M43 382h960l-35 -182h-960z" />
    <glyph glyph-name="underscore" unicode="_" horiz-adv-x="750" 
d="M-35 -20h710l-33 -170h-710z" />
    <glyph glyph-name="hyphen.case" horiz-adv-x="380" 
d="M54 442h340l-35 -182h-340z" />
    <glyph glyph-name="endash.case" horiz-adv-x="500" 
d="M54 442h460l-35 -182h-460z" />
    <glyph glyph-name="emdash.case" horiz-adv-x="1000" 
d="M54 442h960l-35 -182h-960z" />
    <glyph glyph-name="quotesinglbase" unicode="&#x201a;" horiz-adv-x="277" 
d="M-78 -160c25 81 61 215 82 325h239c-21 -106 -72 -245 -113 -325h-208z" />
    <glyph glyph-name="quotedblbase" unicode="&#x201e;" horiz-adv-x="502" 
d="M-78 -160c25 81 61 215 82 325h214c-21 -106 -72 -245 -113 -325h-183zM172 -160c25 81 61 215 82 325h214c-21 -110 -72 -244 -113 -325h-183z" />
    <glyph glyph-name="quotedblleft" unicode="&#x201c;" horiz-adv-x="503" 
d="M340 765c-25 -81 -61 -215 -82 -325h-214c21 110 72 244 113 325h183zM590 765c-25 -81 -61 -215 -82 -325h-214c21 106 72 245 113 325h183z" />
    <glyph glyph-name="quotedblright" unicode="&#x201d;" horiz-adv-x="503" 
d="M44 440c25 81 61 215 82 325h214c-21 -106 -72 -245 -113 -325h-183zM294 440c25 81 61 215 82 325h214c-21 -110 -72 -244 -113 -325h-183z" />
    <glyph glyph-name="quoteleft" unicode="&#x2018;" horiz-adv-x="278" 
d="M365 765c-25 -81 -61 -215 -82 -325h-239c21 106 72 245 113 325h208z" />
    <glyph glyph-name="quoteright" unicode="&#x2019;" horiz-adv-x="278" 
d="M44 440c25 81 61 215 82 325h239c-21 -106 -72 -245 -113 -325h-208z" />
    <glyph glyph-name="guillemotleft" unicode="&#xab;" horiz-adv-x="635" 
d="M82 50l-62 215l146 215h215l-145 -215l61 -215h-215zM358 50l-62 215l146 215h215l-145 -215l61 -215h-215z" />
    <glyph glyph-name="guillemotright" unicode="&#xbb;" horiz-adv-x="635" 
d="M277 480l62 -215l-146 -215h-215l145 215l-61 215h215zM553 480l62 -215l-146 -215h-215l145 215l-61 215h215z" />
    <glyph glyph-name="guilsinglleft" unicode="&#x2039;" horiz-adv-x="397" 
d="M87 35l-67 230l157 230h245l-156 -230l66 -230h-245z" />
    <glyph glyph-name="guilsinglright" unicode="&#x203a;" horiz-adv-x="397" 
d="M310 495l67 -230l-157 -230h-245l156 230l-66 230h245z" />
    <glyph glyph-name="quotedbl" unicode="&#x22;" horiz-adv-x="540" 
d="M94 440l23 325h230l-103 -325h-150zM364 440l23 325h230l-103 -325h-150z" />
    <glyph glyph-name="quotesingle" unicode="'" horiz-adv-x="270" 
d="M94 440l23 325h230l-103 -325h-150z" />
    <glyph glyph-name="guillemotleft.case" horiz-adv-x="636" 
d="M99 135l-62 215l146 215h215l-145 -215l61 -215h-215zM375 135l-62 215l146 215h215l-145 -215l61 -215h-215z" />
    <glyph glyph-name="guillemotright.case" horiz-adv-x="634" 
d="M293 565l62 -215l-146 -215h-215l145 215l-61 215h215zM569 565l62 -215l-146 -215h-215l145 215l-61 215h215z" />
    <glyph glyph-name="guilsinglleft.case" horiz-adv-x="398" 
d="M104 120l-67 230l157 230h245l-156 -230l66 -230h-245z" />
    <glyph glyph-name="guilsinglright.case" horiz-adv-x="396" 
d="M326 580l67 -230l-157 -230h-245l156 230l-66 230h245z" />
    <glyph glyph-name="uni00A0" unicode="&#xa0;" horiz-adv-x="410" 
 />
    <glyph glyph-name="cent" unicode="&#xa2;" horiz-adv-x="755" 
d="M753 319h-261c13 63 -11 106 -68 106c-82 0 -142 -88 -142 -217c0 -73 27 -103 80 -103c58 0 97 43 109 106h261c-24 -125 -137 -204 -304 -225l-20 -106h-192l21 107c-145 23 -226 100 -226 219c0 178 131 306 334 337l21 107h192l-21 -106c159 -21 241 -100 216 -225z
" />
    <glyph glyph-name="currency" unicode="&#xa4;" horiz-adv-x="696" 
d="M52 296c0 76 34 156 87 210l-62 77l119 100l74 -92c45 17 96 26 146 26c51 0 97 -9 136 -26l110 92l81 -100l-92 -77c17 -30 26 -64 26 -102c0 -75 -34 -156 -87 -210l62 -77l-119 -100l-75 92c-45 -17 -95 -26 -146 -26c-50 0 -97 9 -136 26l-109 -92l-81 100l92 77
c-17 29 -26 64 -26 102zM228 314c0 -64 40 -102 109 -102c94 0 164 74 164 174c0 64 -40 102 -110 102c-93 0 -163 -74 -163 -174z" />
    <glyph glyph-name="dollar" unicode="$" horiz-adv-x="779" 
d="M787 485h-277c24 87 -8 115 -70 115c-58 0 -98 -28 -98 -71c0 -28 21 -49 91 -64c217 -46 327 -87 327 -197c0 -149 -117 -248 -318 -272l-20 -106h-192l20 103c-219 16 -270 95 -243 232h282c-25 -75 -14 -125 73 -125c61 0 105 30 105 73c0 30 -31 45 -80 57
c-187 47 -327 78 -327 207c0 144 121 244 328 268l21 105h192l-21 -105c199 -24 225 -127 207 -220z" />
    <glyph glyph-name="Euro" unicode="&#x20ac;" horiz-adv-x="905" 
d="M918 438h-276c19 101 -15 145 -88 145c-70 0 -129 -67 -162 -168h200l-25 -130h-199c-1 -16 -2 -33 -2 -50c0 -82 32 -118 97 -118c73 0 125 44 145 145h276c-35 -178 -208 -282 -457 -282c-208 0 -339 105 -339 286v19h-84l25 130h83c62 182 238 305 459 305
c250 0 381 -104 347 -282z" />
    <glyph glyph-name="florin" unicode="&#x192;" horiz-adv-x="603" 
d="M550 720c43 0 97 -5 118 -14l-26 -135c-13 2 -34 3 -47 3c-82 0 -110 -38 -117 -76l-16 -83h133l-25 -130h-134l-17 -88c-31 -157 -185 -217 -333 -217c-43 0 -97 5 -118 14l26 135c14 -2 34 -3 48 -3c81 0 109 38 116 76l16 83h-132l25 130h133l17 88
c31 157 185 217 333 217z" />
    <glyph glyph-name="sterling" unicode="&#xa3;" horiz-adv-x="805" 
d="M561 170c46 0 74 29 77 95h150c-21 -210 -144 -285 -294 -285c-166 0 -254 80 -311 80c-37 0 -53 -24 -60 -60h-160c17 67 52 121 99 160c38 33 92 62 128 97h-139l25 130h139c-47 31 -124 51 -124 121c0 116 157 212 404 212c229 0 319 -68 319 -167
c0 -53 -30 -117 -31 -119h-259c39 91 38 156 -40 156c-54 0 -97 -45 -97 -101c0 -42 31 -63 46 -102h153l-25 -130h-156c-11 -10 -26 -18 -44 -27c86 -17 149 -60 200 -60z" />
    <glyph glyph-name="yen" unicode="&#xa5;" horiz-adv-x="909" 
d="M989 700l-327 -397h154l-25 -130h-200l-34 -173h-302l34 173h-200l25 130h150l-174 397h366l87 -262l192 262h254z" />
    <glyph glyph-name="plus" unicode="+" horiz-adv-x="575" 
d="M587 432l-31 -162h-176l-34 -176h-182l34 176h-177l31 162h177l34 177h182l-34 -177h176z" />
    <glyph glyph-name="minus" unicode="&#x2212;" horiz-adv-x="575" 
d="M21 270l31 162h535l-31 -162h-535z" />
    <glyph glyph-name="multiply" unicode="&#xd7;" horiz-adv-x="554" 
d="M576 483l-165 -133l113 -132l-137 -114l-116 134l-167 -134l-93 114l164 132l-113 132l137 115l116 -135l168 135z" />
    <glyph glyph-name="divide" unicode="&#xf7;" horiz-adv-x="575" 
d="M205 519c0 71 62 119 156 119c73 0 117 -28 117 -79c0 -72 -64 -121 -156 -121c-74 0 -117 30 -117 81zM14 233l31 162h535l-31 -162h-535zM120 80c0 72 63 120 156 120c73 0 116 -29 116 -79c0 -72 -62 -121 -155 -121c-74 0 -117 29 -117 80z" />
    <glyph glyph-name="equal" unicode="=" horiz-adv-x="576" 
d="M41 368l31 162h535l-31 -162h-535zM-4 138l31 162h535l-31 -162h-535z" />
    <glyph glyph-name="notequal" unicode="&#x2260;" horiz-adv-x="575" 
d="M626 630l-80 -100h61l-32 -162h-160l-54 -68h201l-32 -162h-300l-80 -100h-174l79 100h-60l32 162h157l53 68h-197l32 162h294l79 100h181z" />
    <glyph glyph-name="greater" unicode="&#x3e;" horiz-adv-x="528" 
d="M537 415l-34 -173l-528 -215l38 197l296 104l-256 105l39 197z" />
    <glyph glyph-name="less" unicode="&#x3c;" horiz-adv-x="528" 
d="M16 242l34 173l528 215l-38 -197l-296 -104l256 -105l-39 -197z" />
    <glyph glyph-name="greaterequal" unicode="&#x2265;" horiz-adv-x="576" 
d="M604 514l-29 -148l-2 -10l-569 -176l36 187l289 70l-260 76l34 177zM-31 0l31 162h535l-31 -162h-535z" />
    <glyph glyph-name="lessequal" unicode="&#x2264;" horiz-adv-x="578" 
d="M638 690l-36 -187l-289 -70l260 -76l-34 -177l-501 176l29 148l2 10zM-29 0l31 162h535l-31 -162h-535z" />
    <glyph glyph-name="plusminus" unicode="&#xb1;" horiz-adv-x="576" 
d="M429 520h176l-31 -162h-177l-32 -166h-182l32 166h-176l31 162h177l32 167h182zM-31 0l31 162h535l-31 -162h-535z" />
    <glyph glyph-name="approxequal" unicode="&#x2248;" horiz-adv-x="612" 
d="M47 385c13 163 97 269 232 269c133 0 158 -118 209 -118c33 0 51 36 63 96h109c-14 -164 -97 -269 -232 -269c-133 0 -159 118 -210 118c-32 0 -51 -36 -62 -96h-109zM-15 68c14 163 96 269 232 269c133 0 158 -118 209 -118c34 0 51 36 63 96h109
c-14 -164 -96 -269 -231 -269c-133 0 -159 118 -210 118c-33 0 -51 -36 -63 -96h-109z" />
    <glyph glyph-name="asciitilde" unicode="~" horiz-adv-x="642" 
d="M16 225c14 172 102 283 244 283c140 0 167 -124 221 -124c35 0 53 38 66 101h115c-15 -172 -102 -283 -244 -283c-140 0 -167 124 -221 124c-35 0 -54 -38 -66 -101h-115z" />
    <glyph glyph-name="logicalnot" unicode="&#xac;" horiz-adv-x="576" 
d="M587 432l-4 -23l-60 -315h-182l34 176h-354l31 162h535z" />
    <glyph glyph-name="asciicircum" unicode="^" horiz-adv-x="559" 
d="M557 332h-183l-42 207l-121 -207h-183l258 388h163z" />
    <glyph glyph-name="emptyset" unicode="&#x2205;" horiz-adv-x="696" 
d="M743 583l-92 -77c17 -29 26 -63 26 -102c0 -180 -161 -321 -365 -321c-51 0 -97 9 -136 26l-109 -92l-81 100l92 77c-17 29 -26 63 -26 102c0 180 160 321 364 321c51 0 98 -9 136 -26l110 92zM217 312v-2l218 183c-13 3 -27 5 -42 5c-100 0 -176 -80 -176 -186zM511 388
v1l-217 -182c13 -3 27 -5 42 -5c99 0 175 80 175 186z" />
    <glyph glyph-name="infinity" unicode="&#x221e;" horiz-adv-x="734" 
d="M33 266c0 183 124 369 249 369c79 0 127 -73 129 -144c30 71 105 144 185 144c81 0 138 -80 138 -201c0 -183 -124 -369 -249 -369c-79 0 -127 73 -129 144c-30 -71 -105 -144 -185 -144c-81 0 -138 80 -138 201zM154 329c0 -42 28 -66 66 -66c53 0 97 50 97 109
c0 41 -27 65 -64 65c-53 0 -99 -49 -99 -108zM450 328c0 -41 27 -65 64 -65c53 0 99 49 99 108c0 42 -28 66 -66 66c-53 0 -97 -50 -97 -109z" />
    <glyph glyph-name="integral" unicode="&#x222b;" horiz-adv-x="593" 
d="M-37 -6l26 135c14 -2 34 -3 48 -3c81 0 109 38 116 76l59 301c31 157 185 217 333 217c43 0 97 -5 118 -14l-26 -135c-13 2 -34 3 -47 3c-82 0 -110 -38 -117 -76l-59 -301c-31 -157 -185 -217 -333 -217c-43 0 -97 5 -118 14z" />
    <glyph glyph-name="product" unicode="&#x220f;" horiz-adv-x="871" 
d="M-26 0l136 700h820l-136 -700h-302l105 539h-216l-105 -539h-302z" />
    <glyph glyph-name="summation" unicode="&#x2211;" horiz-adv-x="723" 
d="M-36 0l30 152l204 198l-127 198l29 152h692l-31 -162h-329l121 -188l-195 -188h329l-31 -162h-692z" />
    <glyph glyph-name="radical" unicode="&#x221a;" horiz-adv-x="922" 
d="M758 700h249l-392 -700h-385l-68 398h-131l26 132h406l32 -359z" />
    <glyph glyph-name="partialdiff" unicode="&#x2202;" horiz-adv-x="804" 
d="M2 176c0 145 141 257 324 257c89 0 129 -21 152 -43c-37 106 -148 205 -281 271l245 59c142 -47 341 -210 341 -402c0 -195 -191 -338 -449 -338c-213 0 -332 77 -332 196zM275 186c0 -49 31 -81 90 -81c78 0 134 58 134 136c0 50 -31 83 -91 83
c-76 0 -133 -60 -133 -138z" />
    <glyph glyph-name="uni00B5" unicode="&#xb5;" horiz-adv-x="760" 
d="M529 530h262l-103 -530h-262l17 85c-53 -48 -126 -94 -210 -103l-26 -132h-262l132 680h262l-55 -282c-11 -67 27 -99 74 -99c35 0 78 18 108 53z" />
    <glyph glyph-name="percent" unicode="%" horiz-adv-x="1003" 
d="M67 485c0 134 109 225 268 225c125 0 196 -52 196 -144c0 -134 -109 -226 -268 -226c-125 0 -196 53 -196 145zM48 0l752 700h186l-752 -700h-186zM234 467c0 -39 16 -52 44 -52c48 0 86 74 86 168c0 39 -15 52 -44 52c-48 0 -86 -74 -86 -168zM505 135
c0 134 109 225 268 225c125 0 196 -52 196 -144c0 -134 -109 -226 -268 -226c-125 0 -196 53 -196 145zM672 117c0 -38 15 -52 44 -52c48 0 86 74 86 168c0 39 -15 52 -44 52c-48 0 -86 -74 -86 -168z" />
    <glyph glyph-name="perthousand" unicode="&#x2030;" horiz-adv-x="1474" 
d="M67 485c0 134 109 225 268 225c125 0 196 -52 196 -144c0 -134 -109 -226 -268 -226c-125 0 -196 53 -196 145zM48 0l752 700h186l-752 -700h-186zM234 467c0 -39 16 -52 44 -52c48 0 86 74 86 168c0 39 -15 52 -44 52c-48 0 -86 -74 -86 -168zM505 135
c0 134 109 225 268 225c125 0 196 -52 196 -144c0 -134 -109 -226 -268 -226c-125 0 -196 53 -196 145zM976 135c0 134 109 225 268 225c125 0 196 -52 196 -144c0 -134 -109 -226 -268 -226c-125 0 -196 53 -196 145zM672 117c0 -38 15 -52 44 -52c48 0 86 74 86 168
c0 39 -15 52 -44 52c-48 0 -86 -74 -86 -168zM1143 117c0 -38 15 -52 44 -52c48 0 86 74 86 168c0 39 -15 52 -44 52c-48 0 -86 -74 -86 -168z" />
    <glyph glyph-name="arrowup" unicode="&#x2191;" horiz-adv-x="750" 
d="M192 0l72 367l-262 -219l43 222l418 350l282 -350l-43 -222l-176 219l-72 -367h-262z" />
    <glyph glyph-name="arrowright" unicode="&#x2192;" horiz-adv-x="770" 
d="M67 481h367l-176 219h222l282 -350l-418 -350h-222l262 219h-367z" />
    <glyph glyph-name="arrowdown" unicode="&#x2193;" horiz-adv-x="750" 
d="M591 700l-72 -367l262 219l-43 -222l-418 -350l-282 350l43 222l176 -219l72 367h262z" />
    <glyph glyph-name="arrowleft" unicode="&#x2190;" horiz-adv-x="771" 
d="M737 219h-367l176 -219h-222l-282 350l418 350h222l-262 -219h367z" />
    <glyph glyph-name="lozenge" unicode="&#x25ca;" horiz-adv-x="662" 
d="M524 700l140 -350l-276 -350h-216l-140 350l276 350h216zM314 173l134 177l-66 177l-134 -177z" />
    <glyph glyph-name="at" unicode="@" horiz-adv-x="957" 
d="M764 442l-46 -237c-5 -32 -5 -60 12 -60c24 0 59 120 59 200c0 136 -95 198 -248 198c-209 0 -355 -142 -355 -344c0 -134 93 -212 247 -212c125 0 228 31 307 72l-25 -128c-78 -37 -180 -66 -306 -66c-236 0 -401 117 -401 319c0 272 242 481 557 481
c237 0 393 -111 393 -287c0 -165 -127 -303 -281 -303c-93 0 -128 25 -146 70c-49 -50 -102 -70 -151 -70c-98 0 -157 58 -157 146c0 130 102 234 231 234c49 0 94 -20 123 -70l12 57h175zM468 175c51 0 89 51 89 121c0 38 -18 59 -54 59c-53 0 -91 -51 -91 -121
c0 -38 19 -59 56 -59z" />
    <glyph glyph-name="ampersand" unicode="&#x26;" horiz-adv-x="923" 
d="M904 360c-12 -60 -37 -114 -73 -162c22 -12 46 -26 71 -40l-139 -178c-43 24 -83 48 -121 70c-94 -45 -204 -70 -317 -70c-209 0 -341 51 -341 160c0 104 89 183 224 204c-54 54 -76 99 -76 145c0 112 130 231 383 231c193 0 278 -71 278 -160
c0 -104 -112 -188 -239 -198c26 -17 56 -35 91 -56c4 17 7 35 9 54h250zM489 600c-49 0 -88 -37 -88 -83c0 -25 15 -50 52 -83c61 22 99 64 99 113c0 34 -25 53 -63 53zM369 110c40 0 84 9 126 27c-76 46 -137 87 -187 123c-24 -24 -38 -52 -38 -82c0 -43 35 -68 99 -68z
" />
    <glyph glyph-name="paragraph" unicode="&#xb6;" horiz-adv-x="731" 
d="M251 0l44 233c-176 0 -245 85 -245 187c0 166 138 280 336 280h404l-136 -700h-161l103 538h-80l-104 -538h-161z" />
    <glyph glyph-name="section" unicode="&#xa7;" horiz-adv-x="722" 
d="M44 23l25 130c55 -32 151 -56 200 -56c30 0 64 2 64 30c0 21 -29 39 -111 67c-121 41 -186 88 -186 164c0 66 47 133 119 163c-11 17 -18 32 -18 52c0 107 125 172 326 172c166 0 243 -48 243 -48l-25 -130c-76 44 -149 58 -195 58c-36 0 -58 -12 -58 -31
c0 -22 37 -33 119 -65c114 -44 178 -88 178 -159c0 -72 -53 -126 -141 -162c26 -22 35 -44 35 -68c0 -103 -113 -170 -301 -170c-183 0 -274 53 -274 53zM476 275c16 9 30 22 30 39c0 20 -32 40 -61 56c-28 16 -147 68 -192 90c-8 -5 -24 -21 -24 -39c0 -29 32 -41 56 -53
c33 -17 136 -58 191 -93z" />
    <glyph glyph-name="copyright" unicode="&#xa9;" horiz-adv-x="953" 
d="M24 269c0 269 240 481 547 481c228 0 391 -117 391 -318c0 -271 -240 -482 -547 -482c-227 0 -391 117 -391 319zM192 284c0 -134 93 -212 247 -212c205 0 355 145 355 345c0 134 -93 211 -247 211c-205 0 -355 -146 -355 -344zM262 300c0 152 118 264 280 264
c131 0 207 -66 185 -177h-167c11 56 -1 83 -36 83c-44 0 -85 -88 -85 -183c0 -37 13 -57 38 -57c35 0 58 25 68 76h167c-21 -107 -122 -170 -253 -170c-122 0 -197 60 -197 164z" />
    <glyph glyph-name="registered" unicode="&#xae;" horiz-adv-x="554" 
d="M55 446c0 151 139 274 310 274c134 0 222 -74 222 -184c0 -151 -139 -274 -311 -274c-134 0 -221 74 -221 184zM156 454c0 -73 50 -116 135 -116c112 0 195 80 195 189c0 73 -50 117 -136 117c-112 0 -194 -81 -194 -190zM196 394l39 202h149c36 0 60 -17 60 -46
c0 -35 -29 -64 -77 -71c34 -2 65 -17 58 -56l-5 -29h-95l4 20c6 29 4 45 -21 45h-12l-12 -65h-88zM304 501h16c19 0 33 15 33 33c0 13 -9 20 -22 20h-16z" />
    <glyph glyph-name="trademark" unicode="&#x2122;" horiz-adv-x="806" 
d="M365 390l60 310h170l22 -176l98 176h155l-60 -310h-116l35 181l-104 -181h-113l-23 181l-35 -181h-89zM122 391l42 217h-92l18 91h308l-18 -91h-91l-42 -217h-125z" />
    <glyph glyph-name="degree" unicode="&#xb0;" horiz-adv-x="462" 
d="M62 482c0 135 111 238 256 238c111 0 183 -56 183 -152c0 -135 -111 -238 -259 -238c-107 0 -180 55 -180 152zM194 502c0 -39 24 -62 70 -62c62 0 105 44 105 108c0 40 -25 62 -72 62c-61 0 -103 -45 -103 -108z" />
    <glyph glyph-name="bar" unicode="|" horiz-adv-x="253" 
d="M-36 -50l156 800h202l-156 -800h-202z" />
    <glyph glyph-name="brokenbar" unicode="&#xa6;" horiz-adv-x="253" 
d="M59 438l61 312h202l-61 -312h-202zM-36 -50l61 312h202l-61 -312h-202z" />
    <glyph glyph-name="dagger" unicode="&#x2020;" horiz-adv-x="685" 
d="M148 0l73 326l-191 -7l41 210l188 -7l31 178h268l-39 -178l197 7l-41 -210l-194 7l-53 -326h-280z" />
    <glyph glyph-name="daggerdbl" unicode="&#x2021;" horiz-adv-x="685" 
d="M154 0l29 127l-193 -17l41 210l187 -17l18 94l-194 -17l41 210l187 -17l20 127h270l-30 -127l198 17l-41 -210l-191 17l-18 -94l198 17l-41 -210l-192 17l-19 -127h-270z" />
    <glyph glyph-name="at.case" horiz-adv-x="956" 
d="M780 527l-46 -237c-5 -32 -5 -60 12 -60c24 0 59 120 59 200c0 136 -95 198 -248 198c-209 0 -355 -142 -355 -344c0 -134 93 -212 247 -212c125 0 228 31 307 72l-25 -128c-78 -37 -180 -66 -306 -66c-236 0 -401 117 -401 319c0 272 242 481 557 481
c237 0 393 -111 393 -287c0 -165 -127 -303 -281 -303c-93 0 -128 25 -146 70c-49 -50 -102 -70 -151 -70c-98 0 -157 58 -157 146c0 130 102 234 231 234c49 0 94 -20 123 -70l12 57h175zM484 260c51 0 89 51 89 121c0 38 -18 59 -54 59c-53 0 -91 -51 -91 -121
c0 -38 19 -59 56 -59z" />
    <glyph glyph-name="ampersand.ss02" horiz-adv-x="780" 
d="M802 460h-265c25 79 9 140 -66 140c-64 0 -111 -48 -111 -114c0 -42 30 -66 81 -66h108l-28 -148h-108c-68 0 -115 -45 -115 -107c0 -41 29 -65 76 -65c69 0 112 48 119 131h265c-26 -130 -115 -223 -317 -246l-19 -95h-192l19 94c-160 16 -254 75 -254 164
c0 99 82 170 230 197c-99 24 -149 74 -149 142c0 120 124 207 315 228l18 95h192l-18 -95c192 -22 246 -116 219 -255z" />
    <glyph glyph-name="uni0308" unicode="&#x308;" 
d="M-535 653c0 75 62 127 151 127c77 0 110 -36 110 -83c0 -75 -63 -127 -151 -127c-78 0 -110 36 -110 83zM-229 653c0 75 62 127 151 127c77 0 110 -36 110 -83c0 -75 -63 -127 -151 -127c-78 0 -110 36 -110 83z" />
    <glyph glyph-name="uni0307" unicode="&#x307;" 
d="M-254 654c0 75 67 126 163 126c87 0 123 -37 123 -84c0 -75 -67 -126 -163 -126c-87 0 -123 37 -123 84z" />
    <glyph glyph-name="gravecomb" unicode="&#x300;" 
d="M-205 580l-123 190h286l53 -190h-216z" />
    <glyph glyph-name="acutecomb" unicode="&#x301;" 
d="M-365 580l127 190h286l-197 -190h-216z" />
    <glyph glyph-name="uni030B" unicode="&#x30b;" 
d="M-601 580l117 190h246l-187 -190h-176zM-315 580l117 190h246l-187 -190h-176z" />
    <glyph glyph-name="uni030C.alt" 
d="M-244 425l53 275h226l-123 -275h-156z" />
    <glyph glyph-name="uni0302" unicode="&#x302;" 
d="M-601 580l167 190h352l93 -190h-221l-64 106l-106 -106h-221z" />
    <glyph glyph-name="uni030C" unicode="&#x30c;" 
d="M-473 580l-91 190h221l63 -114l107 114h221l-165 -190h-356z" />
    <glyph glyph-name="uni0306" unicode="&#x306;" 
d="M-518 770h221c-21 -81 -3 -110 41 -110c45 0 72 29 83 110h221c-27 -137 -137 -200 -322 -200s-270 64 -244 200z" />
    <glyph glyph-name="uni030A" unicode="&#x30a;" 
d="M-406 671c0 85 95 139 243 139c125 0 197 -37 197 -101c0 -85 -95 -139 -243 -139c-126 0 -197 37 -197 101zM-236 677c0 -22 15 -33 41 -33c35 0 59 23 59 59c0 22 -15 33 -41 33c-36 0 -59 -23 -59 -59z" />
    <glyph glyph-name="tildecomb" unicode="&#x303;" 
d="M-375 580h-115l4 20c28 135 111 180 196 180c91 0 137 -54 173 -54c28 0 43 10 50 44h115c-28 -143 -102 -200 -200 -200c-81 0 -137 54 -173 54c-29 0 -43 -10 -50 -44z" />
    <glyph glyph-name="uni0304" unicode="&#x304;" 
d="M-422 590l30 155h435l-30 -155h-435z" />
    <glyph glyph-name="uni0326" unicode="&#x326;" 
d="M-422 -230l57 190h256l-127 -190h-186z" />
    <glyph glyph-name="uni0327" unicode="&#x327;" 
d="M-517 -220l41 98c127 -32 166 -25 166 -2c0 11 -14 18 -109 18l83 106h121l-29 -34c86 -6 119 -43 119 -80c0 -75 -89 -126 -218 -126c-49 0 -100 3 -174 20z" />
    <glyph glyph-name="uni0328" unicode="&#x328;" 
d="M-224 0h112c-39 -28 -65 -59 -65 -84c0 -20 21 -26 55 -19l-21 -108c-38 -20 -98 -29 -144 -29c-87 0 -143 29 -143 84c0 72 85 135 206 156z" />
    <glyph glyph-name="uni0326.alt" 
d="M-422 -230l57 190h256l-127 -190h-186z" />
    <glyph glyph-name="uni0327.alt" 
d="M-517 -220l41 98c127 -32 166 -25 166 -2c0 11 -14 18 -109 18l83 106h121l-29 -34c86 -6 119 -43 119 -80c0 -75 -89 -126 -218 -126c-49 0 -100 3 -174 20z" />
    <glyph glyph-name="uni0328.alt" 
d="M-224 0h112c-39 -28 -65 -59 -65 -84c0 -20 21 -26 55 -19l-21 -108c-38 -20 -98 -29 -144 -29c-87 0 -143 29 -143 84c0 72 85 135 206 156z" />
    <glyph glyph-name="uni0308.case" 
d="M-528 829c0 83 65 141 158 141c79 0 112 -40 112 -90c0 -81 -65 -140 -157 -140c-80 0 -113 39 -113 89zM-203 829c0 83 65 141 158 141c79 0 112 -40 112 -90c0 -81 -65 -140 -157 -140c-80 0 -113 39 -113 89z" />
    <glyph glyph-name="uni0307.case" 
d="M-240 832c0 82 72 138 176 138c92 0 131 -41 131 -93c0 -80 -73 -137 -176 -137c-92 0 -131 40 -131 92z" />
    <glyph glyph-name="gravecomb.case" 
d="M-192 750l-129 210h306l59 -210h-236z" />
    <glyph glyph-name="acutecomb.case" 
d="M-362 750l141 210h306l-211 -210h-236z" />
    <glyph glyph-name="uni030B.case" 
d="M-628 750l131 210h266l-201 -210h-196zM-312 750l131 210h266l-201 -210h-196z" />
    <glyph glyph-name="uni0302.case" 
d="M-596 750l185 210h352l103 -210h-221l-75 126l-123 -126h-221z" />
    <glyph glyph-name="uni030C.case" 
d="M-454 750l-101 210h221l73 -134l125 134h221l-183 -210h-356z" />
    <glyph glyph-name="uni0306.case" 
d="M-481 960h216c-23 -91 0 -120 44 -120c45 0 77 29 90 120h216c-31 -161 -147 -220 -326 -220c-185 0 -270 64 -240 220z" />
    <glyph glyph-name="uni030A.case" 
d="M-402 846c0 88 101 144 259 144c136 0 211 -39 211 -106c0 -88 -100 -144 -259 -144c-134 0 -211 39 -211 106zM-223 851c0 -24 17 -37 47 -37c38 0 64 26 64 65c0 24 -16 37 -44 37c-40 0 -67 -25 -67 -65z" />
    <glyph glyph-name="tildecomb.case" 
d="M-45 933h112c-27 -131 -105 -193 -199 -193c-81 0 -137 54 -173 54c-29 0 -43 -10 -50 -44h-120l3 15c26 134 110 195 199 195c91 0 142 -54 178 -54c28 0 43 27 50 27zM67 935l3 -2h-3v2z" />
    <glyph glyph-name="uni0304.case" 
d="M-427 770l32 165h475l-32 -165h-475z" />
    <glyph glyph-name="uni0308.ss01" 
d="M-555 621l14 72h262l-14 -72h-262zM-243 621l14 72h262l-14 -72h-262z" />
    <glyph glyph-name="uni0307.ss01" 
d="M-243 621l14 72h262l-14 -72h-262z" />
    <glyph glyph-name="gravecomb.ss01" 
d="M-425 648l14 72l439 -56l-14 -72z" />
    <glyph glyph-name="acutecomb.ss01" 
d="M-437 592l14 72l461 56l-14 -72z" />
    <glyph glyph-name="uni030B.ss01" 
d="M-749 592l14 72l367 56l-14 -72zM-343 592l14 72l367 56l-14 -72z" />
    <glyph glyph-name="uni030C.alt.ss01" 
d="M53 780l-93 -285h-72l90 285h75z" />
    <glyph glyph-name="uni0302.ss01" 
d="M-487 588l14 72l262 60l238 -60l-14 -72l-238 60z" />
    <glyph glyph-name="uni030C.ss01" 
d="M-462 720l238 -60l262 60l-14 -72l-262 -60l-238 60z" />
    <glyph glyph-name="uni0306.ss01" 
d="M-426 648l14 72c65 -40 144 -60 213 -60c68 0 156 20 237 60l-14 -72c-81 -40 -169 -60 -237 -60c-69 0 -148 20 -213 60z" />
    <glyph glyph-name="uni030A.ss01" 
d="M-452 647c0 59 110 103 258 103c140 0 221 -38 221 -86c0 -59 -110 -104 -258 -104c-140 0 -221 39 -221 87zM-379 654c0 -17 59 -32 160 -32c103 0 173 16 173 35c0 17 -59 31 -160 31c-104 0 -173 -15 -173 -34z" />
    <glyph glyph-name="tildecomb.ss01" 
d="M-481 618l13 66c63 29 109 36 150 36c90 0 138 -53 225 -53c33 0 75 9 128 33l-13 -66c-63 -29 -110 -36 -150 -36c-90 0 -138 53 -225 53c-34 0 -75 -9 -128 -33z" />
    <glyph glyph-name="uni0304.ss01" 
d="M-431 621l14 72h450l-14 -72h-450z" />
    <glyph glyph-name="uni0326.ss01" 
d="M-589 -190l14 72l461 56l-14 -72z" />
    <glyph glyph-name="uni0327.ss01" 
d="M-513 -198l14 70c52 -14 97 -20 126 -20c47 0 106 1 106 38c0 31 -51 35 -160 35l95 119h89l-62 -62c81 -5 123 -29 123 -77c0 -79 -79 -127 -210 -127c-72 0 -103 18 -121 24z" />
    <glyph glyph-name="uni0328.ss01" 
d="M-203 1c-25 0 -227 -40 -227 -109c0 -16 15 -37 128 -37c71 0 151 15 177 26l-14 -70c-38 -20 -142 -29 -177 -29c-103 0 -207 21 -207 98c0 124 254 182 212 121h108z" />
    <glyph glyph-name="uni0308.case.ss01" 
d="M-560 801l14 72h282l-14 -72h-282zM-228 801l14 72h282l-14 -72h-282z" />
    <glyph glyph-name="uni0307.case.ss01" 
d="M-248 801l14 72h302l-14 -72h-302z" />
    <glyph glyph-name="gravecomb.case.ss01" 
d="M-430 828l14 72l479 -56l-14 -72z" />
    <glyph glyph-name="acutecomb.case.ss01" 
d="M-442 772l14 72l501 56l-14 -72z" />
    <glyph glyph-name="uni030B.case.ss01" 
d="M-754 772l14 72l387 56l-14 -72zM-328 772l14 72l387 56l-14 -72z" />
    <glyph glyph-name="uni0302.case.ss01" 
d="M-492 768l14 72l282 60l258 -60l-14 -72l-258 60z" />
    <glyph glyph-name="uni030C.case.ss01" 
d="M-467 900l258 -60l282 60l-14 -72l-282 -60l-258 60z" />
    <glyph glyph-name="uni0306.case.ss01" 
d="M-431 828l14 72c71 -40 158 -60 233 -60c74 0 170 20 257 60l-14 -72c-87 -40 -183 -60 -257 -60c-75 0 -162 20 -233 60z" />
    <glyph glyph-name="uni030A.case.ss01" 
d="M-457 828c0 59 119 102 278 102c155 0 241 -39 241 -86c0 -60 -120 -104 -278 -104c-155 0 -241 40 -241 88zM-384 835c0 -18 67 -33 180 -33c116 0 193 16 193 35c0 17 -67 31 -180 31c-117 0 -193 -15 -193 -33z" />
    <glyph glyph-name="tildecomb.case.ss01" 
d="M-487 798l12 67c66 31 119 35 164 35c92 0 152 -53 241 -53c38 0 83 8 139 33l-13 -67c-63 -29 -113 -35 -156 -35c-97 0 -159 53 -252 53c-38 0 -81 -9 -135 -33z" />
    <glyph glyph-name="uni0304.case.ss01" 
d="M-436 801l14 72h490l-14 -72h-490z" />
    </font>
</defs>
</svg>
