<?xml version="1.0" standalone="no"?>
<!DOCTYPE svg PUBLIC "-//W3C//DTD SVG 1.1//EN" "http://www.w3.org/Graphics/SVG/1.1/DTD/svg11.dtd" >
<svg xmlns="http://www.w3.org/2000/svg" xmlns:xlink="http://www.w3.org/1999/xlink" version="1.1">
<metadata>
Created by FontForge 20190801 at Sun Oct 18 21:32:45 2020
 By Jimmy Wärting
Copyright (c) 2019 by Briefcase Type Foundry. All rights reserved.
</metadata>
<defs>
<font id="BCOrionSS01-Regular" horiz-adv-x="792" >
  <font-face 
    font-family="BC Orion SS01"
    font-weight="400"
    font-stretch="normal"
    units-per-em="1000"
    panose-1="0 0 5 0 0 0 0 0 0 0"
    ascent="800"
    descent="-200"
    x-height="530"
    cap-height="700"
    bbox="-852 -222 1453 930"
    underline-thickness="50"
    underline-position="-100"
    unicode-range="U+0020-FB02"
  />
<missing-glyph horiz-adv-x="760" 
 />
    <glyph glyph-name="f_f" unicode="ff" horiz-adv-x="1005" 
d="M840 498v-28h150v-132h-150v-338h-262v338h-191v-338h-262v338h-115v132h115v33q0 75 40.5 123.5t106 71t144.5 22.5q34 0 69.5 -4t51.5 -10v-135q-21 3 -48 3q-102 0 -102 -76v-28h191v33q0 75 40.5 123.5t106 71t144.5 22.5q34 0 69.5 -4t51.5 -10v-135q-21 3 -48 3
q-102 0 -102 -76z" />
    <glyph glyph-name="f_i" unicode="fi" horiz-adv-x="864" 
d="M602.5 600q-35.5 30 -35.5 76t35.5 75.5t105.5 29.5t105.5 -29.5t35.5 -75.5t-35.5 -76t-105.5 -30t-105.5 30zM165.5 626.5q40.5 48.5 106 71t144.5 22.5q34 0 69.5 -4t51.5 -10v-135q-21 3 -48 3q-102 0 -102 -76v-28h150v-132h-150v-338h-262v338h-115v132h115v33
q0 75 40.5 123.5zM839 530v-530h-262v530h262z" />
    <glyph glyph-name="fl" unicode="fl" horiz-adv-x="865" 
d="M10 470h115v33q0 217 367 217q182 0 348 -60v-660h-262v563q-42 11 -86 11q-59 0 -82 -21t-23 -55v-28h150v-132h-150v-338h-262v338h-115v132z" />
    <glyph glyph-name=".notdef" horiz-adv-x="760" 
 />
    <glyph glyph-name="nonmarkingreturn" horiz-adv-x="640" 
 />
    <glyph glyph-name="space" unicode=" " horiz-adv-x="410" 
 />
    <glyph glyph-name="A" unicode="A" horiz-adv-x="947" 
d="M299 144l-46 -144h-248l270 700h395l272 -700h-340l-48 144h-255zM424 539l-74 -233h151z" />
    <glyph glyph-name="Aacute" unicode="&#xc1;" horiz-adv-x="947" 
d="M299 144l-46 -144h-248l270 700h395l272 -700h-340l-48 144h-255zM424 539l-74 -233h151zM719 900v-72l-490 -56v72z" />
    <glyph glyph-name="Abreve" unicode="&#x102;" horiz-adv-x="947" 
d="M596 783.5q-65 -15.5 -122 -15.5q-59 0 -123 15.5t-122 44.5v72q58 -29 122 -44.5t123 -15.5q57 0 122 15.5t123 44.5v-72q-58 -29 -123 -44.5zM299 144l-46 -144h-248l270 700h395l272 -700h-340l-48 144h-255zM424 539l-74 -233h151z" />
    <glyph glyph-name="Acircumflex" unicode="&#xc2;" horiz-adv-x="947" 
d="M204 768v72l270 60l270 -60v-72l-270 60zM299 144l-46 -144h-248l270 700h395l272 -700h-340l-48 144h-255zM424 539l-74 -233h151z" />
    <glyph glyph-name="Adieresis" unicode="&#xc4;" horiz-adv-x="947" 
d="M167 801v72h282v-72h-282zM499 801v72h282v-72h-282zM299 144l-46 -144h-248l270 700h395l272 -700h-340l-48 144h-255zM424 539l-74 -233h151z" />
    <glyph glyph-name="Agrave" unicode="&#xc0;" horiz-adv-x="947" 
d="M229 828v72l490 -56v-72zM299 144l-46 -144h-248l270 700h395l272 -700h-340l-48 144h-255zM424 539l-74 -233h151z" />
    <glyph glyph-name="Amacron" unicode="&#x100;" horiz-adv-x="947" 
d="M229 801v72h490v-72h-490zM299 144l-46 -144h-248l270 700h395l272 -700h-340l-48 144h-255zM424 539l-74 -233h151z" />
    <glyph glyph-name="Aogonek" unicode="&#x104;" horiz-adv-x="947" 
d="M612.5 -132.5q25.5 -12.5 110.5 -12.5q50 0 101 8.5t71 17.5v-70q-23 -13 -80 -21t-92 -8q-97 0 -162 26.5t-65 88.5q0 33 31 61t74 46l-47 140h-255l-46 -144h-248l270 700h395l272 -700h-159q-31 -4 -77.5 -17.5t-82.5 -35.5t-36 -48q0 -19 25.5 -31.5zM424 539
l-74 -233h151z" />
    <glyph glyph-name="Aring" unicode="&#xc5;" horiz-adv-x="947" 
d="M336 753q-59 13 -90 35t-31 48t31 47.5t90 34t138 12.5t137.5 -12.5t89.5 -34t31 -47.5t-31 -48t-89.5 -35t-137.5 -13t-138 13zM338 858.5q-51 -9.5 -51 -22.5q0 -14 51 -24t136 -10t135.5 10t50.5 24q0 13 -50.5 22.5t-135.5 9.5t-136 -9.5zM299 144l-46 -144h-248
l270 700h395l272 -700h-340l-48 144h-255zM424 539l-74 -233h151z" />
    <glyph glyph-name="Atilde" unicode="&#xc3;" horiz-adv-x="947" 
d="M534 784.5q-29 6.5 -73 20.5q-41 13 -69 19.5t-59 6.5q-62 0 -129 -33v62q77 40 156 40q31 0 60 -7t68 -20q38 -13 66 -19.5t57 -6.5q66 0 133 33v-62q-79 -40 -149 -40q-32 0 -61 6.5zM299 144l-46 -144h-248l270 700h395l272 -700h-340l-48 144h-255zM424 539l-74 -233
h151z" />
    <glyph glyph-name="AE" unicode="&#xc6;" horiz-adv-x="1279" 
d="M869 431h390v-162h-390v-107h390v-162h-692v144h-234l-85 -144h-248l427 700h832v-162h-390v-107zM567 539l-138 -233h138v233z" />
    <glyph glyph-name="B" unicode="B" horiz-adv-x="863" 
d="M738.5 656.5q68.5 -43.5 68.5 -125.5q0 -67 -48 -105t-127 -52q90 -11 155.5 -54t65.5 -130q0 -190 -342 -190h-486v700h529q116 0 184.5 -43.5zM499 495q0 78 -93 78h-79v-155h79q93 0 93 77zM530 209q0 82 -102 82h-101v-164h101q102 0 102 82z" />
    <glyph glyph-name="C" unicode="C" horiz-adv-x="919" 
d="M67.5 549q52.5 83 152 127t237.5 44q215 0 328.5 -73.5t113.5 -208.5h-316q0 145 -116 145q-68 0 -98.5 -54.5t-30.5 -178.5t30.5 -178.5t98.5 -54.5q116 0 116 145h316q0 -135 -113.5 -208.5t-328.5 -73.5q-138 0 -237.5 44t-152 127t-52.5 199t52.5 199z" />
    <glyph glyph-name="Cacute" unicode="&#x106;" horiz-adv-x="919" 
d="M705 900v-72l-490 -56v72zM67.5 549q52.5 83 152 127t237.5 44q215 0 328.5 -73.5t113.5 -208.5h-316q0 145 -116 145q-68 0 -98.5 -54.5t-30.5 -178.5t30.5 -178.5t98.5 -54.5q116 0 116 145h316q0 -135 -113.5 -208.5t-328.5 -73.5q-138 0 -237.5 44t-152 127
t-52.5 199t52.5 199z" />
    <glyph glyph-name="Ccaron" unicode="&#x10c;" horiz-adv-x="919" 
d="M730 900v-72l-270 -60l-270 60v72l270 -60zM67.5 549q52.5 83 152 127t237.5 44q215 0 328.5 -73.5t113.5 -208.5h-316q0 145 -116 145q-68 0 -98.5 -54.5t-30.5 -178.5t30.5 -178.5t98.5 -54.5q116 0 116 145h316q0 -135 -113.5 -208.5t-328.5 -73.5q-138 0 -237.5 44
t-152 127t-52.5 199t52.5 199z" />
    <glyph glyph-name="Ccedilla" unicode="&#xc7;" horiz-adv-x="919" 
d="M583 262h316q0 -128 -102.5 -201t-297.5 -80q64 -5 95 -28.5t31 -67.5q0 -54 -51 -80.5t-136 -26.5q-39 0 -65 5.5t-41 11t-20 7.5v70q79 -20 130 -20q45 0 72 5.5t27 26.5q0 18 -17.5 27t-51.5 11.5t-98 2.5l34 56q-186 12 -289.5 108.5t-103.5 260.5q0 116 52.5 199
t152 127t237.5 44q215 0 328.5 -73.5t113.5 -208.5h-316q0 145 -116 145q-68 0 -98.5 -54.5t-30.5 -178.5t30.5 -178.5t98.5 -54.5q116 0 116 145z" />
    <glyph glyph-name="Ccircumflex" unicode="&#x108;" horiz-adv-x="919" 
d="M460 900l270 -60v-72l-270 60l-270 -60v72zM67.5 549q52.5 83 152 127t237.5 44q215 0 328.5 -73.5t113.5 -208.5h-316q0 145 -116 145q-68 0 -98.5 -54.5t-30.5 -178.5t30.5 -178.5t98.5 -54.5q116 0 116 145h316q0 -135 -113.5 -208.5t-328.5 -73.5q-138 0 -237.5 44
t-152 127t-52.5 199t52.5 199z" />
    <glyph glyph-name="Cdotaccent" unicode="&#x10a;" horiz-adv-x="919" 
d="M611 873v-72h-302v72h302zM67.5 549q52.5 83 152 127t237.5 44q215 0 328.5 -73.5t113.5 -208.5h-316q0 145 -116 145q-68 0 -98.5 -54.5t-30.5 -178.5t30.5 -178.5t98.5 -54.5q116 0 116 145h316q0 -135 -113.5 -208.5t-328.5 -73.5q-138 0 -237.5 44t-152 127
t-52.5 199t52.5 199z" />
    <glyph glyph-name="D" unicode="D" horiz-adv-x="906" 
d="M778.5 613q112.5 -87 112.5 -263t-112.5 -263t-339.5 -87h-414v700h414q227 0 339.5 -87zM527.5 180.5q40.5 53.5 40.5 169.5t-40.5 169.5t-128.5 53.5h-72v-446h72q88 0 128.5 53.5z" />
    <glyph glyph-name="Eth" unicode="&#xd0;" horiz-adv-x="966" 
d="M833.5 613q112.5 -87 112.5 -263t-112.5 -263t-339.5 -87h-414v315h-80v72h80v313h414q227 0 339.5 -87zM582.5 180.5q40.5 53.5 40.5 169.5t-40.5 169.5t-128.5 53.5h-72v-186h110v-72h-110v-188h72q88 0 128.5 53.5z" />
    <glyph glyph-name="Dcaron" unicode="&#x10e;" horiz-adv-x="906" 
d="M683 900v-72l-270 -60l-270 60v72l270 -60zM778.5 613q112.5 -87 112.5 -263t-112.5 -263t-339.5 -87h-414v700h414q227 0 339.5 -87zM527.5 180.5q40.5 53.5 40.5 169.5t-40.5 169.5t-128.5 53.5h-72v-446h72q88 0 128.5 53.5z" />
    <glyph glyph-name="Dcroat" unicode="&#x110;" horiz-adv-x="966" 
d="M833.5 613q112.5 -87 112.5 -263t-112.5 -263t-339.5 -87h-414v315h-80v72h80v313h414q227 0 339.5 -87zM582.5 180.5q40.5 53.5 40.5 169.5t-40.5 169.5t-128.5 53.5h-72v-186h110v-72h-110v-188h72q88 0 128.5 53.5z" />
    <glyph glyph-name="E" unicode="E" horiz-adv-x="737" 
d="M717 700v-162h-390v-107h390v-162h-390v-107h390v-162h-692v700h692z" />
    <glyph glyph-name="Eacute" unicode="&#xc9;" horiz-adv-x="737" 
d="M611 900v-72l-490 -56v72zM717 700v-162h-390v-107h390v-162h-390v-107h390v-162h-692v700h692z" />
    <glyph glyph-name="Ebreve" unicode="&#x114;" horiz-adv-x="737" 
d="M243 855.5q64 -15.5 123 -15.5q57 0 122 15.5t123 44.5v-72q-58 -29 -123 -44.5t-122 -15.5q-59 0 -123 15.5t-122 44.5v72q58 -29 122 -44.5zM717 700v-162h-390v-107h390v-162h-390v-107h390v-162h-692v700h692z" />
    <glyph glyph-name="Ecaron" unicode="&#x11a;" horiz-adv-x="737" 
d="M636 900v-72l-270 -60l-270 60v72l270 -60zM717 700v-162h-390v-107h390v-162h-390v-107h390v-162h-692v700h692z" />
    <glyph glyph-name="Ecircumflex" unicode="&#xca;" horiz-adv-x="737" 
d="M366 900l270 -60v-72l-270 60l-270 -60v72zM717 700v-162h-390v-107h390v-162h-390v-107h390v-162h-692v700h692z" />
    <glyph glyph-name="Edieresis" unicode="&#xcb;" horiz-adv-x="737" 
d="M341 873v-72h-282v72h282zM673 873v-72h-282v72h282zM717 700v-162h-390v-107h390v-162h-390v-107h390v-162h-692v700h692z" />
    <glyph glyph-name="Edotaccent" unicode="&#x116;" horiz-adv-x="737" 
d="M517 873v-72h-302v72h302zM717 700v-162h-390v-107h390v-162h-390v-107h390v-162h-692v700h692z" />
    <glyph glyph-name="Egrave" unicode="&#xc8;" horiz-adv-x="737" 
d="M611 844v-72l-490 56v72zM717 700v-162h-390v-107h390v-162h-390v-107h390v-162h-692v700h692z" />
    <glyph glyph-name="Emacron" unicode="&#x112;" horiz-adv-x="737" 
d="M611 873v-72h-490v72h490zM717 700v-162h-390v-107h390v-162h-390v-107h390v-162h-692v700h692z" />
    <glyph glyph-name="Eogonek" unicode="&#x118;" horiz-adv-x="737" 
d="M717 431v-162h-390v-107h390v-162h-112q-31 -4 -77.5 -17.5t-82.5 -35.5t-36 -48q0 -19 25.5 -31.5t110.5 -12.5q50 0 101 8.5t71 17.5v-70q-23 -13 -80 -21t-92 -8q-97 0 -162 26.5t-65 88.5q0 31 27.5 58t68.5 45h-389v700h692v-162h-390v-107h390z" />
    <glyph glyph-name="F" unicode="F" horiz-adv-x="737" 
d="M717 700v-162h-390v-136h390v-162h-390v-240h-302v700h692z" />
    <glyph glyph-name="G" unicode="G" horiz-adv-x="924" 
d="M899 87q-98 -51 -207 -79t-235 -28q-138 0 -237.5 44t-152 127t-52.5 199t52.5 199t152 127t237.5 44q214 0 328 -72t114 -200h-316q0 62 -28.5 98.5t-82.5 36.5q-71 0 -102.5 -54.5t-31.5 -178.5q0 -91 15 -145t47 -78.5t86 -24.5q30 0 62.5 6.5t53.5 17.5v103h-143v142
h440v-284z" />
    <glyph glyph-name="Gbreve" unicode="&#x11e;" horiz-adv-x="924" 
d="M584 783.5q-65 -15.5 -122 -15.5q-59 0 -123 15.5t-122 44.5v72q58 -29 122 -44.5t123 -15.5q57 0 122 15.5t123 44.5v-72q-58 -29 -123 -44.5zM899 87q-98 -51 -207 -79t-235 -28q-138 0 -237.5 44t-152 127t-52.5 199t52.5 199t152 127t237.5 44q214 0 328 -72
t114 -200h-316q0 62 -28.5 98.5t-82.5 36.5q-71 0 -102.5 -54.5t-31.5 -178.5q0 -91 15 -145t47 -78.5t86 -24.5q30 0 62.5 6.5t53.5 17.5v103h-143v142h440v-284z" />
    <glyph glyph-name="Gcircumflex" unicode="&#x11c;" horiz-adv-x="924" 
d="M192 768v72l270 60l270 -60v-72l-270 60zM899 87q-98 -51 -207 -79t-235 -28q-138 0 -237.5 44t-152 127t-52.5 199t52.5 199t152 127t237.5 44q214 0 328 -72t114 -200h-316q0 62 -28.5 98.5t-82.5 36.5q-71 0 -102.5 -54.5t-31.5 -178.5q0 -91 15 -145t47 -78.5
t86 -24.5q30 0 62.5 6.5t53.5 17.5v103h-143v142h440v-284z" />
    <glyph glyph-name="uni0122" unicode="&#x122;" horiz-adv-x="924" 
d="M899 87q-98 -51 -207 -79t-235 -28q-138 0 -237.5 44t-152 127t-52.5 199t52.5 199t152 127t237.5 44q214 0 328 -72t114 -200h-316q0 62 -28.5 98.5t-82.5 36.5q-71 0 -102.5 -54.5t-31.5 -178.5q0 -91 15 -145t47 -78.5t86 -24.5q30 0 62.5 6.5t53.5 17.5v103h-143v142
h440v-284zM627 -62v-72l-450 -56v72z" />
    <glyph glyph-name="Gdotaccent" unicode="&#x120;" horiz-adv-x="924" 
d="M311 801v72h302v-72h-302zM899 87q-98 -51 -207 -79t-235 -28q-138 0 -237.5 44t-152 127t-52.5 199t52.5 199t152 127t237.5 44q214 0 328 -72t114 -200h-316q0 62 -28.5 98.5t-82.5 36.5q-71 0 -102.5 -54.5t-31.5 -178.5q0 -91 15 -145t47 -78.5t86 -24.5
q30 0 62.5 6.5t53.5 17.5v103h-143v142h440v-284z" />
    <glyph glyph-name="H" unicode="H" horiz-adv-x="870" 
d="M327 700v-269h216v269h302v-700h-302v269h-216v-269h-302v700h302z" />
    <glyph glyph-name="Hbar" unicode="&#x126;" horiz-adv-x="1000" 
d="M910 531v-531h-302v269h-216v-269h-302v531h-80v72h80v97h302v-97h216v97h302v-97h80v-72h-80zM392 531v-100h216v100h-216z" />
    <glyph glyph-name="Hcircumflex" unicode="&#x124;" horiz-adv-x="870" 
d="M435 900l270 -60v-72l-270 60l-270 -60v72zM327 700v-269h216v269h302v-700h-302v269h-216v-269h-302v700h302z" />
    <glyph glyph-name="I" unicode="I" horiz-adv-x="352" 
d="M327 700v-700h-302v700h302z" />
    <glyph glyph-name="IJ" unicode="&#x132;" horiz-adv-x="1136" 
d="M327 700v-700h-302v700h302zM675.5 130.5q16.5 -25.5 58.5 -25.5t58.5 25.5t16.5 85.5v484h302v-413q0 -151 -94 -229t-296 -78q-143 0 -220 33.5t-105.5 94.5t-28.5 157v48h292v-97q0 -60 16.5 -85.5z" />
    <glyph glyph-name="Iacute" unicode="&#xcd;" horiz-adv-x="352" 
d="M421 900v-72l-490 -56v72zM327 700v-700h-302v700h302z" />
    <glyph glyph-name="Ibreve" unicode="&#x12c;" horiz-adv-x="352" 
d="M53 855.5q64 -15.5 123 -15.5q57 0 122 15.5t123 44.5v-72q-58 -29 -123 -44.5t-122 -15.5q-59 0 -123 15.5t-122 44.5v72q58 -29 122 -44.5zM327 700v-700h-302v700h302z" />
    <glyph glyph-name="Icircumflex" unicode="&#xce;" horiz-adv-x="352" 
d="M176 900l270 -60v-72l-270 60l-270 -60v72zM327 700v-700h-302v700h302z" />
    <glyph glyph-name="Idieresis" unicode="&#xcf;" horiz-adv-x="352" 
d="M151 873v-72h-282v72h282zM483 873v-72h-282v72h282zM327 700v-700h-302v700h302z" />
    <glyph glyph-name="Idotaccent" unicode="&#x130;" horiz-adv-x="352" 
d="M327 873v-72h-302v72h302zM327 700v-700h-302v700h302z" />
    <glyph glyph-name="Igrave" unicode="&#xcc;" horiz-adv-x="352" 
d="M421 844v-72l-490 56v72zM327 700v-700h-302v700h302z" />
    <glyph glyph-name="Imacron" unicode="&#x12a;" horiz-adv-x="352" 
d="M421 873v-72h-490v72h490zM327 700v-700h-302v700h302z" />
    <glyph glyph-name="Iogonek" unicode="&#x12e;" horiz-adv-x="352" 
d="M137.5 -17.5q-46.5 -13.5 -82.5 -35.5t-36 -48q0 -19 25.5 -31.5t110.5 -12.5q50 0 101 8.5t71 17.5v-70q-23 -13 -80 -21t-92 -8q-97 0 -162 26.5t-65 88.5q0 31 28 58t69 46v699h302v-700h-112q-31 -4 -77.5 -17.5z" />
    <glyph glyph-name="Itilde" unicode="&#x128;" horiz-adv-x="352" 
d="M62 900q31 0 60 -7t68 -20q38 -13 66 -19.5t57 -6.5q66 0 133 33v-62q-79 -40 -149 -40q-32 0 -61 6.5t-73 20.5q-41 13 -69 19.5t-59 6.5q-62 0 -129 -33v62q77 40 156 40zM327 700v-700h-302v700h302z" />
    <glyph glyph-name="J" unicode="J" horiz-adv-x="784" 
d="M323.5 130.5q16.5 -25.5 58.5 -25.5t58.5 25.5t16.5 85.5v484h302v-413q0 -151 -94 -229t-296 -78q-143 0 -220 33.5t-105.5 94.5t-28.5 157v48h292v-97q0 -60 16.5 -85.5z" />
    <glyph glyph-name="Jcircumflex" unicode="&#x134;" horiz-adv-x="784" 
d="M392 900l270 -60v-72l-270 60l-270 -60v72zM323.5 130.5q16.5 -25.5 58.5 -25.5t58.5 25.5t16.5 85.5v484h302v-413q0 -151 -94 -229t-296 -78q-143 0 -220 33.5t-105.5 94.5t-28.5 157v48h292v-97q0 -60 16.5 -85.5z" />
    <glyph glyph-name="K" unicode="K" horiz-adv-x="917" 
d="M327 291v-291h-302v700h302v-289l218 289h357l-264 -330l274 -370h-357z" />
    <glyph glyph-name="uni0136" unicode="&#x136;" horiz-adv-x="917" 
d="M25 0v700h302v-289l218 289h357l-264 -330l274 -370h-357l-228 291v-291h-302zM616 -62v-72l-450 -56v72z" />
    <glyph glyph-name="L" unicode="L" horiz-adv-x="672" 
d="M327 700v-528h330v-172h-632v700h302z" />
    <glyph glyph-name="Lacute" unicode="&#x139;" horiz-adv-x="672" 
d="M581 900v-72l-490 -56v72zM327 700v-528h330v-172h-632v700h302z" />
    <glyph glyph-name="Lcaron" unicode="&#x13d;" horiz-adv-x="672" 
d="M397 495l35 285h75l-38 -285h-72zM327 700v-528h330v-172h-632v700h302z" />
    <glyph glyph-name="uni013B" unicode="&#x13b;" horiz-adv-x="672" 
d="M327 700v-528h330v-172h-632v700h302zM566 -62v-72l-450 -56v72z" />
    <glyph glyph-name="Ldot" unicode="&#x13f;" horiz-adv-x="672" 
d="M327 700v-528h330v-172h-632v700h302zM599 391v-72l-222 -28v72z" />
    <glyph glyph-name="Lslash" unicode="&#x141;" horiz-adv-x="752" 
d="M732 0h-632v184l-80 -37v72l80 37v444h302v-306l233 107v-72l-233 -107v-150h330v-172z" />
    <glyph glyph-name="M" unicode="M" horiz-adv-x="1094" 
d="M399 700l154 -382l156 382h360v-700h-282v407l-169 -407h-231l-165 407v-407h-197v700h374z" />
    <glyph glyph-name="N" unicode="N" horiz-adv-x="853" 
d="M364 700l267 -407v407h197v-700h-347l-259 376v-376h-197v700h339z" />
    <glyph glyph-name="Nacute" unicode="&#x143;" horiz-adv-x="853" 
d="M672 900v-72l-490 -56v72zM364 700l267 -407v407h197v-700h-347l-259 376v-376h-197v700h339z" />
    <glyph glyph-name="Ncaron" unicode="&#x147;" horiz-adv-x="853" 
d="M697 900v-72l-270 -60l-270 60v72l270 -60zM364 700l267 -407v407h197v-700h-347l-259 376v-376h-197v700h339z" />
    <glyph glyph-name="uni0145" unicode="&#x145;" horiz-adv-x="853" 
d="M364 700l267 -407v407h197v-700h-347l-259 376v-376h-197v700h339zM592 -62v-72l-450 -56v72z" />
    <glyph glyph-name="Eng" unicode="&#x14a;" horiz-adv-x="853" 
d="M631 293v407h197v-660q0 -55 -18.5 -104t-46.5 -86h-222q25 45 25 120v30h-85l-259 376v-376h-197v700h339z" />
    <glyph glyph-name="Ntilde" unicode="&#xd1;" horiz-adv-x="853" 
d="M313 900q31 0 60 -7t68 -20q38 -13 66 -19.5t57 -6.5q66 0 133 33v-62q-79 -40 -149 -40q-32 0 -61 6.5t-73 20.5q-41 13 -69 19.5t-59 6.5q-62 0 -129 -33v62q77 40 156 40zM364 700l267 -407v407h197v-700h-347l-259 376v-376h-197v700h339z" />
    <glyph glyph-name="O" unicode="O" horiz-adv-x="974" 
d="M137 623q122 97 350 97t350 -97t122 -273t-122 -273t-350 -97t-350 97t-122 273t122 273zM372.5 171.5q34.5 -54.5 114.5 -54.5t114.5 54.5t34.5 178.5t-34.5 178.5t-114.5 54.5t-114.5 -54.5t-34.5 -178.5t34.5 -178.5z" />
    <glyph glyph-name="Oacute" unicode="&#xd3;" horiz-adv-x="974" 
d="M732 900v-72l-490 -56v72zM137 623q122 97 350 97t350 -97t122 -273t-122 -273t-350 -97t-350 97t-122 273t122 273zM372.5 171.5q34.5 -54.5 114.5 -54.5t114.5 54.5t34.5 178.5t-34.5 178.5t-114.5 54.5t-114.5 -54.5t-34.5 -178.5t34.5 -178.5z" />
    <glyph glyph-name="Obreve" unicode="&#x14e;" horiz-adv-x="974" 
d="M364 855.5q64 -15.5 123 -15.5q57 0 122 15.5t123 44.5v-72q-58 -29 -123 -44.5t-122 -15.5q-59 0 -123 15.5t-122 44.5v72q58 -29 122 -44.5zM137 623q122 97 350 97t350 -97t122 -273t-122 -273t-350 -97t-350 97t-122 273t122 273zM372.5 171.5
q34.5 -54.5 114.5 -54.5t114.5 54.5t34.5 178.5t-34.5 178.5t-114.5 54.5t-114.5 -54.5t-34.5 -178.5t34.5 -178.5z" />
    <glyph glyph-name="Ocircumflex" unicode="&#xd4;" horiz-adv-x="974" 
d="M487 900l270 -60v-72l-270 60l-270 -60v72zM137 623q122 97 350 97t350 -97t122 -273t-122 -273t-350 -97t-350 97t-122 273t122 273zM372.5 171.5q34.5 -54.5 114.5 -54.5t114.5 54.5t34.5 178.5t-34.5 178.5t-114.5 54.5t-114.5 -54.5t-34.5 -178.5t34.5 -178.5z" />
    <glyph glyph-name="Odieresis" unicode="&#xd6;" horiz-adv-x="974" 
d="M462 873v-72h-282v72h282zM794 873v-72h-282v72h282zM137 623q122 97 350 97t350 -97t122 -273t-122 -273t-350 -97t-350 97t-122 273t122 273zM372.5 171.5q34.5 -54.5 114.5 -54.5t114.5 54.5t34.5 178.5t-34.5 178.5t-114.5 54.5t-114.5 -54.5t-34.5 -178.5
t34.5 -178.5z" />
    <glyph glyph-name="Ograve" unicode="&#xd2;" horiz-adv-x="974" 
d="M732 844v-72l-490 56v72zM137 623q122 97 350 97t350 -97t122 -273t-122 -273t-350 -97t-350 97t-122 273t122 273zM372.5 171.5q34.5 -54.5 114.5 -54.5t114.5 54.5t34.5 178.5t-34.5 178.5t-114.5 54.5t-114.5 -54.5t-34.5 -178.5t34.5 -178.5z" />
    <glyph glyph-name="Ohungarumlaut" unicode="&#x150;" horiz-adv-x="974" 
d="M462 900v-72l-376 -56v72zM888 900v-72l-376 -56v72zM137 623q122 97 350 97t350 -97t122 -273t-122 -273t-350 -97t-350 97t-122 273t122 273zM372.5 171.5q34.5 -54.5 114.5 -54.5t114.5 54.5t34.5 178.5t-34.5 178.5t-114.5 54.5t-114.5 -54.5t-34.5 -178.5
t34.5 -178.5z" />
    <glyph glyph-name="Omacron" unicode="&#x14c;" horiz-adv-x="974" 
d="M732 873v-72h-490v72h490zM137 623q122 97 350 97t350 -97t122 -273t-122 -273t-350 -97t-350 97t-122 273t122 273zM372.5 171.5q34.5 -54.5 114.5 -54.5t114.5 54.5t34.5 178.5t-34.5 178.5t-114.5 54.5t-114.5 -54.5t-34.5 -178.5t34.5 -178.5z" />
    <glyph glyph-name="Oslash" unicode="&#xd8;" horiz-adv-x="974" 
d="M910 540.5q49 -80.5 49 -190.5q0 -176 -122 -273t-350 -97q-119 0 -208 27l-57 -77h-83l74 101q-97 44 -147.5 125t-50.5 194q0 176 122 273t350 97q120 0 215 -28l58 78h83l-76 -103q94 -46 143 -126.5zM352 219l239 323q-34 41 -104 41q-80 0 -114.5 -54.5
t-34.5 -178.5q0 -78 14 -131zM601.5 171.5q34.5 54.5 34.5 178.5q0 75 -12 124l-237 -321q35 -36 100 -36q80 0 114.5 54.5z" />
    <glyph glyph-name="Otilde" unicode="&#xd5;" horiz-adv-x="974" 
d="M373 900q31 0 60 -7t68 -20q38 -13 66 -19.5t57 -6.5q66 0 133 33v-62q-79 -40 -149 -40q-32 0 -61 6.5t-73 20.5q-41 13 -69 19.5t-59 6.5q-62 0 -129 -33v62q77 40 156 40zM137 623q122 97 350 97t350 -97t122 -273t-122 -273t-350 -97t-350 97t-122 273t122 273z
M372.5 171.5q34.5 -54.5 114.5 -54.5t114.5 54.5t34.5 178.5t-34.5 178.5t-114.5 54.5t-114.5 -54.5t-34.5 -178.5t34.5 -178.5z" />
    <glyph glyph-name="OE" unicode="&#x152;" horiz-adv-x="1348" 
d="M1328 431v-162h-390v-107h390v-162h-657q-83 -20 -184 -20q-228 0 -350 97t-122 273t122 273t350 97q101 0 184 -20h657v-162h-390v-107h390zM601.5 171.5q34.5 54.5 34.5 178.5t-34.5 178.5t-114.5 54.5t-114.5 -54.5t-34.5 -178.5t34.5 -178.5t114.5 -54.5t114.5 54.5z
" />
    <glyph glyph-name="P" unicode="P" horiz-adv-x="849" 
d="M759.5 636.5q74.5 -63.5 74.5 -174.5q0 -110 -77.5 -174.5t-238.5 -64.5h-191v-223h-302v700h493q167 0 241.5 -63.5zM522 462q0 48 -34 69.5t-102 21.5h-59v-183h59q136 0 136 92z" />
    <glyph glyph-name="Thorn" unicode="&#xde;" horiz-adv-x="849" 
d="M327 589h191q167 0 241.5 -63.5t74.5 -174.5q0 -110 -77.5 -174.5t-238.5 -64.5h-191v-123h-302v700h302v-100zM522 351q0 48 -34 69.5t-102 21.5h-59v-183h59q136 0 136 92z" />
    <glyph glyph-name="Q" unicode="Q" horiz-adv-x="974" 
d="M918.5 173q-40.5 -76 -119.5 -122l139 -141l-173 -100l-232 171q-15 -1 -46 -1q-228 0 -350 97t-122 273t122 273t350 97t350 -97t122 -273q0 -101 -40.5 -177zM372.5 171.5q34.5 -54.5 114.5 -54.5t114.5 54.5t34.5 178.5t-34.5 178.5t-114.5 54.5t-114.5 -54.5
t-34.5 -178.5t34.5 -178.5z" />
    <glyph glyph-name="R" unicode="R" horiz-adv-x="858" 
d="M767.5 649.5q61.5 -50.5 61.5 -140.5q0 -77 -42.5 -120t-132.5 -61q90 -10 134.5 -55.5t44.5 -132.5v-140h-320v130q0 64 -24.5 95.5t-94.5 31.5h-67v-257h-302v700h572q109 0 170.5 -50.5zM499.5 410.5q32.5 26.5 32.5 69.5q0 46 -34 69.5t-95 23.5h-76v-189h76
q64 0 96.5 26.5z" />
    <glyph glyph-name="Racute" unicode="&#x154;" horiz-adv-x="858" 
d="M669 900v-72l-490 -56v72zM767.5 649.5q61.5 -50.5 61.5 -140.5q0 -77 -42.5 -120t-132.5 -61q90 -10 134.5 -55.5t44.5 -132.5v-140h-320v130q0 64 -24.5 95.5t-94.5 31.5h-67v-257h-302v700h572q109 0 170.5 -50.5zM499.5 410.5q32.5 26.5 32.5 69.5q0 46 -34 69.5
t-95 23.5h-76v-189h76q64 0 96.5 26.5z" />
    <glyph glyph-name="Rcaron" unicode="&#x158;" horiz-adv-x="858" 
d="M694 900v-72l-270 -60l-270 60v72l270 -60zM767.5 649.5q61.5 -50.5 61.5 -140.5q0 -77 -42.5 -120t-132.5 -61q90 -10 134.5 -55.5t44.5 -132.5v-140h-320v130q0 64 -24.5 95.5t-94.5 31.5h-67v-257h-302v700h572q109 0 170.5 -50.5zM499.5 410.5q32.5 26.5 32.5 69.5
q0 46 -34 69.5t-95 23.5h-76v-189h76q64 0 96.5 26.5z" />
    <glyph glyph-name="uni0156" unicode="&#x156;" horiz-adv-x="858" 
d="M767.5 649.5q61.5 -50.5 61.5 -140.5q0 -77 -42.5 -120t-132.5 -61q90 -10 134.5 -55.5t44.5 -132.5v-140h-320v130q0 64 -24.5 95.5t-94.5 31.5h-67v-257h-302v700h572q109 0 170.5 -50.5zM499.5 410.5q32.5 26.5 32.5 69.5q0 46 -34 69.5t-95 23.5h-76v-189h76
q64 0 96.5 26.5zM589 -62v-72l-450 -56v72z" />
    <glyph glyph-name="S" unicode="S" horiz-adv-x="778" 
d="M295 182q0 -45 23 -68.5t76 -23.5q40 0 66 16t26 48q0 25 -23 40t-69 26q-125 30 -201 59.5t-123 79.5t-47 130q0 65 38 117t122.5 83t216.5 31q194 0 269 -64t75 -161h-277q1 8 1 22q0 50 -24 71.5t-69 21.5q-42 0 -63.5 -16.5t-21.5 -41.5q0 -27 22.5 -46t81.5 -31
q130 -27 210 -59.5t119.5 -80t39.5 -116.5q0 -112 -87.5 -175.5t-281.5 -63.5q-145 0 -228 26t-117 77t-34 132h282q-2 -12 -2 -33z" />
    <glyph glyph-name="Sacute" unicode="&#x15a;" horiz-adv-x="778" 
d="M634 900v-72l-490 -56v72zM295 182q0 -45 23 -68.5t76 -23.5q40 0 66 16t26 48q0 25 -23 40t-69 26q-125 30 -201 59.5t-123 79.5t-47 130q0 65 38 117t122.5 83t216.5 31q194 0 269 -64t75 -161h-277q1 8 1 22q0 50 -24 71.5t-69 21.5q-42 0 -63.5 -16.5t-21.5 -41.5
q0 -27 22.5 -46t81.5 -31q130 -27 210 -59.5t119.5 -80t39.5 -116.5q0 -112 -87.5 -175.5t-281.5 -63.5q-145 0 -228 26t-117 77t-34 132h282q-2 -12 -2 -33z" />
    <glyph glyph-name="Scaron" unicode="&#x160;" horiz-adv-x="778" 
d="M659 900v-72l-270 -60l-270 60v72l270 -60zM295 182q0 -45 23 -68.5t76 -23.5q40 0 66 16t26 48q0 25 -23 40t-69 26q-125 30 -201 59.5t-123 79.5t-47 130q0 65 38 117t122.5 83t216.5 31q194 0 269 -64t75 -161h-277q1 8 1 22q0 50 -24 71.5t-69 21.5
q-42 0 -63.5 -16.5t-21.5 -41.5q0 -27 22.5 -46t81.5 -31q130 -27 210 -59.5t119.5 -80t39.5 -116.5q0 -112 -87.5 -175.5t-281.5 -63.5q-145 0 -228 26t-117 77t-34 132h282q-2 -12 -2 -33z" />
    <glyph glyph-name="Scedilla" unicode="&#x15e;" horiz-adv-x="778" 
d="M684 49.5q-79 -62.5 -254 -68.5q62 -6 93 -29.5t31 -66.5q0 -54 -51 -80.5t-136 -26.5q-39 0 -65 5.5t-41 11t-20 7.5v70q79 -20 130 -20q45 0 72 5.5t27 26.5q0 18 -17.5 27t-51.5 11.5t-98 2.5l34 56q-122 5 -193 32.5t-100 77t-29 124.5h282q-2 -12 -2 -33
q0 -45 23 -68.5t76 -23.5q40 0 66 16t26 48q0 25 -23 40t-69 26q-125 30 -201 59.5t-123 79.5t-47 130q0 65 38 117t122.5 83t216.5 31q194 0 269 -64t75 -161h-277q1 8 1 22q0 50 -24 71.5t-69 21.5q-42 0 -63.5 -16.5t-21.5 -41.5q0 -27 22.5 -46t81.5 -31
q130 -27 210 -59.5t119.5 -80t39.5 -116.5q0 -107 -79 -169.5z" />
    <glyph glyph-name="Scircumflex" unicode="&#x15c;" horiz-adv-x="778" 
d="M389 900l270 -60v-72l-270 60l-270 -60v72zM295 182q0 -45 23 -68.5t76 -23.5q40 0 66 16t26 48q0 25 -23 40t-69 26q-125 30 -201 59.5t-123 79.5t-47 130q0 65 38 117t122.5 83t216.5 31q194 0 269 -64t75 -161h-277q1 8 1 22q0 50 -24 71.5t-69 21.5
q-42 0 -63.5 -16.5t-21.5 -41.5q0 -27 22.5 -46t81.5 -31q130 -27 210 -59.5t119.5 -80t39.5 -116.5q0 -112 -87.5 -175.5t-281.5 -63.5q-145 0 -228 26t-117 77t-34 132h282q-2 -12 -2 -33z" />
    <glyph glyph-name="uni0218" unicode="&#x218;" horiz-adv-x="778" 
d="M295 182q0 -45 23 -68.5t76 -23.5q40 0 66 16t26 48q0 25 -23 40t-69 26q-125 30 -201 59.5t-123 79.5t-47 130q0 65 38 117t122.5 83t216.5 31q194 0 269 -64t75 -161h-277q1 8 1 22q0 50 -24 71.5t-69 21.5q-42 0 -63.5 -16.5t-21.5 -41.5q0 -27 22.5 -46t81.5 -31
q130 -27 210 -59.5t119.5 -80t39.5 -116.5q0 -112 -87.5 -175.5t-281.5 -63.5q-145 0 -228 26t-117 77t-34 132h282q-2 -12 -2 -33zM554 -62v-72l-450 -56v72z" />
    <glyph glyph-name="T" unicode="T" horiz-adv-x="782" 
d="M5 538v162h772v-162h-235v-538h-302v538h-235z" />
    <glyph glyph-name="Tbar" unicode="&#x166;" horiz-adv-x="782" 
d="M542 345h105v-75h-105v-270h-302v270h-105v75h105v193h-235v162h772v-162h-235v-193z" />
    <glyph glyph-name="Tcaron" unicode="&#x164;" horiz-adv-x="782" 
d="M661 900v-72l-270 -60l-270 60v72l270 -60zM5 538v162h772v-162h-235v-538h-302v538h-235z" />
    <glyph glyph-name="uni0162" unicode="&#x162;" horiz-adv-x="782" 
d="M520 -44.5q36 -23.5 36 -70.5q0 -54 -51 -80.5t-136 -26.5q-39 0 -65 5.5t-41 11t-20 7.5v70q79 -20 130 -20q45 0 72 5.5t27 26.5q0 18 -17.5 27t-51.5 11.5t-98 2.5l45 75h-110v538h-235v162h772v-162h-235v-538h-116l-16 -18q74 -3 110 -26.5z" />
    <glyph glyph-name="uni021A" unicode="&#x21a;" horiz-adv-x="782" 
d="M5 538v162h772v-162h-235v-538h-302v538h-235zM556 -62v-72l-450 -56v72z" />
    <glyph glyph-name="U" unicode="U" horiz-adv-x="870" 
d="M353.5 155q26.5 -28 81.5 -28t81.5 28t26.5 85v460h302v-413q0 -154 -102 -230.5t-308 -76.5t-308 76.5t-102 230.5v413h302v-460q0 -57 26.5 -85z" />
    <glyph glyph-name="Uacute" unicode="&#xda;" horiz-adv-x="870" 
d="M680 900v-72l-490 -56v72zM353.5 155q26.5 -28 81.5 -28t81.5 28t26.5 85v460h302v-413q0 -154 -102 -230.5t-308 -76.5t-308 76.5t-102 230.5v413h302v-460q0 -57 26.5 -85z" />
    <glyph glyph-name="Ubreve" unicode="&#x16c;" horiz-adv-x="870" 
d="M312 855.5q64 -15.5 123 -15.5q57 0 122 15.5t123 44.5v-72q-58 -29 -123 -44.5t-122 -15.5q-59 0 -123 15.5t-122 44.5v72q58 -29 122 -44.5zM353.5 155q26.5 -28 81.5 -28t81.5 28t26.5 85v460h302v-413q0 -154 -102 -230.5t-308 -76.5t-308 76.5t-102 230.5v413h302
v-460q0 -57 26.5 -85z" />
    <glyph glyph-name="Ucircumflex" unicode="&#xdb;" horiz-adv-x="870" 
d="M435 900l270 -60v-72l-270 60l-270 -60v72zM353.5 155q26.5 -28 81.5 -28t81.5 28t26.5 85v460h302v-413q0 -154 -102 -230.5t-308 -76.5t-308 76.5t-102 230.5v413h302v-460q0 -57 26.5 -85z" />
    <glyph glyph-name="Udieresis" unicode="&#xdc;" horiz-adv-x="870" 
d="M410 873v-72h-282v72h282zM742 873v-72h-282v72h282zM353.5 155q26.5 -28 81.5 -28t81.5 28t26.5 85v460h302v-413q0 -154 -102 -230.5t-308 -76.5t-308 76.5t-102 230.5v413h302v-460q0 -57 26.5 -85z" />
    <glyph glyph-name="Ugrave" unicode="&#xd9;" horiz-adv-x="870" 
d="M680 844v-72l-490 56v72zM353.5 155q26.5 -28 81.5 -28t81.5 28t26.5 85v460h302v-413q0 -154 -102 -230.5t-308 -76.5t-308 76.5t-102 230.5v413h302v-460q0 -57 26.5 -85z" />
    <glyph glyph-name="Uhungarumlaut" unicode="&#x170;" horiz-adv-x="870" 
d="M410 900v-72l-376 -56v72zM836 900v-72l-376 -56v72zM353.5 155q26.5 -28 81.5 -28t81.5 28t26.5 85v460h302v-413q0 -154 -102 -230.5t-308 -76.5t-308 76.5t-102 230.5v413h302v-460q0 -57 26.5 -85z" />
    <glyph glyph-name="Umacron" unicode="&#x16a;" horiz-adv-x="870" 
d="M680 873v-72h-490v72h490zM353.5 155q26.5 -28 81.5 -28t81.5 28t26.5 85v460h302v-413q0 -154 -102 -230.5t-308 -76.5t-308 76.5t-102 230.5v413h302v-460q0 -57 26.5 -85z" />
    <glyph glyph-name="Uogonek" unicode="&#x172;" horiz-adv-x="870" 
d="M598 -5q-58 -16 -103.5 -41t-45.5 -55q0 -19 25.5 -31.5t110.5 -12.5q50 0 101 8.5t71 17.5v-70q-23 -13 -80 -21t-92 -8q-97 0 -162 26.5t-65 88.5q0 23 16 44.5t43 38.5q-197 3 -294.5 79.5t-97.5 227.5v413h302v-460q0 -57 26.5 -85t81.5 -28t81.5 28t26.5 85v460h302
v-413q0 -240 -247 -292z" />
    <glyph glyph-name="Uring" unicode="&#x16e;" horiz-adv-x="870" 
d="M207 883.5q31 21.5 90 34t138 12.5t137.5 -12.5t89.5 -34t31 -47.5t-31 -48t-89.5 -35t-137.5 -13t-138 13t-90 35t-31 48t31 47.5zM299 812q51 -10 136 -10t135.5 10t50.5 24q0 13 -50.5 22.5t-135.5 9.5t-136 -9.5t-51 -22.5q0 -14 51 -24zM353.5 155
q26.5 -28 81.5 -28t81.5 28t26.5 85v460h302v-413q0 -154 -102 -230.5t-308 -76.5t-308 76.5t-102 230.5v413h302v-460q0 -57 26.5 -85z" />
    <glyph glyph-name="Utilde" unicode="&#x168;" horiz-adv-x="870" 
d="M321 900q31 0 60 -7t68 -20q38 -13 66 -19.5t57 -6.5q66 0 133 33v-62q-79 -40 -149 -40q-32 0 -61 6.5t-73 20.5q-41 13 -69 19.5t-59 6.5q-62 0 -129 -33v62q77 40 156 40zM353.5 155q26.5 -28 81.5 -28t81.5 28t26.5 85v460h302v-413q0 -154 -102 -230.5t-308 -76.5
t-308 76.5t-102 230.5v413h302v-460q0 -57 26.5 -85z" />
    <glyph glyph-name="V" unicode="V" horiz-adv-x="907" 
d="M261 0l-256 700h337l151 -529l160 529h249l-256 -700h-385z" />
    <glyph glyph-name="W" unicode="W" horiz-adv-x="1285" 
d="M1092 0h-355l-96 385l-95 -385h-355l-186 700h287l110 -529l116 529h311l108 -529l120 529h223z" />
    <glyph glyph-name="Wacute" unicode="&#x1e82;" horiz-adv-x="1285" 
d="M398 772v72l490 56v-72zM1092 0h-355l-96 385l-95 -385h-355l-186 700h287l110 -529l116 529h311l108 -529l120 529h223z" />
    <glyph glyph-name="Wcircumflex" unicode="&#x174;" horiz-adv-x="1285" 
d="M373 768v72l270 60l270 -60v-72l-270 60zM1092 0h-355l-96 385l-95 -385h-355l-186 700h287l110 -529l116 529h311l108 -529l120 529h223z" />
    <glyph glyph-name="Wdieresis" unicode="&#x1e84;" horiz-adv-x="1285" 
d="M336 801v72h282v-72h-282zM668 801v72h282v-72h-282zM1092 0h-355l-96 385l-95 -385h-355l-186 700h287l110 -529l116 529h311l108 -529l120 529h223z" />
    <glyph glyph-name="Wgrave" unicode="&#x1e80;" horiz-adv-x="1285" 
d="M398 828v72l490 -56v-72zM1092 0h-355l-96 385l-95 -385h-355l-186 700h287l110 -529l116 529h311l108 -529l120 529h223z" />
    <glyph glyph-name="X" unicode="X" horiz-adv-x="888" 
d="M10 700h380l109 -177l112 177h266l-252 -345l253 -355h-380l-102 177l-115 -177h-267l250 353z" />
    <glyph glyph-name="Y" unicode="Y" horiz-adv-x="909" 
d="M608 230v-230h-302v224l-301 476h366l138 -262l141 262h254z" />
    <glyph glyph-name="Yacute" unicode="&#xdd;" horiz-adv-x="909" 
d="M220 772v72l490 56v-72zM608 230v-230h-302v224l-301 476h366l138 -262l141 262h254z" />
    <glyph glyph-name="Ycircumflex" unicode="&#x176;" horiz-adv-x="909" 
d="M195 768v72l270 60l270 -60v-72l-270 60zM608 230v-230h-302v224l-301 476h366l138 -262l141 262h254z" />
    <glyph glyph-name="Ydieresis" unicode="&#x178;" horiz-adv-x="909" 
d="M158 801v72h282v-72h-282zM490 801v72h282v-72h-282zM608 230v-230h-302v224l-301 476h366l138 -262l141 262h254z" />
    <glyph glyph-name="Ygrave" unicode="&#x1ef2;" horiz-adv-x="909" 
d="M220 828v72l490 -56v-72zM608 230v-230h-302v224l-301 476h366l138 -262l141 262h254z" />
    <glyph glyph-name="Z" unicode="Z" horiz-adv-x="742" 
d="M339 538h-319v162h702v-152l-324 -386h329v-162h-712v152z" />
    <glyph glyph-name="Zacute" unicode="&#x179;" horiz-adv-x="742" 
d="M616 900v-72l-490 -56v72zM339 538h-319v162h702v-152l-324 -386h329v-162h-712v152z" />
    <glyph glyph-name="Zcaron" unicode="&#x17d;" horiz-adv-x="742" 
d="M641 900v-72l-270 -60l-270 60v72l270 -60zM339 538h-319v162h702v-152l-324 -386h329v-162h-712v152z" />
    <glyph glyph-name="Zdotaccent" unicode="&#x17b;" horiz-adv-x="742" 
d="M522 873v-72h-302v72h302zM339 538h-319v162h702v-152l-324 -386h329v-162h-712v152z" />
    <glyph glyph-name="a" unicode="a" 
d="M50.5 413.5q35.5 64.5 100 100.5t148.5 36q123 0 206 -105v85h262v-530h-262v85q-83 -105 -206 -105q-84 0 -148.5 36t-100 100.5t-35.5 148.5t35.5 148.5zM401 115q104 0 104 150t-104 150t-104 -150t104 -150z" />
    <glyph glyph-name="aacute" unicode="&#xe1;" 
d="M661 720v-72l-450 -56v72zM50.5 413.5q35.5 64.5 100 100.5t148.5 36q123 0 206 -105v85h262v-530h-262v85q-83 -105 -206 -105q-84 0 -148.5 36t-100 100.5t-35.5 148.5t35.5 148.5zM401 115q104 0 104 150t-104 150t-104 -150t104 -150z" />
    <glyph glyph-name="abreve" unicode="&#x103;" 
d="M283.5 675.5q58.5 -15.5 112.5 -15.5q53 0 112.5 15.5t112.5 44.5v-72q-53 -29 -112.5 -44.5t-112.5 -15.5q-54 0 -112.5 15.5t-112.5 44.5v72q54 -29 112.5 -44.5zM50.5 413.5q35.5 64.5 100 100.5t148.5 36q123 0 206 -105v85h262v-530h-262v85q-83 -105 -206 -105
q-84 0 -148.5 36t-100 100.5t-35.5 148.5t35.5 148.5zM401 115q104 0 104 150t-104 150t-104 -150t104 -150z" />
    <glyph glyph-name="acircumflex" unicode="&#xe2;" 
d="M396 720l250 -60v-72l-250 60l-250 -60v72zM50.5 413.5q35.5 64.5 100 100.5t148.5 36q123 0 206 -105v85h262v-530h-262v85q-83 -105 -206 -105q-84 0 -148.5 36t-100 100.5t-35.5 148.5t35.5 148.5zM401 115q104 0 104 150t-104 150t-104 -150t104 -150z" />
    <glyph glyph-name="adieresis" unicode="&#xe4;" 
d="M371 693v-72h-262v72h262zM683 693v-72h-262v72h262zM50.5 413.5q35.5 64.5 100 100.5t148.5 36q123 0 206 -105v85h262v-530h-262v85q-83 -105 -206 -105q-84 0 -148.5 36t-100 100.5t-35.5 148.5t35.5 148.5zM401 115q104 0 104 150t-104 150t-104 -150t104 -150z" />
    <glyph glyph-name="agrave" unicode="&#xe0;" 
d="M621 664v-72l-450 56v72zM50.5 413.5q35.5 64.5 100 100.5t148.5 36q123 0 206 -105v85h262v-530h-262v85q-83 -105 -206 -105q-84 0 -148.5 36t-100 100.5t-35.5 148.5t35.5 148.5zM401 115q104 0 104 150t-104 150t-104 -150t104 -150z" />
    <glyph glyph-name="amacron" unicode="&#x101;" 
d="M621 693v-72h-450v72h450zM50.5 413.5q35.5 64.5 100 100.5t148.5 36q123 0 206 -105v85h262v-530h-262v85q-83 -105 -206 -105q-84 0 -148.5 36t-100 100.5t-35.5 148.5t35.5 148.5zM401 115q104 0 104 150t-104 150t-104 -150t104 -150z" />
    <glyph glyph-name="aogonek" unicode="&#x105;" 
d="M577.5 -17.5q-46.5 -13.5 -82.5 -35.5t-36 -48q0 -19 25.5 -31.5t110.5 -12.5q50 0 101 8.5t71 17.5v-70q-23 -13 -80 -21t-92 -8q-97 0 -162 26.5t-65 88.5q0 40 43.5 72.5t93.5 45.5v70q-83 -105 -206 -105q-84 0 -148.5 36t-100 100.5t-35.5 148.5t35.5 148.5
t100 100.5t148.5 36q123 0 206 -105v85h262v-530h-112q-31 -4 -77.5 -17.5zM505 265q0 150 -104 150t-104 -150t104 -150t104 150z" />
    <glyph glyph-name="aring" unicode="&#xe5;" 
d="M186 703.5q29 21.5 83 34t127 12.5t127 -12.5t82.5 -34t28.5 -47.5t-28.5 -48t-82.5 -35t-127 -13t-127 13t-83 35t-29 48t29 47.5zM274.5 632q45.5 -10 121.5 -10t121 10t45 24q0 13 -45 22.5t-121 9.5t-121.5 -9.5t-45.5 -22.5q0 -14 45.5 -24zM50.5 413.5
q35.5 64.5 100 100.5t148.5 36q123 0 206 -105v85h262v-530h-262v85q-83 -105 -206 -105q-84 0 -148.5 36t-100 100.5t-35.5 148.5t35.5 148.5zM401 115q104 0 104 150t-104 150t-104 -150t104 -150z" />
    <glyph glyph-name="atilde" unicode="&#xe3;" 
d="M289 720q30 0 58 -7t62 -20q36 -13 61 -19.5t54 -6.5q56 0 122 33v-62q-79 -40 -143 -40q-30 0 -58 7t-62 20q-36 13 -61 19.5t-54 6.5q-56 0 -122 -33v62q79 40 143 40zM50.5 413.5q35.5 64.5 100 100.5t148.5 36q123 0 206 -105v85h262v-530h-262v85
q-83 -105 -206 -105q-84 0 -148.5 36t-100 100.5t-35.5 148.5t35.5 148.5zM401 115q104 0 104 150t-104 150t-104 -150t104 -150z" />
    <glyph glyph-name="ae" unicode="&#xe6;" horiz-adv-x="1251" 
d="M871 95q40 0 63.5 19.5t27.5 57.5h264q-16 -91 -82.5 -141.5t-172.5 -50.5q-71 0 -125.5 23.5t-78.5 68.5v-72h-262v85q-83 -105 -206 -105q-84 0 -148.5 36t-100 100.5t-35.5 148.5t35.5 148.5t100 100.5t148.5 36q123 0 206 -105v85h262v-73q22 41 77.5 67t117.5 26
q88 0 149.5 -40t93 -107t31.5 -147v-28h-465q0 -133 100 -133zM805.5 411q-25.5 -24 -32.5 -73h192q-4 49 -28.5 73t-65.5 24q-40 0 -65.5 -24zM505 265q0 150 -104 150t-104 -150t104 -150t104 150z" />
    <glyph glyph-name="b" unicode="b" 
d="M287 445q83 105 206 105q84 0 148.5 -36t100 -100.5t35.5 -148.5t-35.5 -148.5t-100 -100.5t-148.5 -36q-123 0 -206 105v-85h-262v700h262v-255zM391 115q104 0 104 150t-104 150t-104 -150t104 -150z" />
    <glyph glyph-name="c" unicode="c" horiz-adv-x="756" 
d="M59.5 418q44.5 64 128 98t198.5 34q166 0 260.5 -60.5t94.5 -170.5h-261q0 48 -23 77t-66 29q-52 0 -78 -38.5t-26 -121.5t26 -121.5t78 -38.5q43 0 66 29t23 77h261q0 -110 -94.5 -170.5t-260.5 -60.5q-115 0 -198.5 34t-128 98t-44.5 153t44.5 153z" />
    <glyph glyph-name="cacute" unicode="&#x107;" horiz-adv-x="756" 
d="M652 720v-72l-450 -56v72zM59.5 418q44.5 64 128 98t198.5 34q166 0 260.5 -60.5t94.5 -170.5h-261q0 48 -23 77t-66 29q-52 0 -78 -38.5t-26 -121.5t26 -121.5t78 -38.5q43 0 66 29t23 77h261q0 -110 -94.5 -170.5t-260.5 -60.5q-115 0 -198.5 34t-128 98t-44.5 153
t44.5 153z" />
    <glyph glyph-name="ccaron" unicode="&#x10d;" horiz-adv-x="756" 
d="M637 720v-72l-250 -60l-250 60v72l250 -60zM59.5 418q44.5 64 128 98t198.5 34q166 0 260.5 -60.5t94.5 -170.5h-261q0 48 -23 77t-66 29q-52 0 -78 -38.5t-26 -121.5t26 -121.5t78 -38.5q43 0 66 29t23 77h261q0 -110 -94.5 -170.5t-260.5 -60.5q-115 0 -198.5 34
t-128 98t-44.5 153t44.5 153z" />
    <glyph glyph-name="ccedilla" unicode="&#xe7;" horiz-adv-x="756" 
d="M457 134q23 29 23 77h261q0 -104 -85 -164t-236 -66q64 -6 95 -29.5t31 -66.5q0 -54 -51 -80.5t-136 -26.5q-39 0 -65 5.5t-41 11t-20 7.5v70q79 -20 130 -20q45 0 72 5.5t27 26.5q0 18 -17.5 27t-51.5 11.5t-98 2.5l35 57q-149 12 -232 86t-83 197q0 89 44.5 153t128 98
t198.5 34q166 0 260.5 -60.5t94.5 -170.5h-261q0 48 -23 77t-66 29q-52 0 -78 -38.5t-26 -121.5t26 -121.5t78 -38.5q43 0 66 29z" />
    <glyph glyph-name="ccircumflex" unicode="&#x109;" horiz-adv-x="756" 
d="M387 720l250 -60v-72l-250 60l-250 -60v72zM59.5 418q44.5 64 128 98t198.5 34q166 0 260.5 -60.5t94.5 -170.5h-261q0 48 -23 77t-66 29q-52 0 -78 -38.5t-26 -121.5t26 -121.5t78 -38.5q43 0 66 29t23 77h261q0 -110 -94.5 -170.5t-260.5 -60.5q-115 0 -198.5 34
t-128 98t-44.5 153t44.5 153z" />
    <glyph glyph-name="cdotaccent" unicode="&#x10b;" horiz-adv-x="756" 
d="M518 693v-72h-262v72h262zM59.5 418q44.5 64 128 98t198.5 34q166 0 260.5 -60.5t94.5 -170.5h-261q0 48 -23 77t-66 29q-52 0 -78 -38.5t-26 -121.5t26 -121.5t78 -38.5q43 0 66 29t23 77h261q0 -110 -94.5 -170.5t-260.5 -60.5q-115 0 -198.5 34t-128 98t-44.5 153
t44.5 153z" />
    <glyph glyph-name="d" unicode="d" 
d="M50.5 413.5q35.5 64.5 100 100.5t148.5 36q123 0 206 -105v255h262v-700h-262v85q-83 -105 -206 -105q-84 0 -148.5 36t-100 100.5t-35.5 148.5t35.5 148.5zM401 115q104 0 104 150t-104 150t-104 -150t104 -150z" />
    <glyph glyph-name="eth" unicode="&#xf0;" 
d="M734 419q43 -76 43 -154q0 -79 -44.5 -143.5t-132 -103t-211.5 -38.5q-116 0 -200.5 29t-129 82.5t-44.5 123.5q0 68 37 117.5t100 75t141 25.5q107 0 160 -43q-30 56 -85 109l-256 -65v132l126 32q-54 34 -119 63l234 59q65 -21 132 -60l237 60v-132l-104 -26
q73 -67 116 -143zM477 134.5q29 29.5 29 78.5q0 51 -29 81t-81 30t-80.5 -30.5t-28.5 -80.5q0 -49 28.5 -78.5t80.5 -29.5t81 29.5z" />
    <glyph glyph-name="dcaron" unicode="&#x10f;" horiz-adv-x="917" 
d="M802 495l35 285h75l-38 -285h-72zM50.5 413.5q35.5 64.5 100 100.5t148.5 36q123 0 206 -105v255h262v-700h-262v85q-83 -105 -206 -105q-84 0 -148.5 36t-100 100.5t-35.5 148.5t35.5 148.5zM401 115q104 0 104 150t-104 150t-104 -150t104 -150z" />
    <glyph glyph-name="dcroat" unicode="&#x111;" horiz-adv-x="857" 
d="M767 0h-262v72q-82 -92 -206 -92q-84 0 -148.5 31.5t-100 88.5t-35.5 130q0 74 35.5 130.5t100 88t148.5 31.5q124 0 206 -92v143h-150v72h150v97h262v-97h80v-72h-80v-531zM505 230q0 115 -104 115t-104 -115t104 -115t104 115z" />
    <glyph glyph-name="e" unicode="e" horiz-adv-x="761" 
d="M381 95q40 0 63.5 19.5t27.5 57.5h264q-16 -92 -104 -142t-246 -50q-115 0 -198.5 34t-128 98t-44.5 153t44.5 153t128 98t198.5 34q174 0 265 -67.5t95 -226.5v-28h-465q0 -133 100 -133zM315.5 411q-25.5 -24 -32.5 -73h192q-4 49 -28.5 73t-65.5 24q-40 0 -65.5 -24z
" />
    <glyph glyph-name="eacute" unicode="&#xe9;" horiz-adv-x="761" 
d="M196 592v72l450 56v-72zM381 95q40 0 63.5 19.5t27.5 57.5h264q-16 -92 -104 -142t-246 -50q-115 0 -198.5 34t-128 98t-44.5 153t44.5 153t128 98t198.5 34q174 0 265 -67.5t95 -226.5v-28h-465q0 -133 100 -133zM315.5 411q-25.5 -24 -32.5 -73h192q-4 49 -28.5 73
t-65.5 24q-40 0 -65.5 -24z" />
    <glyph glyph-name="ebreve" unicode="&#x115;" horiz-adv-x="761" 
d="M493.5 603.5q-59.5 -15.5 -112.5 -15.5q-54 0 -112.5 15.5t-112.5 44.5v72q54 -29 112.5 -44.5t112.5 -15.5q53 0 112.5 15.5t112.5 44.5v-72q-53 -29 -112.5 -44.5zM381 95q40 0 63.5 19.5t27.5 57.5h264q-16 -92 -104 -142t-246 -50q-115 0 -198.5 34t-128 98
t-44.5 153t44.5 153t128 98t198.5 34q174 0 265 -67.5t95 -226.5v-28h-465q0 -133 100 -133zM315.5 411q-25.5 -24 -32.5 -73h192q-4 49 -28.5 73t-65.5 24q-40 0 -65.5 -24z" />
    <glyph glyph-name="ecaron" unicode="&#x11b;" horiz-adv-x="761" 
d="M131 648v72l250 -60l250 60v-72l-250 -60zM381 95q40 0 63.5 19.5t27.5 57.5h264q-16 -92 -104 -142t-246 -50q-115 0 -198.5 34t-128 98t-44.5 153t44.5 153t128 98t198.5 34q174 0 265 -67.5t95 -226.5v-28h-465q0 -133 100 -133zM315.5 411q-25.5 -24 -32.5 -73h192
q-4 49 -28.5 73t-65.5 24q-40 0 -65.5 -24z" />
    <glyph glyph-name="ecircumflex" unicode="&#xea;" horiz-adv-x="761" 
d="M131 588v72l250 60l250 -60v-72l-250 60zM381 95q40 0 63.5 19.5t27.5 57.5h264q-16 -92 -104 -142t-246 -50q-115 0 -198.5 34t-128 98t-44.5 153t44.5 153t128 98t198.5 34q174 0 265 -67.5t95 -226.5v-28h-465q0 -133 100 -133zM315.5 411q-25.5 -24 -32.5 -73h192
q-4 49 -28.5 73t-65.5 24q-40 0 -65.5 -24z" />
    <glyph glyph-name="edieresis" unicode="&#xeb;" horiz-adv-x="761" 
d="M94 621v72h262v-72h-262zM406 621v72h262v-72h-262zM381 95q40 0 63.5 19.5t27.5 57.5h264q-16 -92 -104 -142t-246 -50q-115 0 -198.5 34t-128 98t-44.5 153t44.5 153t128 98t198.5 34q174 0 265 -67.5t95 -226.5v-28h-465q0 -133 100 -133zM315.5 411
q-25.5 -24 -32.5 -73h192q-4 49 -28.5 73t-65.5 24q-40 0 -65.5 -24z" />
    <glyph glyph-name="edotaccent" unicode="&#x117;" horiz-adv-x="761" 
d="M250 621v72h262v-72h-262zM381 95q40 0 63.5 19.5t27.5 57.5h264q-16 -92 -104 -142t-246 -50q-115 0 -198.5 34t-128 98t-44.5 153t44.5 153t128 98t198.5 34q174 0 265 -67.5t95 -226.5v-28h-465q0 -133 100 -133zM315.5 411q-25.5 -24 -32.5 -73h192q-4 49 -28.5 73
t-65.5 24q-40 0 -65.5 -24z" />
    <glyph glyph-name="egrave" unicode="&#xe8;" horiz-adv-x="761" 
d="M156 648v72l450 -56v-72zM381 95q40 0 63.5 19.5t27.5 57.5h264q-16 -92 -104 -142t-246 -50q-115 0 -198.5 34t-128 98t-44.5 153t44.5 153t128 98t198.5 34q174 0 265 -67.5t95 -226.5v-28h-465q0 -133 100 -133zM315.5 411q-25.5 -24 -32.5 -73h192q-4 49 -28.5 73
t-65.5 24q-40 0 -65.5 -24z" />
    <glyph glyph-name="emacron" unicode="&#x113;" horiz-adv-x="761" 
d="M156 621v72h450v-72h-450zM381 95q40 0 63.5 19.5t27.5 57.5h264q-16 -92 -104 -142t-246 -50q-115 0 -198.5 34t-128 98t-44.5 153t44.5 153t128 98t198.5 34q174 0 265 -67.5t95 -226.5v-28h-465q0 -133 100 -133zM315.5 411q-25.5 -24 -32.5 -73h192q-4 49 -28.5 73
t-65.5 24q-40 0 -65.5 -24z" />
    <glyph glyph-name="eogonek" unicode="&#x119;" horiz-adv-x="761" 
d="M381 95q40 0 63.5 19.5t27.5 57.5h264q-11 -62 -55.5 -106t-122.5 -66q-54 -20 -94 -46.5t-40 -54.5q0 -19 25.5 -31.5t110.5 -12.5q50 0 101 8.5t71 17.5v-70q-23 -13 -80 -21t-92 -8q-97 0 -162 26.5t-65 88.5q0 43 54 83h-1q-115 0 -198.5 34t-128 98t-44.5 153
t44.5 153t128 98t198.5 34q174 0 265 -67.5t95 -226.5v-28h-465q0 -133 100 -133zM315.5 411q-25.5 -24 -32.5 -73h192q-4 49 -28.5 73t-65.5 24q-40 0 -65.5 -24z" />
    <glyph glyph-name="f" unicode="f" horiz-adv-x="552" 
d="M387 498v-28h150v-132h-150v-338h-262v338h-115v132h115v33q0 75 40.5 123.5t106 71t144.5 22.5q34 0 69.5 -4t51.5 -10v-135q-21 3 -48 3q-102 0 -102 -76z" />
    <glyph glyph-name="g" unicode="g" 
d="M667.5 -114q-99.5 -76 -278.5 -76q-174 0 -254.5 46t-80.5 135h247q0 -41 25 -63.5t73 -22.5q50 0 78 27t28 79v107q-83 -98 -206 -98q-84 0 -148.5 33.5t-100 93.5t-35.5 138t35.5 138t100 93.5t148.5 33.5q123 0 206 -98v78h262v-425q0 -143 -99.5 -219zM505 285
q0 130 -104 130t-104 -130t104 -130t104 130z" />
    <glyph glyph-name="gbreve" unicode="&#x11f;" 
d="M508.5 603.5q-59.5 -15.5 -112.5 -15.5q-54 0 -112.5 15.5t-112.5 44.5v72q54 -29 112.5 -44.5t112.5 -15.5q53 0 112.5 15.5t112.5 44.5v-72q-53 -29 -112.5 -44.5zM667.5 -114q-99.5 -76 -278.5 -76q-174 0 -254.5 46t-80.5 135h247q0 -41 25 -63.5t73 -22.5
q50 0 78 27t28 79v107q-83 -98 -206 -98q-84 0 -148.5 33.5t-100 93.5t-35.5 138t35.5 138t100 93.5t148.5 33.5q123 0 206 -98v78h262v-425q0 -143 -99.5 -219zM505 285q0 130 -104 130t-104 -130t104 -130t104 130z" />
    <glyph glyph-name="gcircumflex" unicode="&#x11d;" 
d="M146 588v72l250 60l250 -60v-72l-250 60zM667.5 -114q-99.5 -76 -278.5 -76q-174 0 -254.5 46t-80.5 135h247q0 -41 25 -63.5t73 -22.5q50 0 78 27t28 79v107q-83 -98 -206 -98q-84 0 -148.5 33.5t-100 93.5t-35.5 138t35.5 138t100 93.5t148.5 33.5q123 0 206 -98v78
h262v-425q0 -143 -99.5 -219zM505 285q0 130 -104 130t-104 -130t104 -130t104 130z" />
    <glyph glyph-name="uni0123" unicode="&#x123;" 
d="M231 592v72l450 56v-72zM667.5 -114q-99.5 -76 -278.5 -76q-174 0 -254.5 46t-80.5 135h247q0 -41 25 -63.5t73 -22.5q50 0 78 27t28 79v107q-83 -98 -206 -98q-84 0 -148.5 33.5t-100 93.5t-35.5 138t35.5 138t100 93.5t148.5 33.5q123 0 206 -98v78h262v-425
q0 -143 -99.5 -219zM505 285q0 130 -104 130t-104 -130t104 -130t104 130z" />
    <glyph glyph-name="gdotaccent" unicode="&#x121;" 
d="M265 621v72h262v-72h-262zM667.5 -114q-99.5 -76 -278.5 -76q-174 0 -254.5 46t-80.5 135h247q0 -41 25 -63.5t73 -22.5q50 0 78 27t28 79v107q-83 -98 -206 -98q-84 0 -148.5 33.5t-100 93.5t-35.5 138t35.5 138t100 93.5t148.5 33.5q123 0 206 -98v78h262v-425
q0 -143 -99.5 -219zM505 285q0 130 -104 130t-104 -130t104 -130t104 130z" />
    <glyph glyph-name="h" unicode="h" horiz-adv-x="764" 
d="M287 445q41 46 96.5 75.5t123.5 29.5q110 0 171 -62t61 -178v-310h-262v278q0 50 -27 76.5t-66 26.5q-28 0 -54 -14t-43 -39v-328h-262v700h262v-255z" />
    <glyph glyph-name="hbar" unicode="&#x127;" horiz-adv-x="834" 
d="M748 418q61 -62 61 -178v-240h-262v208q0 50 -27 76.5t-66 26.5q-28 0 -54 -14t-43 -39v-258h-262v531h-80v72h80v97h262v-97h150v-72h-150v-156q41 46 96.5 75.5t123.5 29.5q110 0 171 -62z" />
    <glyph glyph-name="hcircumflex" unicode="&#x125;" horiz-adv-x="764" 
d="M380 900l270 -60v-72l-270 60l-270 -60v72zM287 445q41 46 96.5 75.5t123.5 29.5q110 0 171 -62t61 -178v-310h-262v278q0 50 -27 76.5t-66 26.5q-28 0 -54 -14t-43 -39v-328h-262v700h262v-255z" />
    <glyph glyph-name="i" unicode="i" horiz-adv-x="312" 
d="M289 693v-72h-262v72h262zM287 530v-530h-262v530h262z" />
    <glyph glyph-name="dotlessi" unicode="&#x131;" horiz-adv-x="312" 
d="M287 530v-530h-262v530h262z" />
    <glyph glyph-name="iacute" unicode="&#xed;" horiz-adv-x="312" 
d="M423 720v-72l-450 -56v72zM287 530v-530h-262v530h262z" />
    <glyph glyph-name="ibreve" unicode="&#x12d;" horiz-adv-x="312" 
d="M45.5 675.5q58.5 -15.5 112.5 -15.5q53 0 112.5 15.5t112.5 44.5v-72q-53 -29 -112.5 -44.5t-112.5 -15.5q-54 0 -112.5 15.5t-112.5 44.5v72q54 -29 112.5 -44.5zM287 530v-530h-262v530h262z" />
    <glyph glyph-name="icircumflex" unicode="&#xee;" horiz-adv-x="312" 
d="M158 720l250 -60v-72l-250 60l-250 -60v72zM287 530v-530h-262v530h262z" />
    <glyph glyph-name="idieresis" unicode="&#xef;" horiz-adv-x="312" 
d="M133 693v-72h-262v72h262zM445 693v-72h-262v72h262zM287 530v-530h-262v530h262z" />
    <glyph glyph-name="igrave" unicode="&#xec;" horiz-adv-x="312" 
d="M383 664v-72l-450 56v72zM287 530v-530h-262v530h262z" />
    <glyph glyph-name="ij" unicode="&#x133;" horiz-adv-x="624" 
d="M289 693v-72h-262v72h262zM600 693v-72h-262v72h262zM287 530v-530h-262v530h262zM337 -30v560h262v-490q0 -55 -18.5 -104t-46.5 -86h-222q25 45 25 120z" />
    <glyph glyph-name="imacron" unicode="&#x12b;" horiz-adv-x="312" 
d="M383 693v-72h-450v72h450zM287 530v-530h-262v530h262z" />
    <glyph glyph-name="iogonek" unicode="&#x12f;" horiz-adv-x="312" 
d="M50.5 600q-35.5 30 -35.5 76t35.5 75.5t105.5 29.5t105.5 -29.5t35.5 -75.5t-35.5 -76t-105.5 -30t-105.5 30zM14.5 -132.5q25.5 -12.5 110.5 -12.5q50 0 101 8.5t71 17.5v-70q-23 -13 -80 -21t-92 -8q-97 0 -162 26.5t-65 88.5q0 37 39 68t88 47v518h262v-530h-102
q-31 -4 -77.5 -17.5t-82.5 -35.5t-36 -48q0 -19 25.5 -31.5z" />
    <glyph glyph-name="itilde" unicode="&#x129;" horiz-adv-x="312" 
d="M51 720q30 0 58 -7t62 -20q36 -13 61 -19.5t54 -6.5q56 0 122 33v-62q-79 -40 -143 -40q-30 0 -58 7t-62 20q-36 13 -61 19.5t-54 6.5q-56 0 -122 -33v62q79 40 143 40zM287 530v-530h-262v530h262z" />
    <glyph glyph-name="j" unicode="j" horiz-adv-x="312" 
d="M288 693v-72h-262v72h262zM25 -30v560h262v-490q0 -55 -18.5 -104t-46.5 -86h-222q25 45 25 120z" />
    <glyph glyph-name="uni0237" unicode="&#x237;" horiz-adv-x="312" 
d="M25 -30v560h262v-490q0 -55 -18.5 -104t-46.5 -86h-222q25 45 25 120z" />
    <glyph glyph-name="jcircumflex" unicode="&#x135;" horiz-adv-x="312" 
d="M157 720l250 -60v-72l-250 60l-250 -60v72zM25 -30v560h262v-490q0 -55 -18.5 -104t-46.5 -86h-222q25 45 25 120z" />
    <glyph glyph-name="k" unicode="k" horiz-adv-x="816" 
d="M287 219v-219h-262v700h262v-389l208 219h301l-232 -265l252 -265h-321z" />
    <glyph glyph-name="uni0137" unicode="&#x137;" horiz-adv-x="816" 
d="M25 0v700h262v-389l208 219h301l-232 -265l252 -265h-321l-208 219v-219h-262zM566 -62v-72l-450 -56v72z" />
    <glyph glyph-name="l" unicode="l" horiz-adv-x="312" 
d="M287 700v-700h-262v700h262z" />
    <glyph glyph-name="lacute" unicode="&#x13a;" horiz-adv-x="312" 
d="M421 890v-72l-450 -56v72zM287 700v-700h-262v700h262z" />
    <glyph glyph-name="lcaron" unicode="&#x13e;" horiz-adv-x="437" 
d="M322 495l35 285h75l-38 -285h-72zM287 700v-700h-262v700h262z" />
    <glyph glyph-name="uni013C" unicode="&#x13c;" horiz-adv-x="312" 
d="M287 700v-700h-262v700h262zM321 -62v-72l-450 -56v72z" />
    <glyph glyph-name="ldot" unicode="&#x140;" horiz-adv-x="569" 
d="M287 700v-700h-262v700h262zM544 391v-72l-222 -28v72z" />
    <glyph glyph-name="lslash" unicode="&#x142;" horiz-adv-x="462" 
d="M362 303v-303h-262v184l-80 -37v72l80 37v444h262v-325l80 37v-72z" />
    <glyph glyph-name="m" unicode="m" horiz-adv-x="1176" 
d="M1089.5 488q61.5 -62 61.5 -178v-310h-262v289q0 44 -24 68t-59 24q-22 0 -46.5 -10.5t-41.5 -27.5q1 -11 1 -33v-310h-262v289q0 44 -24 68t-59 24q-25 0 -48.5 -12t-38.5 -35v-334h-262v530h262v-85q39 46 92 75.5t118 29.5q69 0 118.5 -26.5t75.5 -78.5
q42 46 98.5 75.5t125.5 29.5q113 0 174.5 -62z" />
    <glyph glyph-name="n" unicode="n" horiz-adv-x="764" 
d="M287 445q41 46 96.5 75.5t123.5 29.5q110 0 171 -62t61 -178v-310h-262v278q0 50 -27 76.5t-66 26.5q-28 0 -54 -14t-43 -39v-328h-262v530h262v-85z" />
    <glyph glyph-name="nacute" unicode="&#x144;" horiz-adv-x="764" 
d="M645 720v-72l-450 -56v72zM287 445q41 46 96.5 75.5t123.5 29.5q110 0 171 -62t61 -178v-310h-262v278q0 50 -27 76.5t-66 26.5q-28 0 -54 -14t-43 -39v-328h-262v530h262v-85z" />
    <glyph glyph-name="ncaron" unicode="&#x148;" horiz-adv-x="764" 
d="M630 720v-72l-250 -60l-250 60v72l250 -60zM287 445q41 46 96.5 75.5t123.5 29.5q110 0 171 -62t61 -178v-310h-262v278q0 50 -27 76.5t-66 26.5q-28 0 -54 -14t-43 -39v-328h-262v530h262v-85z" />
    <glyph glyph-name="uni0146" unicode="&#x146;" horiz-adv-x="764" 
d="M287 445q41 46 96.5 75.5t123.5 29.5q110 0 171 -62t61 -178v-310h-262v278q0 50 -27 76.5t-66 26.5q-28 0 -54 -14t-43 -39v-328h-262v530h262v-85zM545 -62v-72l-450 -56v72z" />
    <glyph glyph-name="eng" unicode="&#x14b;" horiz-adv-x="759" 
d="M287 445q41 46 96.5 75.5t123.5 29.5q110 0 171 -62t61 -178v-270q0 -55 -18.5 -104t-46.5 -86h-222q25 45 25 120v308q0 50 -27 76.5t-66 26.5q-28 0 -54 -14t-43 -39v-328h-262v530h262v-85z" />
    <glyph glyph-name="ntilde" unicode="&#xf1;" horiz-adv-x="764" 
d="M273 720q30 0 58 -7t62 -20q36 -13 61 -19.5t54 -6.5q56 0 122 33v-62q-79 -40 -143 -40q-30 0 -58 7t-62 20q-36 13 -61 19.5t-54 6.5q-56 0 -122 -33v62q79 40 143 40zM287 445q41 46 96.5 75.5t123.5 29.5q110 0 171 -62t61 -178v-310h-262v278q0 50 -27 76.5
t-66 26.5q-28 0 -54 -14t-43 -39v-328h-262v530h262v-85z" />
    <glyph glyph-name="o" unicode="o" 
d="M57.5 415q42.5 64 127.5 99.5t211 35.5t211 -35.5t127.5 -99.5t42.5 -150t-42.5 -150t-127.5 -99.5t-211 -35.5t-211 35.5t-127.5 99.5t-42.5 150t42.5 150zM396 105q109 0 109 160t-109 160t-109 -160t109 -160z" />
    <glyph glyph-name="oacute" unicode="&#xf3;" 
d="M661 720v-72l-450 -56v72zM57.5 415q42.5 64 127.5 99.5t211 35.5t211 -35.5t127.5 -99.5t42.5 -150t-42.5 -150t-127.5 -99.5t-211 -35.5t-211 35.5t-127.5 99.5t-42.5 150t42.5 150zM396 105q109 0 109 160t-109 160t-109 -160t109 -160z" />
    <glyph glyph-name="obreve" unicode="&#x14f;" 
d="M283.5 675.5q58.5 -15.5 112.5 -15.5q53 0 112.5 15.5t112.5 44.5v-72q-53 -29 -112.5 -44.5t-112.5 -15.5q-54 0 -112.5 15.5t-112.5 44.5v72q54 -29 112.5 -44.5zM57.5 415q42.5 64 127.5 99.5t211 35.5t211 -35.5t127.5 -99.5t42.5 -150t-42.5 -150t-127.5 -99.5
t-211 -35.5t-211 35.5t-127.5 99.5t-42.5 150t42.5 150zM396 105q109 0 109 160t-109 160t-109 -160t109 -160z" />
    <glyph glyph-name="ocircumflex" unicode="&#xf4;" 
d="M396 720l250 -60v-72l-250 60l-250 -60v72zM57.5 415q42.5 64 127.5 99.5t211 35.5t211 -35.5t127.5 -99.5t42.5 -150t-42.5 -150t-127.5 -99.5t-211 -35.5t-211 35.5t-127.5 99.5t-42.5 150t42.5 150zM396 105q109 0 109 160t-109 160t-109 -160t109 -160z" />
    <glyph glyph-name="odieresis" unicode="&#xf6;" 
d="M371 693v-72h-262v72h262zM683 693v-72h-262v72h262zM57.5 415q42.5 64 127.5 99.5t211 35.5t211 -35.5t127.5 -99.5t42.5 -150t-42.5 -150t-127.5 -99.5t-211 -35.5t-211 35.5t-127.5 99.5t-42.5 150t42.5 150zM396 105q109 0 109 160t-109 160t-109 -160t109 -160z" />
    <glyph glyph-name="ograve" unicode="&#xf2;" 
d="M621 664v-72l-450 56v72zM57.5 415q42.5 64 127.5 99.5t211 35.5t211 -35.5t127.5 -99.5t42.5 -150t-42.5 -150t-127.5 -99.5t-211 -35.5t-211 35.5t-127.5 99.5t-42.5 150t42.5 150zM396 105q109 0 109 160t-109 160t-109 -160t109 -160z" />
    <glyph glyph-name="ohungarumlaut" unicode="&#x151;" 
d="M371 720v-72l-356 -56v72zM777 720v-72l-356 -56v72zM57.5 415q42.5 64 127.5 99.5t211 35.5t211 -35.5t127.5 -99.5t42.5 -150t-42.5 -150t-127.5 -99.5t-211 -35.5t-211 35.5t-127.5 99.5t-42.5 150t42.5 150zM396 105q109 0 109 160t-109 160t-109 -160t109 -160z" />
    <glyph glyph-name="omacron" unicode="&#x14d;" 
d="M621 693v-72h-450v72h450zM57.5 415q42.5 64 127.5 99.5t211 35.5t211 -35.5t127.5 -99.5t42.5 -150t-42.5 -150t-127.5 -99.5t-211 -35.5t-211 35.5t-127.5 99.5t-42.5 150t42.5 150zM396 105q109 0 109 160t-109 160t-109 -160t109 -160z" />
    <glyph glyph-name="oslash" unicode="&#xf8;" 
d="M738 411q39 -63 39 -146q0 -86 -42.5 -150t-127.5 -99.5t-211 -35.5q-84 0 -154 17l-49 -67h-83l66 89q-80 35 -120.5 98.5t-40.5 147.5q0 86 42.5 150t127.5 99.5t211 35.5q90 0 159 -18l50 68h83l-67 -91q78 -35 117 -98zM297 183l163 221q-24 21 -64 21
q-109 0 -109 -160q0 -51 10 -82zM505 265q0 42 -8 76l-162 -218q26 -18 61 -18q109 0 109 160z" />
    <glyph glyph-name="otilde" unicode="&#xf5;" 
d="M289 720q30 0 58 -7t62 -20q36 -13 61 -19.5t54 -6.5q56 0 122 33v-62q-79 -40 -143 -40q-30 0 -58 7t-62 20q-36 13 -61 19.5t-54 6.5q-56 0 -122 -33v62q79 40 143 40zM57.5 415q42.5 64 127.5 99.5t211 35.5t211 -35.5t127.5 -99.5t42.5 -150t-42.5 -150t-127.5 -99.5
t-211 -35.5t-211 35.5t-127.5 99.5t-42.5 150t42.5 150zM396 105q109 0 109 160t-109 160t-109 -160t109 -160z" />
    <glyph glyph-name="oe" unicode="&#x153;" horiz-adv-x="1251" 
d="M871 95q40 0 63.5 19.5t27.5 57.5h264q-16 -92 -104 -142t-246 -50q-142 0 -236 51q-93 -51 -244 -51q-126 0 -211 35.5t-127.5 99.5t-42.5 150t42.5 150t127.5 99.5t211 35.5q151 0 244 -51q94 51 236 51q174 0 265 -67.5t95 -226.5v-28h-465q0 -133 100 -133z
M805.5 418q-25.5 -27 -32.5 -80h192q-4 53 -28 80t-66 27q-40 0 -65.5 -27zM505 265q0 160 -109 160t-109 -160t109 -160t109 160z" />
    <glyph glyph-name="p" unicode="p" 
d="M287 445q83 105 206 105q84 0 148.5 -36t100 -100.5t35.5 -148.5t-35.5 -148.5t-100 -100.5t-148.5 -36q-123 0 -206 105v-235h-262v680h262v-85zM391 115q104 0 104 150t-104 150t-104 -150t104 -150z" />
    <glyph glyph-name="thorn" unicode="&#xfe;" 
d="M287 445q83 105 206 105q84 0 148.5 -36t100 -100.5t35.5 -148.5t-35.5 -148.5t-100 -100.5t-148.5 -36q-123 0 -206 105v-235h-262v850h262v-255zM391 115q104 0 104 150t-104 150t-104 -150t104 -150z" />
    <glyph glyph-name="q" unicode="q" 
d="M50.5 413.5q35.5 64.5 100 100.5t148.5 36q123 0 206 -105v85h262v-680h-262v235q-83 -105 -206 -105q-84 0 -148.5 36t-100 100.5t-35.5 148.5t35.5 148.5zM401 115q104 0 104 150t-104 150t-104 -150t104 -150z" />
    <glyph glyph-name="r" unicode="r" horiz-adv-x="649" 
d="M590.5 489.5q38.5 -60.5 38.5 -164.5v-99h-222v36q0 35 -14.5 54t-42.5 19t-45.5 -19.5t-17.5 -53.5v-262h-262v530h262v-115q77 135 185 135q80 0 118.5 -60.5z" />
    <glyph glyph-name="racute" unicode="&#x155;" horiz-adv-x="649" 
d="M140 592v72l450 56v-72zM590.5 489.5q38.5 -60.5 38.5 -164.5v-99h-222v36q0 35 -14.5 54t-42.5 19t-45.5 -19.5t-17.5 -53.5v-262h-262v530h262v-115q77 135 185 135q80 0 118.5 -60.5z" />
    <glyph glyph-name="rcaron" unicode="&#x159;" horiz-adv-x="649" 
d="M75 648v72l250 -60l250 60v-72l-250 -60zM590.5 489.5q38.5 -60.5 38.5 -164.5v-99h-222v36q0 35 -14.5 54t-42.5 19t-45.5 -19.5t-17.5 -53.5v-262h-262v530h262v-115q77 135 185 135q80 0 118.5 -60.5z" />
    <glyph glyph-name="uni0157" unicode="&#x157;" horiz-adv-x="649" 
d="M590.5 489.5q38.5 -60.5 38.5 -164.5v-99h-222v36q0 35 -14.5 54t-42.5 19t-45.5 -19.5t-17.5 -53.5v-262h-262v530h262v-115q77 135 185 135q80 0 118.5 -60.5zM318 -62v-72l-450 -56v72z" />
    <glyph glyph-name="s" unicode="s" horiz-adv-x="657" 
d="M259 137q0 -29 18 -48t53 -19q37 0 56 13.5t19 31.5q0 20 -19 32t-66 21q-113 21 -174.5 41t-94.5 57t-33 102q0 81 76 131.5t226 50.5q159 0 232 -43.5t73 -125.5h-235q1 5 1 14q0 29 -17 47t-54 18q-31 0 -48 -13.5t-17 -31.5q0 -38 65 -50q123 -22 188.5 -43t99.5 -58
t34 -102q0 -51 -38.5 -92.5t-111.5 -65.5t-172 -24q-159 0 -232 43.5t-73 125.5h245z" />
    <glyph glyph-name="sacute" unicode="&#x15b;" horiz-adv-x="657" 
d="M594 720v-72l-450 -56v72zM259 137q0 -29 18 -48t53 -19q37 0 56 13.5t19 31.5q0 20 -19 32t-66 21q-113 21 -174.5 41t-94.5 57t-33 102q0 81 76 131.5t226 50.5q159 0 232 -43.5t73 -125.5h-235q1 5 1 14q0 29 -17 47t-54 18q-31 0 -48 -13.5t-17 -31.5q0 -38 65 -50
q123 -22 188.5 -43t99.5 -58t34 -102q0 -51 -38.5 -92.5t-111.5 -65.5t-172 -24q-159 0 -232 43.5t-73 125.5h245z" />
    <glyph glyph-name="scaron" unicode="&#x161;" horiz-adv-x="657" 
d="M579 720v-72l-250 -60l-250 60v72l250 -60zM259 137q0 -29 18 -48t53 -19q37 0 56 13.5t19 31.5q0 20 -19 32t-66 21q-113 21 -174.5 41t-94.5 57t-33 102q0 81 76 131.5t226 50.5q159 0 232 -43.5t73 -125.5h-235q1 5 1 14q0 29 -17 47t-54 18q-31 0 -48 -13.5
t-17 -31.5q0 -38 65 -50q123 -22 188.5 -43t99.5 -58t34 -102q0 -51 -38.5 -92.5t-111.5 -65.5t-172 -24q-159 0 -232 43.5t-73 125.5h245z" />
    <glyph glyph-name="scedilla" unicode="&#x15f;" horiz-adv-x="657" 
d="M609 75q-33 -39 -96.5 -64t-150.5 -30q67 -5 99.5 -28t32.5 -68q0 -54 -51 -80.5t-136 -26.5q-39 0 -65 5.5t-41 11t-20 7.5v70q79 -20 130 -20q45 0 72 5.5t27 26.5q0 18 -17.5 27t-51.5 11.5t-98 2.5l34 56q-262 11 -262 168h245l-1 -12q0 -29 18 -48t53 -19
q37 0 56 13.5t19 31.5q0 20 -19 32t-66 21q-113 21 -174.5 41t-94.5 57t-33 102q0 81 76 131.5t226 50.5q159 0 232 -43.5t73 -125.5h-235q1 5 1 14q0 29 -17 47t-54 18q-31 0 -48 -13.5t-17 -31.5q0 -38 65 -50q123 -22 188.5 -43t99.5 -58t34 -102q0 -48 -33 -87z" />
    <glyph glyph-name="scircumflex" unicode="&#x15d;" horiz-adv-x="657" 
d="M329 720l250 -60v-72l-250 60l-250 -60v72zM259 137q0 -29 18 -48t53 -19q37 0 56 13.5t19 31.5q0 20 -19 32t-66 21q-113 21 -174.5 41t-94.5 57t-33 102q0 81 76 131.5t226 50.5q159 0 232 -43.5t73 -125.5h-235q1 5 1 14q0 29 -17 47t-54 18q-31 0 -48 -13.5
t-17 -31.5q0 -38 65 -50q123 -22 188.5 -43t99.5 -58t34 -102q0 -51 -38.5 -92.5t-111.5 -65.5t-172 -24q-159 0 -232 43.5t-73 125.5h245z" />
    <glyph glyph-name="uni0219" unicode="&#x219;" horiz-adv-x="657" 
d="M259 137q0 -29 18 -48t53 -19q37 0 56 13.5t19 31.5q0 20 -19 32t-66 21q-113 21 -174.5 41t-94.5 57t-33 102q0 81 76 131.5t226 50.5q159 0 232 -43.5t73 -125.5h-235q1 5 1 14q0 29 -17 47t-54 18q-31 0 -48 -13.5t-17 -31.5q0 -38 65 -50q123 -22 188.5 -43t99.5 -58
t34 -102q0 -51 -38.5 -92.5t-111.5 -65.5t-172 -24q-159 0 -232 43.5t-73 125.5h245zM494 -62v-72l-450 -56v72z" />
    <glyph glyph-name="germandbls" unicode="&#xdf;" horiz-adv-x="775" 
d="M121 659q96 61 266 61q189 0 268 -56t79 -139q0 -63 -41.5 -102t-92.5 -49q60 -10 110 -52t50 -126q0 -60 -31 -106.5t-91.5 -73t-145.5 -26.5q-105 0 -169 51v107q28 -17 69 -17q43 0 68 26t25 67q0 39 -26.5 61.5t-76.5 22.5h-49v132h49q47 0 72.5 21.5t25.5 59.5
q0 33 -24 53.5t-70 20.5q-45 0 -72 -26.5t-27 -70.5v-498h-262v473q0 125 96 186z" />
    <glyph glyph-name="longs" unicode="&#x17f;" horiz-adv-x="457" 
d="M65.5 626.5q40.5 48.5 106 71t144.5 22.5q34 0 69.5 -4t51.5 -10v-135q-21 3 -48 3q-102 0 -102 -76v-498h-262v503q0 75 40.5 123.5z" />
    <glyph glyph-name="t" unicode="t" horiz-adv-x="587" 
d="M479 119q43 0 93 14v-113q-26 -15 -83 -27.5t-116 -12.5q-124 0 -188.5 49.5t-64.5 147.5v221h-115v132h115l30 170h232v-170h190v-132h-190v-186q0 -93 97 -93z" />
    <glyph glyph-name="tbar" unicode="&#x167;" horiz-adv-x="587" 
d="M518 303v-72h-136v-19q0 -93 97 -93q43 0 93 14v-113q-26 -15 -83 -27.5t-116 -12.5q-124 0 -188.5 49.5t-64.5 147.5v54h-115v72h115v95h-115v132h115l30 170h232v-170h190v-132h-190v-95h136z" />
    <glyph glyph-name="tcaron" unicode="&#x165;" horiz-adv-x="587" 
d="M423 580l35 285h75l-38 -285h-72zM479 119q43 0 93 14v-113q-26 -15 -83 -27.5t-116 -12.5q-124 0 -188.5 49.5t-64.5 147.5v221h-115v132h115l30 170h232v-170h190v-132h-190v-186q0 -93 97 -93z" />
    <glyph glyph-name="uni0163" unicode="&#x163;" horiz-adv-x="587" 
d="M479 119q43 0 93 14v-113q-26 -15 -83 -27.5t-116 -12.5q-30 0 -57 3l-1 -1q74 -3 110 -26.5t36 -70.5q0 -54 -51 -80.5t-136 -26.5q-39 0 -65 5.5t-41 11t-20 7.5v70q79 -20 130 -20q45 0 72 5.5t27 26.5q0 18 -17.5 27t-51.5 11.5t-98 2.5l43 70q-133 41 -133 182v221
h-115v132h115l30 170h232v-170h190v-132h-190v-186q0 -93 97 -93z" />
    <glyph glyph-name="uni021B" unicode="&#x21b;" horiz-adv-x="587" 
d="M479 119q43 0 93 14v-113q-26 -15 -83 -27.5t-116 -12.5q-124 0 -188.5 49.5t-64.5 147.5v221h-115v132h115l30 170h232v-170h190v-132h-190v-186q0 -93 97 -93zM461 -62v-72l-450 -56v72z" />
    <glyph glyph-name="u" unicode="u" horiz-adv-x="764" 
d="M314 175.5q27 -26.5 66 -26.5q28 0 54 14t43 39v328h262v-530h-262v85q-41 -46 -96.5 -75.5t-123.5 -29.5q-110 0 -171 62t-61 178v310h262v-278q0 -50 27 -76.5z" />
    <glyph glyph-name="uacute" unicode="&#xfa;" horiz-adv-x="764" 
d="M650 720v-72l-450 -56v72zM314 175.5q27 -26.5 66 -26.5q28 0 54 14t43 39v328h262v-530h-262v85q-41 -46 -96.5 -75.5t-123.5 -29.5q-110 0 -171 62t-61 178v310h262v-278q0 -50 27 -76.5z" />
    <glyph glyph-name="ubreve" unicode="&#x16d;" horiz-adv-x="764" 
d="M272.5 675.5q58.5 -15.5 112.5 -15.5q53 0 112.5 15.5t112.5 44.5v-72q-53 -29 -112.5 -44.5t-112.5 -15.5q-54 0 -112.5 15.5t-112.5 44.5v72q54 -29 112.5 -44.5zM314 175.5q27 -26.5 66 -26.5q28 0 54 14t43 39v328h262v-530h-262v85q-41 -46 -96.5 -75.5
t-123.5 -29.5q-110 0 -171 62t-61 178v310h262v-278q0 -50 27 -76.5z" />
    <glyph glyph-name="ucircumflex" unicode="&#xfb;" horiz-adv-x="764" 
d="M385 720l250 -60v-72l-250 60l-250 -60v72zM314 175.5q27 -26.5 66 -26.5q28 0 54 14t43 39v328h262v-530h-262v85q-41 -46 -96.5 -75.5t-123.5 -29.5q-110 0 -171 62t-61 178v310h262v-278q0 -50 27 -76.5z" />
    <glyph glyph-name="udieresis" unicode="&#xfc;" horiz-adv-x="764" 
d="M360 693v-72h-262v72h262zM672 693v-72h-262v72h262zM314 175.5q27 -26.5 66 -26.5q28 0 54 14t43 39v328h262v-530h-262v85q-41 -46 -96.5 -75.5t-123.5 -29.5q-110 0 -171 62t-61 178v310h262v-278q0 -50 27 -76.5z" />
    <glyph glyph-name="ugrave" unicode="&#xf9;" horiz-adv-x="764" 
d="M610 664v-72l-450 56v72zM314 175.5q27 -26.5 66 -26.5q28 0 54 14t43 39v328h262v-530h-262v85q-41 -46 -96.5 -75.5t-123.5 -29.5q-110 0 -171 62t-61 178v310h262v-278q0 -50 27 -76.5z" />
    <glyph glyph-name="uhungarumlaut" unicode="&#x171;" horiz-adv-x="764" 
d="M360 720v-72l-356 -56v72zM766 720v-72l-356 -56v72zM314 175.5q27 -26.5 66 -26.5q28 0 54 14t43 39v328h262v-530h-262v85q-41 -46 -96.5 -75.5t-123.5 -29.5q-110 0 -171 62t-61 178v310h262v-278q0 -50 27 -76.5z" />
    <glyph glyph-name="umacron" unicode="&#x16b;" horiz-adv-x="764" 
d="M610 693v-72h-450v72h450zM314 175.5q27 -26.5 66 -26.5q28 0 54 14t43 39v328h262v-530h-262v85q-41 -46 -96.5 -75.5t-123.5 -29.5q-110 0 -171 62t-61 178v310h262v-278q0 -50 27 -76.5z" />
    <glyph glyph-name="uogonek" unicode="&#x173;" horiz-adv-x="764" 
d="M549.5 -17.5q-46.5 -13.5 -82.5 -35.5t-36 -48q0 -19 25.5 -31.5t110.5 -12.5q50 0 101 8.5t71 17.5v-70q-23 -13 -80 -21t-92 -8q-97 0 -162 26.5t-65 88.5q0 40 43.5 72.5t93.5 45.5v70q-41 -46 -96.5 -75.5t-123.5 -29.5q-110 0 -171 62t-61 178v310h262v-278
q0 -50 27 -76.5t66 -26.5q28 0 54 14t43 39v328h262v-530h-112q-31 -4 -77.5 -17.5z" />
    <glyph glyph-name="uring" unicode="&#x16f;" horiz-adv-x="764" 
d="M175 703.5q29 21.5 83 34t127 12.5t127 -12.5t82.5 -34t28.5 -47.5t-28.5 -48t-82.5 -35t-127 -13t-127 13t-83 35t-29 48t29 47.5zM263.5 632q45.5 -10 121.5 -10t121 10t45 24q0 13 -45 22.5t-121 9.5t-121.5 -9.5t-45.5 -22.5q0 -14 45.5 -24zM314 175.5
q27 -26.5 66 -26.5q28 0 54 14t43 39v328h262v-530h-262v85q-41 -46 -96.5 -75.5t-123.5 -29.5q-110 0 -171 62t-61 178v310h262v-278q0 -50 27 -76.5z" />
    <glyph glyph-name="utilde" unicode="&#x169;" horiz-adv-x="764" 
d="M278 720q30 0 58 -7t62 -20q36 -13 61 -19.5t54 -6.5q56 0 122 33v-62q-79 -40 -143 -40q-30 0 -58 7t-62 20q-36 13 -61 19.5t-54 6.5q-56 0 -122 -33v62q79 40 143 40zM314 175.5q27 -26.5 66 -26.5q28 0 54 14t43 39v328h262v-530h-262v85q-41 -46 -96.5 -75.5
t-123.5 -29.5q-110 0 -171 62t-61 178v310h262v-278q0 -50 27 -76.5z" />
    <glyph glyph-name="v" unicode="v" horiz-adv-x="772" 
d="M537 0h-302l-235 530h296l130 -319l111 319h235z" />
    <glyph glyph-name="w" unicode="w" horiz-adv-x="1162" 
d="M276 530l111 -273l90 273h269l111 -273l90 273h215l-215 -530h-262l-109 282l-109 -282h-252l-215 530h276z" />
    <glyph glyph-name="wacute" unicode="&#x1e83;" horiz-adv-x="1162" 
d="M846 720v-72l-450 -56v72zM276 530l111 -273l90 273h269l111 -273l90 273h215l-215 -530h-262l-109 282l-109 -282h-252l-215 530h276z" />
    <glyph glyph-name="wcircumflex" unicode="&#x175;" horiz-adv-x="1162" 
d="M581 720l250 -60v-72l-250 60l-250 -60v72zM276 530l111 -273l90 273h269l111 -273l90 273h215l-215 -530h-262l-109 282l-109 -282h-252l-215 530h276z" />
    <glyph glyph-name="wdieresis" unicode="&#x1e85;" horiz-adv-x="1162" 
d="M556 693v-72h-262v72h262zM868 693v-72h-262v72h262zM276 530l111 -273l90 273h269l111 -273l90 273h215l-215 -530h-262l-109 282l-109 -282h-252l-215 530h276z" />
    <glyph glyph-name="wgrave" unicode="&#x1e81;" horiz-adv-x="1162" 
d="M806 664v-72l-450 56v72zM276 530l111 -273l90 273h269l111 -273l90 273h215l-215 -530h-262l-109 282l-109 -282h-252l-215 530h276z" />
    <glyph glyph-name="x" unicode="x" horiz-adv-x="814" 
d="M15 530h330l91 -116l76 116h282l-227 -256l237 -274h-340l-85 119l-97 -119h-272l234 264z" />
    <glyph glyph-name="y" unicode="y" horiz-adv-x="772" 
d="M450 -150h-261l46 148l-235 532h296l121 -328l130 328h225z" />
    <glyph glyph-name="yacute" unicode="&#xfd;" horiz-adv-x="772" 
d="M201 592v72l450 56v-72zM450 -150h-261l46 148l-235 532h296l121 -328l130 328h225z" />
    <glyph glyph-name="ycircumflex" unicode="&#x177;" horiz-adv-x="772" 
d="M136 588v72l250 60l250 -60v-72l-250 60zM450 -150h-261l46 148l-235 532h296l121 -328l130 328h225z" />
    <glyph glyph-name="ydieresis" unicode="&#xff;" horiz-adv-x="772" 
d="M99 621v72h262v-72h-262zM411 621v72h262v-72h-262zM450 -150h-261l46 148l-235 532h296l121 -328l130 328h225z" />
    <glyph glyph-name="ygrave" unicode="&#x1ef3;" horiz-adv-x="772" 
d="M161 648v72l450 -56v-72zM450 -150h-261l46 148l-235 532h296l121 -328l130 328h225z" />
    <glyph glyph-name="z" unicode="z" horiz-adv-x="647" 
d="M266 388h-246v142h607v-142l-260 -246h265v-142h-617v162z" />
    <glyph glyph-name="zacute" unicode="&#x17a;" horiz-adv-x="647" 
d="M589 720v-72l-450 -56v72zM266 388h-246v142h607v-142l-260 -246h265v-142h-617v162z" />
    <glyph glyph-name="zcaron" unicode="&#x17e;" horiz-adv-x="647" 
d="M574 720v-72l-250 -60l-250 60v72l250 -60zM266 388h-246v142h607v-142l-260 -246h265v-142h-617v162z" />
    <glyph glyph-name="zdotaccent" unicode="&#x17c;" horiz-adv-x="647" 
d="M455 693v-72h-262v72h262zM266 388h-246v142h607v-142l-260 -246h265v-142h-617v162z" />
    <glyph glyph-name="f_i.salt" horiz-adv-x="865" 
d="M578 338h-191v-338h-262v338h-115v132h115v33q0 75 40.5 123.5t106 71t144.5 22.5q34 0 69.5 -4t51.5 -10v-135q-21 3 -48 3q-102 0 -102 -76v-28h453v-470h-262v338zM603.5 539q-35.5 30 -35.5 76t35.5 75.5t105.5 29.5t105.5 -29.5t35.5 -75.5t-35.5 -76t-105.5 -30
t-105.5 30z" />
    <glyph glyph-name="ordfeminine" unicode="&#xaa;" horiz-adv-x="482" 
d="M61 663.5q46 46.5 121 46.5q73 0 121 -62v52h154v-315h-154v52q-48 -62 -121 -62q-75 0 -121 46.5t-46 120.5q0 75 46 121.5zM247 464q56 0 56 78q0 79 -56 79t-56 -79q0 -78 56 -78z" />
    <glyph glyph-name="ordmasculine" unicode="&#xba;" horiz-adv-x="478" 
d="M70.5 664.5q55.5 45.5 162.5 45.5q113 0 171.5 -45t58.5 -123q0 -77 -57 -122t-167 -45t-167 45t-57 122t55.5 122.5zM198.5 478.5q13.5 -20.5 40.5 -20.5t40.5 20.5t13.5 63.5q0 44 -13 64t-41 20t-41 -20t-13 -64q0 -43 13.5 -63.5z" />
    <glyph glyph-name="uni0394" unicode="&#x394;" horiz-adv-x="937" 
d="M0 0l270 700h395l272 -700h-937zM419 539l-113 -357h231z" />
    <glyph glyph-name="uni03A9" unicode="&#x3a9;" horiz-adv-x="974" 
d="M63 259.5q-48 58.5 -48 140.5q0 96 58 168.5t165 112t249 39.5t249 -39.5t165 -112t58 -168.5q0 -82 -48 -140.5t-140 -97.5h188v-162h-412v162q89 98 89 218q0 101 -38 152t-111 51t-111 -51t-38 -152q0 -120 89 -218v-162h-412v162h188q-92 39 -140 97.5z" />
    <glyph glyph-name="pi" unicode="&#x3c0;" horiz-adv-x="894" 
d="M15 398v132h864v-132h-75v-398h-262v398h-190v-398h-262v398h-75z" />
    <glyph glyph-name="zero" unicode="0" horiz-adv-x="828" 
d="M62.5 549q47.5 83 137 127t214.5 44t214.5 -44t137 -127t47.5 -199t-47.5 -199t-137 -127t-214.5 -44t-214.5 44t-137 127t-47.5 199t47.5 199zM306 205.5q11 -51.5 36.5 -73.5t71.5 -22t71.5 22t36.5 73.5t11 144.5t-11 144.5t-36.5 73.5t-71.5 22t-71.5 -22
t-36.5 -73.5t-11 -144.5t11 -144.5z" />
    <glyph glyph-name="one" unicode="1" horiz-adv-x="592" 
d="M567 0h-282v472l-275 -70v172l275 80v46h282v-700z" />
    <glyph glyph-name="two" unicode="2" horiz-adv-x="750" 
d="M268 273.5q88 50.5 127.5 101t39.5 112.5q0 50 -20 76.5t-59 26.5q-41 0 -60.5 -32t-19.5 -88q0 -43 11 -96h-259q-6 28 -9.5 50.5t-3.5 51.5q0 68 36.5 123t116 88t202.5 33q184 0 274.5 -62t90.5 -169q0 -58 -19 -101.5t-68.5 -81t-140.5 -72.5l-189 -72h393v-162h-685
v162q154 61 242 111.5z" />
    <glyph glyph-name="three" unicode="3" horiz-adv-x="774" 
d="M278 204q0 -50 24.5 -77t70.5 -27q42 0 66.5 23t24.5 62q0 41 -25.5 64t-70.5 23h-58v148h58q45 0 70.5 23t25.5 64q0 44 -23.5 68.5t-67.5 24.5q-47 0 -71 -30t-24 -80q0 -10 2 -30h-265q0 260 380 260q168 0 261 -52.5t93 -150.5q0 -65 -47 -112.5t-132 -59.5
q88 -9 141 -51.5t53 -108.5q0 -98 -97 -151.5t-272 -53.5q-135 0 -217.5 23.5t-122.5 78.5t-40 149h265q-2 -20 -2 -27z" />
    <glyph glyph-name="four" unicode="4" horiz-adv-x="761" 
d="M674 124v-124h-272v124h-392v170l329 406h335v-428h77v-148h-77zM402 546l-181 -274h181v274z" />
    <glyph glyph-name="five" unicode="5" horiz-adv-x="740" 
d="M595.5 442.5q62.5 -27.5 98.5 -81t36 -128.5q0 -114 -88.5 -183.5t-283.5 -69.5q-187 0 -270 61.5t-83 159.5v10h265q0 -111 88 -111q53 0 76.5 36.5t23.5 86.5t-22.5 86t-76.5 36q-37 0 -58.5 -19.5t-30.5 -45.5h-241v420h660v-162h-408v-111q77 43 171 43
q81 0 143.5 -27.5z" />
    <glyph glyph-name="six" unicode="6" 
d="M474 434q140 0 221.5 -52.5t81.5 -161.5q0 -70 -45.5 -124.5t-130 -85t-197.5 -30.5q-203 0 -296 92t-93 278q0 173 101.5 271.5t302.5 98.5q123 0 198.5 -32.5t107.5 -84.5t32 -114h-265q0 59 -21 85t-72 26q-52 0 -79.5 -43.5t-27.5 -140.5q96 18 182 18zM478.5 131.5
q25.5 31.5 25.5 78.5q0 50 -29.5 74t-94.5 24q-34 0 -88 -8q-2 -75 8 -118.5t34 -62.5t65 -19q54 0 79.5 31.5z" />
    <glyph glyph-name="seven" unicode="7" horiz-adv-x="726" 
d="M153.5 166q68.5 107 153 212t150.5 160h-447v162h706v-143q-121 -138 -192 -267.5t-126 -289.5h-333q20 59 88.5 166z" />
    <glyph glyph-name="eight" unicode="8" horiz-adv-x="838" 
d="M69.5 311.5q59.5 41.5 134.5 53.5q-64 14 -106.5 52.5t-42.5 99.5q0 56 42.5 102t124.5 73.5t197 27.5q117 0 199 -27.5t123.5 -73.5t41.5 -102q0 -61 -42.5 -99.5t-106.5 -52.5q75 -12 134.5 -53.5t59.5 -120.5q0 -105 -106 -158t-303 -53q-200 0 -304.5 53t-104.5 158
q0 79 59.5 120.5zM342.5 435.5q28.5 -27.5 76.5 -27.5t76.5 27.5t28.5 67.5q0 41 -28.5 69t-76.5 28t-76.5 -28t-28.5 -69q0 -40 28.5 -67.5zM336.5 127.5q31.5 -27.5 82.5 -27.5q52 0 83 27.5t31 67.5q0 44 -31 73.5t-83 29.5q-51 0 -82.5 -29.5t-31.5 -73.5
q0 -40 31.5 -67.5z" />
    <glyph glyph-name="nine" unicode="9" horiz-adv-x="787" 
d="M679 628q93 -92 93 -278q0 -173 -101.5 -271.5t-302.5 -98.5q-123 0 -198.5 32.5t-107.5 84.5t-32 114h265q0 -59 21 -85t72 -26q52 0 79.5 43.5t27.5 140.5q-96 -18 -182 -18q-140 0 -221.5 52.5t-81.5 161.5q0 70 45.5 124.5t130 85t197.5 30.5q203 0 296 -92z
M312.5 416q29.5 -24 94.5 -24q34 0 88 8q2 75 -8 118.5t-34 62.5t-65 19q-54 0 -79.5 -31.5t-25.5 -78.5q0 -50 29.5 -74z" />
    <glyph glyph-name="zero.zero" horiz-adv-x="828" 
d="M628.5 676q89.5 -44 137 -127t47.5 -199t-47.5 -199t-137 -127t-214.5 -44t-214.5 44t-137 127t-47.5 199t47.5 199t137 127t214.5 44t214.5 -44zM342.5 568q-25.5 -22 -36.5 -73.5t-11 -144.5v-27l184 250q-24 17 -65 17q-46 0 -71.5 -22zM485.5 132q25.5 22 36.5 73.5
t11 144.5v27l-184 -250q24 -17 65 -17q46 0 71.5 22z" />
    <glyph glyph-name="zero.tf" horiz-adv-x="830" 
d="M63.5 549q47.5 83 137 127t214.5 44t214.5 -44t137 -127t47.5 -199t-47.5 -199t-137 -127t-214.5 -44t-214.5 44t-137 127t-47.5 199t47.5 199zM307 205.5q11 -51.5 36.5 -73.5t71.5 -22t71.5 22t36.5 73.5t11 144.5t-11 144.5t-36.5 73.5t-71.5 22t-71.5 -22
t-36.5 -73.5t-11 -144.5t11 -144.5z" />
    <glyph glyph-name="one.tf" horiz-adv-x="830" 
d="M791 0h-752v148h275v324l-275 -70v172l275 80v46h282v-552h195v-148z" />
    <glyph glyph-name="two.tf" horiz-adv-x="830" 
d="M308 273.5q88 50.5 127.5 101t39.5 112.5q0 50 -20 76.5t-59 26.5q-41 0 -60.5 -32t-19.5 -88q0 -43 11 -96h-259q-6 28 -9.5 50.5t-3.5 51.5q0 68 36.5 123t116 88t202.5 33q184 0 274.5 -62t90.5 -169q0 -58 -19 -101.5t-68.5 -81t-140.5 -72.5l-189 -72h393v-162h-685
v162q154 61 242 111.5z" />
    <glyph glyph-name="three.tf" horiz-adv-x="830" 
d="M304 204q0 -50 24.5 -77t70.5 -27q42 0 66.5 23t24.5 62q0 41 -25.5 64t-70.5 23h-58v148h58q45 0 70.5 23t25.5 64q0 44 -23.5 68.5t-67.5 24.5q-47 0 -71 -30t-24 -80q0 -10 2 -30h-265q0 260 380 260q168 0 261 -52.5t93 -150.5q0 -65 -47 -112.5t-132 -59.5
q88 -9 141 -51.5t53 -108.5q0 -98 -97 -151.5t-272 -53.5q-135 0 -217.5 23.5t-122.5 78.5t-40 149h265q-2 -20 -2 -27z" />
    <glyph glyph-name="four.tf" horiz-adv-x="830" 
d="M714 124v-124h-272v124h-392v170l329 406h335v-428h77v-148h-77zM442 546l-181 -274h181v274z" />
    <glyph glyph-name="five.tf" horiz-adv-x="830" 
d="M648.5 442.5q62.5 -27.5 98.5 -81t36 -128.5q0 -114 -88.5 -183.5t-283.5 -69.5q-187 0 -270 61.5t-83 159.5v10h265q0 -111 88 -111q53 0 76.5 36.5t23.5 86.5t-22.5 86t-76.5 36q-37 0 -58.5 -19.5t-30.5 -45.5h-241v420h660v-162h-408v-111q77 43 171 43
q81 0 143.5 -27.5z" />
    <glyph glyph-name="six.tf" horiz-adv-x="830" 
d="M493 434q140 0 221.5 -52.5t81.5 -161.5q0 -70 -45.5 -124.5t-130 -85t-197.5 -30.5q-203 0 -296 92t-93 278q0 173 101.5 271.5t302.5 98.5q123 0 198.5 -32.5t107.5 -84.5t32 -114h-265q0 59 -21 85t-72 26q-52 0 -79.5 -43.5t-27.5 -140.5q96 18 182 18zM497.5 131.5
q25.5 31.5 25.5 78.5q0 50 -29.5 74t-94.5 24q-34 0 -88 -8q-2 -75 8 -118.5t34 -62.5t65 -19q54 0 79.5 31.5z" />
    <glyph glyph-name="seven.tf" horiz-adv-x="830" 
d="M210.5 166q68.5 107 153 212t150.5 160h-447v162h706v-143q-121 -138 -192 -267.5t-126 -289.5h-333q20 59 88.5 166z" />
    <glyph glyph-name="eight.tf" horiz-adv-x="830" 
d="M60.5 311.5q59.5 41.5 134.5 53.5q-64 14 -106.5 52.5t-42.5 99.5q0 56 42.5 102t124.5 73.5t197 27.5q117 0 199 -27.5t123.5 -73.5t41.5 -102q0 -61 -42.5 -99.5t-106.5 -52.5q75 -12 134.5 -53.5t59.5 -120.5q0 -105 -106 -158t-303 -53q-200 0 -304.5 53t-104.5 158
q0 79 59.5 120.5zM333.5 435.5q28.5 -27.5 76.5 -27.5t76.5 27.5t28.5 67.5q0 41 -28.5 69t-76.5 28t-76.5 -28t-28.5 -69q0 -40 28.5 -67.5zM327.5 127.5q31.5 -27.5 82.5 -27.5q52 0 83 27.5t31 67.5q0 44 -31 73.5t-83 29.5q-51 0 -82.5 -29.5t-31.5 -73.5
q0 -40 31.5 -67.5z" />
    <glyph glyph-name="nine.tf" horiz-adv-x="830" 
d="M698 628q93 -92 93 -278q0 -173 -101.5 -271.5t-302.5 -98.5q-123 0 -198.5 32.5t-107.5 84.5t-32 114h265q0 -59 21 -85t72 -26q52 0 79.5 43.5t27.5 140.5q-96 -18 -182 -18q-140 0 -221.5 52.5t-81.5 161.5q0 70 45.5 124.5t130 85t197.5 30.5q203 0 296 -92z
M331.5 416q29.5 -24 94.5 -24q34 0 88 8q2 75 -8 118.5t-34 62.5t-65 19q-54 0 -79.5 -31.5t-25.5 -78.5q0 -50 29.5 -74z" />
    <glyph glyph-name="zero.tf.zero" horiz-adv-x="830" 
d="M629.5 676q89.5 -44 137 -127t47.5 -199t-47.5 -199t-137 -127t-214.5 -44t-214.5 44t-137 127t-47.5 199t47.5 199t137 127t214.5 44t214.5 -44zM343.5 568q-25.5 -22 -36.5 -73.5t-11 -144.5v-27l184 250q-24 17 -65 17q-46 0 -71.5 -22zM486.5 132q25.5 22 36.5 73.5
t11 144.5v27l-184 -250q24 -17 65 -17q46 0 71.5 22z" />
    <glyph glyph-name="uni00B9" unicode="&#xb9;" horiz-adv-x="334" 
d="M304 350h-161v216l-138 -35v106l138 40v23h161v-350z" />
    <glyph glyph-name="uni00B2" unicode="&#xb2;" horiz-adv-x="451" 
d="M166.5 503q44.5 19 64 38.5t19.5 47.5q0 46 -36 46q-35 0 -35 -52q0 -20 6 -46h-158q-1 5 -4 19.5t-3 31.5q0 53 49.5 87.5t153.5 34.5q105 0 156.5 -31t51.5 -84q0 -29 -10.5 -49t-38.5 -36.5t-81 -32.5l-88 -26h205v-101h-392v101q96 33 140.5 52z" />
    <glyph glyph-name="uni00B3" unicode="&#xb3;" horiz-adv-x="468" 
d="M180 453q0 -43 45 -43q19 0 30.5 10t11.5 26t-12 25.5t-33 9.5h-33v84h33q21 0 33 9.5t12 27.5t-11 28t-31 10q-25 0 -36.5 -16t-7.5 -42l-161 -2q0 130 217 130q96 0 149 -26t53 -75q0 -33 -27 -56.5t-75 -29.5q50 -5 80.5 -26t30.5 -54q0 -49 -55.5 -76t-155.5 -27
q-115 0 -166 28t-51 98l161 -1q-1 -4 -1 -12z" />
    <glyph glyph-name="fraction" unicode="&#x2044;" horiz-adv-x="782" 
d="M792 700l-616 -700h-186l616 700h186z" />
    <glyph glyph-name="onehalf" unicode="&#xbd;" horiz-adv-x="952" 
d="M5 531v106l138 40v23h161v-350h-161v216zM234 0h-186l616 700h186zM919 0h-392v101q96 33 140.5 52t64 38.5t19.5 47.5q0 46 -36 46q-35 0 -35 -52q0 -20 6 -46h-158q-1 5 -4 19.5t-3 31.5q0 53 49.5 87.5t153.5 34.5q105 0 156.5 -31t51.5 -84q0 -29 -10.5 -49
t-38.5 -36.5t-81 -32.5l-88 -26h205v-101z" />
    <glyph glyph-name="onequarter" unicode="&#xbc;" horiz-adv-x="893" 
d="M5 531v106l138 40v23h161v-350h-161v216zM242 0h-186l616 700h186zM839 57v-57h-165v57h-214v90l188 203h191v-209h44v-84h-44zM674 247l-80 -106h80v106z" />
    <glyph glyph-name="threequarters" unicode="&#xbe;" horiz-adv-x="942" 
d="M392.5 367q-55.5 -27 -155.5 -27q-115 0 -166 28t-51 98l161 -1q-1 -4 -1 -12q0 -43 45 -43q19 0 30.5 10t11.5 26t-12 25.5t-33 9.5h-33v84h33q21 0 33 9.5t12 27.5t-11 28t-31 10q-25 0 -36.5 -16t-7.5 -42l-161 -2q0 130 217 130q96 0 149 -26t53 -75q0 -33 -27 -56.5
t-75 -29.5q50 -5 80.5 -26t30.5 -54q0 -49 -55.5 -76zM309 0h-186l616 700h186zM888 57v-57h-165v57h-214v90l188 203h191v-209h44v-84h-44zM723 247l-80 -106h80v106z" />
    <glyph glyph-name="period" unicode="." horiz-adv-x="338" 
d="M57 23.5q42 -33.5 112 -33.5t112 33.5t42 82.5q0 48 -42 81t-112 33t-112 -33t-42 -81q0 -49 42 -82.5z" />
    <glyph glyph-name="comma" unicode="," horiz-adv-x="278" 
d="M18.5 -2.5q5.5 89.5 5.5 167.5h239q0 -78 -15 -169t-35 -156h-208q8 68 13.5 157.5z" />
    <glyph glyph-name="colon" unicode=":" horiz-adv-x="338" 
d="M57 343.5q42 -33.5 112 -33.5t112 33.5t42 82.5q0 48 -42 81t-112 33t-112 -33t-42 -81q0 -49 42 -82.5zM57 23.5q42 -33.5 112 -33.5t112 33.5t42 82.5q0 48 -42 81t-112 33t-112 -33t-42 -81q0 -49 42 -82.5z" />
    <glyph glyph-name="semicolon" unicode=";" horiz-adv-x="338" 
d="M57 343.5q42 -33.5 112 -33.5t112 33.5t42 82.5q0 48 -42 81t-112 33t-112 -33t-42 -81q0 -49 42 -82.5zM43.5 -2.5q5.5 89.5 5.5 167.5h239q0 -78 -15 -169t-35 -156h-208q8 68 13.5 157.5z" />
    <glyph glyph-name="ellipsis" unicode="&#x2026;" horiz-adv-x="1054" 
d="M57 23.5q42 -33.5 112 -33.5t112 33.5t42 82.5q0 48 -42 81t-112 33t-112 -33t-42 -81q0 -49 42 -82.5zM415 23.5q42 -33.5 112 -33.5t112 33.5t42 82.5q0 48 -42 81t-112 33t-112 -33t-42 -81q0 -49 42 -82.5zM773 23.5q42 -33.5 112 -33.5t112 33.5t42 82.5
q0 48 -42 81t-112 33t-112 -33t-42 -81q0 -49 42 -82.5z" />
    <glyph glyph-name="exclam" unicode="!" horiz-adv-x="348" 
d="M295 250h-242l-10 450h262zM62 13.5q42 -33.5 112 -33.5t112 33.5t42 82.5q0 48 -42 81t-112 33t-112 -33t-42 -81q0 -49 42 -82.5z" />
    <glyph glyph-name="exclamdown" unicode="&#xa1;" horiz-adv-x="348" 
d="M62 373q42 -33 112 -33t112 33t42 81q0 49 -42 82.5t-112 33.5t-112 -33.5t-42 -82.5q0 -48 42 -81zM295 300l10 -450h-262l10 450h242z" />
    <glyph glyph-name="question" unicode="?" horiz-adv-x="703" 
d="M249 333q12 26 30 41t47 32q38 24 57.5 46.5t19.5 64.5q0 36 -18.5 54.5t-50.5 18.5q-38 0 -56.5 -25.5t-18.5 -69.5q0 -27 8 -64h-246q-6 33 -6 63q0 226 335 226q183 0 260.5 -54.5t77.5 -156.5q0 -56 -21.5 -91.5t-52 -54t-78.5 -38.5q-48 -19 -70.5 -36t-22.5 -48
h-206v27q0 39 12 65zM226 13.5q42 -33.5 112 -33.5t112 33.5t42 82.5q0 48 -42 81t-112 33t-112 -33t-42 -81q0 -49 42 -82.5z" />
    <glyph glyph-name="questiondown" unicode="&#xbf;" horiz-adv-x="703" 
d="M477 536.5q-42 33.5 -112 33.5t-112 -33.5t-42 -82.5q0 -48 42 -81t112 -33t112 33t42 81q0 49 -42 82.5zM454 217q-12 -26 -30 -41t-47 -32q-38 -24 -57.5 -46.5t-19.5 -64.5q0 -36 18.5 -54.5t50.5 -18.5q38 0 56.5 25.5t18.5 69.5q0 27 -8 64h246q6 -33 6 -63
q0 -226 -335 -226q-183 0 -260.5 54.5t-77.5 156.5q0 56 21.5 91.5t52 54t78.5 38.5q48 19 70.5 36t22.5 48h206v-27q0 -39 -12 -65z" />
    <glyph glyph-name="bullet" unicode="&#x2022;" horiz-adv-x="564" 
d="M57 482q32 56 90 85.5t135 29.5t135 -29.5t90 -85.5t32 -132t-32 -132t-90 -85.5t-135 -29.5t-135 29.5t-90 85.5t-32 132t32 132z" />
    <glyph glyph-name="asterisk" unicode="*" horiz-adv-x="370" 
d="M52 406l-37 63l104 56l-104 56l37 63l97 -60v116h72v-116l97 60l37 -63l-104 -56l104 -56l-37 -63l-97 60v-116h-72v116z" />
    <glyph glyph-name="numbersign" unicode="#" horiz-adv-x="901" 
d="M634 288h149l-63 -198h-149l-28 -90h-125l28 90h-155l-28 -90h-125l28 90h-151l63 198h151l38 124h-149l63 198h149l28 90h125l-28 -90h155l28 90h125l-28 -90h151l-63 -198h-151zM392 412l-38 -124h155l38 124h-155z" />
    <glyph glyph-name="slash" unicode="/" horiz-adv-x="729" 
d="M714 700l-427 -700h-272l427 700h272z" />
    <glyph glyph-name="backslash" unicode="\" horiz-adv-x="729" 
d="M287 700l427 -700h-272l-427 700h272z" />
    <glyph glyph-name="exclamdown.case" horiz-adv-x="348" 
d="M62 523q42 -33 112 -33t112 33t42 81q0 49 -42 82.5t-112 33.5t-112 -33.5t-42 -82.5q0 -48 42 -81zM295 450l10 -450h-262l10 450h242z" />
    <glyph glyph-name="questiondown.case" horiz-adv-x="703" 
d="M477 686.5q-42 33.5 -112 33.5t-112 -33.5t-42 -82.5q0 -48 42 -81t112 -33t112 33t42 81q0 49 -42 82.5zM454 367q-12 -26 -30 -41t-47 -32q-38 -24 -57.5 -46.5t-19.5 -64.5q0 -36 18.5 -54.5t50.5 -18.5q38 0 56.5 25.5t18.5 69.5q0 27 -8 64h246q6 -33 6 -63
q0 -226 -335 -226q-183 0 -260.5 54.5t-77.5 156.5q0 56 21.5 91.5t52 54t78.5 38.5q48 19 70.5 36t22.5 48h206v-27q0 -39 -12 -65z" />
    <glyph glyph-name="periodcentered.case" horiz-adv-x="338" 
d="M57 268.5q42 -33.5 112 -33.5t112 33.5t42 82.5q0 48 -42 81t-112 33t-112 -33t-42 -81q0 -49 42 -82.5z" />
    <glyph glyph-name="parenleft" unicode="(" horiz-adv-x="376" 
d="M56 125q-36 108 -36 225t36 225t105 200h215q-47 -86 -70.5 -206.5t-23.5 -218.5t23.5 -218.5t70.5 -206.5h-215q-69 92 -105 200z" />
    <glyph glyph-name="parenright" unicode=")" horiz-adv-x="376" 
d="M70.5 131.5q23.5 120.5 23.5 218.5t-23.5 218.5t-70.5 206.5h215q69 -92 105 -200t36 -225t-36 -225t-105 -200h-215q47 86 70.5 206.5z" />
    <glyph glyph-name="braceleft" unicode="{" horiz-adv-x="405" 
d="M55 424.5q17 8.5 23.5 27.5t6.5 55v20q0 248 252 248h58v-132q-29 0 -43.5 -16.5t-14.5 -53.5v-81q0 -69 -35.5 -105.5t-95.5 -36.5q60 0 95.5 -36.5t35.5 -105.5v-81q0 -37 14.5 -53.5t43.5 -16.5v-132h-58q-252 0 -252 248v20q0 36 -6.5 55t-23.5 27.5t-50 8.5v132
q33 0 50 8.5z" />
    <glyph glyph-name="braceright" unicode="}" horiz-adv-x="405" 
d="M53.5 73.5q14.5 16.5 14.5 53.5v81q0 69 35.5 105.5t95.5 36.5q-60 0 -95.5 36.5t-35.5 105.5v81q0 37 -14.5 53.5t-43.5 16.5v132h58q252 0 252 -248v-20q0 -36 6.5 -55t23.5 -27.5t50 -8.5v-132q-33 0 -50 -8.5t-23.5 -27.5t-6.5 -55v-20q0 -248 -252 -248h-58v132
q29 0 43.5 16.5z" />
    <glyph glyph-name="bracketleft" unicode="[" horiz-adv-x="379" 
d="M369 775v-132h-92v-586h92v-132h-344v850h344z" />
    <glyph glyph-name="bracketright" unicode="]" horiz-adv-x="379" 
d="M102 57v586h-92v132h344v-850h-344v132h92z" />
    <glyph glyph-name="hyphen" unicode="-" horiz-adv-x="380" 
d="M360 200h-340v182h340v-182z" />
    <glyph glyph-name="endash" unicode="&#x2013;" horiz-adv-x="500" 
d="M480 200h-460v182h460v-182z" />
    <glyph glyph-name="emdash" unicode="&#x2014;" horiz-adv-x="1000" 
d="M980 200h-960v182h960v-182z" />
    <glyph glyph-name="underscore" unicode="_" horiz-adv-x="750" 
d="M730 -190h-710v170h710v-170z" />
    <glyph glyph-name="hyphen.case" horiz-adv-x="380" 
d="M360 260h-340v182h340v-182z" />
    <glyph glyph-name="endash.case" horiz-adv-x="500" 
d="M480 260h-460v182h460v-182z" />
    <glyph glyph-name="emdash.case" horiz-adv-x="1000" 
d="M980 260h-960v182h960v-182z" />
    <glyph glyph-name="quotesinglbase" unicode="&#x201a;" horiz-adv-x="278" 
d="M18.5 -2.5q5.5 89.5 5.5 167.5h239q0 -78 -15 -169t-35 -156h-208q8 68 13.5 157.5z" />
    <glyph glyph-name="quotedblbase" unicode="&#x201e;" horiz-adv-x="503" 
d="M18.5 -2.5q5.5 89.5 5.5 167.5h214q0 -78 -15 -169t-35 -156h-183q8 68 13.5 157.5zM268.5 -2.5q5.5 89.5 5.5 167.5h214q0 -78 -15 -169t-35 -156h-183q8 68 13.5 157.5z" />
    <glyph glyph-name="quotedblleft" unicode="&#x201c;" horiz-adv-x="503" 
d="M229.5 607.5q-5.5 -89.5 -5.5 -167.5h-214q0 78 15 169t35 156h183q-8 -68 -13.5 -157.5zM479.5 607.5q-5.5 -89.5 -5.5 -167.5h-214q0 78 15 169t35 156h183q-8 -68 -13.5 -157.5z" />
    <glyph glyph-name="quotedblright" unicode="&#x201d;" horiz-adv-x="503" 
d="M23.5 597.5q5.5 89.5 5.5 167.5h214q0 -78 -15 -169t-35 -156h-183q8 68 13.5 157.5zM273.5 597.5q5.5 89.5 5.5 167.5h214q0 -78 -15 -169t-35 -156h-183q8 68 13.5 157.5z" />
    <glyph glyph-name="quoteleft" unicode="&#x2018;" horiz-adv-x="278" 
d="M254.5 607.5q-5.5 -89.5 -5.5 -167.5h-239q0 78 15 169t35 156h208q-8 -68 -13.5 -157.5z" />
    <glyph glyph-name="quoteright" unicode="&#x2019;" horiz-adv-x="278" 
d="M23.5 597.5q5.5 89.5 5.5 167.5h239q0 -78 -15 -169t-35 -156h-208q8 68 13.5 157.5z" />
    <glyph glyph-name="guillemotleft" unicode="&#xab;" horiz-adv-x="635" 
d="M124 480h215l-103 -215l103 -215h-215l-104 215zM400 480h215l-103 -215l103 -215h-215l-104 215z" />
    <glyph glyph-name="guillemotright" unicode="&#xbb;" horiz-adv-x="635" 
d="M123 265l-103 215h215l104 -215l-104 -215h-215zM399 265l-103 215h215l104 -215l-104 -215h-215z" />
    <glyph glyph-name="guilsinglleft" unicode="&#x2039;" horiz-adv-x="397" 
d="M132 495h245l-111 -230l111 -230h-245l-112 230z" />
    <glyph glyph-name="guilsinglright" unicode="&#x203a;" horiz-adv-x="397" 
d="M131 265l-111 230h245l112 -230l-112 -230h-245z" />
    <glyph glyph-name="quotedbl" unicode="&#x22;" horiz-adv-x="540" 
d="M250 765l-40 -325h-150l-40 325h230zM520 765l-40 -325h-150l-40 325h230z" />
    <glyph glyph-name="quotesingle" unicode="'" horiz-adv-x="270" 
d="M250 765l-40 -325h-150l-40 325h230z" />
    <glyph glyph-name="guillemotleft.case" horiz-adv-x="635" 
d="M124 565h215l-103 -215l103 -215h-215l-104 215zM400 565h215l-103 -215l103 -215h-215l-104 215z" />
    <glyph glyph-name="guillemotright.case" horiz-adv-x="635" 
d="M123 350l-103 215h215l104 -215l-104 -215h-215zM399 350l-103 215h215l104 -215l-104 -215h-215z" />
    <glyph glyph-name="guilsinglleft.case" horiz-adv-x="397" 
d="M132 580h245l-111 -230l111 -230h-245l-112 230z" />
    <glyph glyph-name="guilsinglright.case" horiz-adv-x="397" 
d="M131 350l-111 230h245l112 -230l-112 -230h-245z" />
    <glyph glyph-name="uni00A0" unicode="&#xa0;" horiz-adv-x="410" 
 />
    <glyph glyph-name="cent" unicode="&#xa2;" horiz-adv-x="756" 
d="M457 134q23 29 23 77h261q0 -93 -68.5 -151t-191.5 -74v-106h-192v107q-130 20 -202 92t-72 186t72 186t202 92v107h192v-106q123 -16 191.5 -74t68.5 -151h-261q0 48 -23 77t-66 29q-52 0 -78 -38.5t-26 -121.5t26 -121.5t78 -38.5q43 0 66 29z" />
    <glyph glyph-name="currency" unicode="&#xa4;" horiz-adv-x="696" 
d="M92 506l-77 77l100 100l92 -92q64 26 141 26t141 -26l92 92l100 -100l-77 -77q51 -65 51 -156t-51 -156l77 -77l-100 -100l-92 92q-64 -26 -141 -26t-141 26l-92 -92l-100 100l77 77q-51 65 -51 156t51 156zM250.5 249q35.5 -37 97.5 -37t97.5 37t35.5 101t-35.5 101
t-97.5 37t-97.5 -37t-35.5 -101t35.5 -101z" />
    <glyph glyph-name="dollar" unicode="$" horiz-adv-x="778" 
d="M495 -5v-105h-192v103q-109 8 -172 36.5t-89.5 76t-26.5 119.5h282q-2 -12 -2 -33q0 -45 23 -68.5t76 -23.5q40 0 66 16t26 48q0 25 -23 40t-69 26q-20 5 -34 8q-122 30 -187.5 53.5t-107.5 68t-42 119.5q0 87 68 148.5t212 77.5v105h192v-105q249 -29 249 -220h-277
q1 8 1 22q0 50 -24 71.5t-69 21.5q-42 0 -63.5 -16.5t-21.5 -41.5q0 -27 22.5 -46t81.5 -31q137 -28 214 -55.5t116 -70t39 -110.5q0 -202 -268 -234z" />
    <glyph glyph-name="Euro" unicode="&#x20ac;" horiz-adv-x="904" 
d="M608 262h276q0 -88 -48.5 -151.5t-139 -97t-214.5 -33.5q-107 0 -192 36t-138.5 105t-66.5 164h-85v130h85q13 95 66.5 164t138.5 105t192 36q124 0 214.5 -33.5t139 -97t48.5 -151.5h-276q0 145 -116 145q-58 0 -89 -40t-38 -128h198v-130h-198q7 -88 38 -128t89 -40
q116 0 116 145z" />
    <glyph glyph-name="florin" unicode="&#x192;" horiz-adv-x="602" 
d="M432 498v-83h133v-130h-133v-88q0 -75 -40.5 -123.5t-106 -71t-144.5 -22.5q-34 0 -69.5 4t-51.5 10v135q21 -3 48 -3q102 0 102 76v83h-133v130h133v88q0 75 40.5 123.5t106 71t144.5 22.5q34 0 69.5 -4t51.5 -10v-135q-21 3 -48 3q-102 0 -102 -76z" />
    <glyph glyph-name="sterling" unicode="&#xa3;" horiz-adv-x="805" 
d="M790 217q0 -124 -64.5 -180.5t-175.5 -56.5q-69 0 -123.5 14.5t-120.5 40.5q-31 13 -50 19t-33 6q-26 0 -37 -15.5t-11 -44.5h-160q8 106 74 166q12 12 44 38q3 3 24 19.5t35 33.5h-139v130h138q-16 10 -39 20q-36 18 -57.5 31.5t-37 36t-15.5 54.5q0 51 39.5 94.5
t122 70t203.5 26.5q184 0 269.5 -54.5t85.5 -149.5q0 -25 -2.5 -42t-8.5 -40h-259q9 38 9 67q0 89 -80 89q-38 0 -58.5 -23.5t-20.5 -59.5q0 -24 9.5 -41t28.5 -39q21 -26 30 -40h153v-130h-156q-13 -13 -38 -27q47 -9 115 -35q39 -14 58.5 -19.5t37.5 -5.5q60 0 60 66
q0 18 -2 29h150q2 -17 2 -48z" />
    <glyph glyph-name="yen" unicode="&#xa5;" horiz-adv-x="909" 
d="M808 303v-130h-200v-173h-302v173h-200v130h150l-251 397h366l138 -262l141 262h254l-250 -397h154z" />
    <glyph glyph-name="plus" unicode="+" horiz-adv-x="575" 
d="M379 270v-176h-182v176h-177v162h176v177h182v-177h177v-162h-176z" />
    <glyph glyph-name="minus" unicode="&#x2212;" horiz-adv-x="575" 
d="M555 432v-162h-535v162h535z" />
    <glyph glyph-name="multiply" unicode="&#xd7;" horiz-adv-x="553" 
d="M533 218l-115 -114l-142 135l-141 -135l-115 114l139 132l-139 132l114 115l142 -135l142 135l115 -114l-139 -133z" />
    <glyph glyph-name="divide" unicode="&#xf7;" horiz-adv-x="575" 
d="M189.5 612q35.5 26 98.5 26t98.5 -26t35.5 -73t-35.5 -74t-98.5 -27t-98.5 27t-35.5 74t35.5 73zM555 395v-162h-535v162h535zM189.5 174q35.5 26 98.5 26t98.5 -26t35.5 -73q0 -48 -35.5 -74.5t-98.5 -26.5t-98.5 26.5t-35.5 74.5q0 47 35.5 73z" />
    <glyph glyph-name="equal" unicode="=" horiz-adv-x="575" 
d="M555 530v-162h-535v162h535zM555 300v-162h-535v162h535z" />
    <glyph glyph-name="notequal" unicode="&#x2260;" horiz-adv-x="575" 
d="M555 530v-162h-160l-41 -68h201v-162h-300l-61 -100h-174l60 100h-60v162h157l40 68h-197v162h294l60 100h181l-61 -100h61z" />
    <glyph glyph-name="greater" unicode="&#x3e;" horiz-adv-x="527" 
d="M20 224l276 105l-276 104v197l487 -215v-173l-487 -215v197z" />
    <glyph glyph-name="less" unicode="&#x3c;" horiz-adv-x="527" 
d="M507 630v-197l-276 -104l276 -105v-197l-487 215v173z" />
    <glyph glyph-name="greaterequal" unicode="&#x2265;" horiz-adv-x="575" 
d="M555 356l-535 -176v187l275 70l-275 76v177l535 -176v-158zM555 162v-162h-535v162h535z" />
    <glyph glyph-name="lessequal" unicode="&#x2264;" horiz-adv-x="575" 
d="M280 437l275 -70v-187l-535 176v158l535 176v-177zM555 162v-162h-535v162h535z" />
    <glyph glyph-name="plusminus" unicode="&#xb1;" horiz-adv-x="575" 
d="M555 358h-176v-166h-182v166h-177v162h176v167h182v-167h177v-162zM555 162v-162h-535v162h535z" />
    <glyph glyph-name="approxequal" unicode="&#x2248;" horiz-adv-x="611" 
d="M20 438q0 102 47 159t136 57q54 0 91.5 -21t78.5 -58q21 -20 34.5 -29.5t27.5 -9.5q24 0 34 24t10 72h109q3 -28 3 -54q0 -101 -46.5 -158t-135.5 -57q-54 0 -91 21t-80 58q-21 20 -34.5 29.5t-27.5 9.5q-24 0 -34 -24.5t-10 -71.5h-109q-3 27 -3 53zM20 121
q0 102 47 159t136 57q54 0 91.5 -21t78.5 -58q21 -20 34.5 -29.5t27.5 -9.5q24 0 34 24t10 72h109q3 -28 3 -54q0 -101 -46.5 -158t-135.5 -57q-54 0 -91 21t-80 58q-21 20 -34.5 29.5t-27.5 9.5q-24 0 -34 -24.5t-10 -71.5h-109q-3 27 -3 53z" />
    <glyph glyph-name="asciitilde" unicode="~" horiz-adv-x="641" 
d="M20 281q0 107 49 167t143 60q57 0 96.5 -22.5t82.5 -60.5q23 -21 37.5 -31t28.5 -10q25 0 35.5 25.5t10.5 75.5h115q3 -30 3 -56q0 -107 -49 -167t-143 -60q-57 0 -96.5 22.5t-82.5 60.5q-23 21 -37.5 31t-28.5 10q-25 0 -35.5 -25.5t-10.5 -75.5h-115q-3 30 -3 56z" />
    <glyph glyph-name="logicalnot" unicode="&#xac;" horiz-adv-x="576" 
d="M373 270h-353v162h535v-23l1 -315h-182z" />
    <glyph glyph-name="asciicircum" unicode="^" horiz-adv-x="559" 
d="M280 539l-82 -207h-183l183 388h163l183 -388h-183z" />
    <glyph glyph-name="emptyset" unicode="&#x2205;" horiz-adv-x="696" 
d="M655 350q0 -82 -40.5 -142.5t-110.5 -92.5t-156 -32q-77 0 -141 26l-92 -92l-100 100l77 77q-51 65 -51 156q0 82 40.5 142.5t110.5 92.5t156 32q77 0 141 -26l92 92l100 -100l-77 -77q51 -65 51 -156zM209 311l182 182q-22 5 -43 5q-65 0 -104 -39.5t-39 -108.5
q0 -23 4 -39zM487 389l-182 -182q22 -5 43 -5q65 0 104 39.5t39 108.5q0 23 -4 39z" />
    <glyph glyph-name="infinity" unicode="&#x221e;" horiz-adv-x="734" 
d="M50.5 496q25.5 65 68 102t91.5 37q57 0 100.5 -43.5t56.5 -100.5q13 57 56.5 100.5t100.5 43.5q49 0 91.5 -37t68 -102t25.5 -146t-25.5 -146t-68 -102t-91.5 -37q-57 0 -100.5 43.5t-56.5 100.5q-13 -57 -56.5 -100.5t-100.5 -43.5q-49 0 -91.5 37t-68 102t-25.5 146
t25.5 146zM163 286.5q23 -23.5 57 -23.5q33 0 55.5 23.5t22.5 63.5t-22.5 63.5t-55.5 23.5q-34 0 -57 -23.5t-23 -63.5t23 -63.5zM458.5 286.5q22.5 -23.5 55.5 -23.5q34 0 57 23.5t23 63.5t-23 63.5t-57 23.5q-33 0 -55.5 -23.5t-22.5 -63.5t22.5 -63.5z" />
    <glyph glyph-name="integral" unicode="&#x222b;" horiz-adv-x="592" 
d="M63 126q102 0 102 76v301q0 75 40.5 123.5t106 71t144.5 22.5q34 0 69.5 -4t51.5 -10v-135q-21 3 -48 3q-102 0 -102 -76v-301q0 -75 -40.5 -123.5t-106 -71t-144.5 -22.5q-34 0 -69.5 4t-51.5 10v135q21 -3 48 -3z" />
    <glyph glyph-name="product" unicode="&#x220f;" horiz-adv-x="870" 
d="M845 700v-700h-302v539h-216v-539h-302v700h820z" />
    <glyph glyph-name="summation" unicode="&#x2211;" horiz-adv-x="722" 
d="M181 350l-166 198v152h692v-162h-329l158 -188l-158 -188h329v-162h-692v152z" />
    <glyph glyph-name="radical" unicode="&#x221a;" horiz-adv-x="922" 
d="M666 0h-385l-146 398h-130v132h406l102 -359l160 529h249z" />
    <glyph glyph-name="partialdiff" unicode="&#x2202;" horiz-adv-x="803" 
d="M52 332.5q37 49.5 100 75t141 25.5q107 0 160 -43q-41 77 -130.5 148.5t-203.5 122.5l234 59q91 -28 190 -97.5t166.5 -164t67.5 -193.5q0 -79 -44.5 -143.5t-132 -103t-211.5 -38.5q-116 0 -200.5 29t-129 82.5t-44.5 123.5q0 68 37 117.5zM315.5 134.5
q28.5 -29.5 80.5 -29.5t81 29.5t29 78.5q0 51 -29 81t-81 30t-80.5 -30.5t-28.5 -80.5q0 -49 28.5 -78.5z" />
    <glyph glyph-name="uni00B5" unicode="&#xb5;" horiz-adv-x="764" 
d="M482 0v85q-36 -40 -84 -68.5t-106 -34.5v-132h-262v680h262v-278q0 -50 27 -76.5t66 -26.5q28 0 54 14t43 39v328h262v-530h-262z" />
    <glyph glyph-name="percent" unicode="%" horiz-adv-x="1002" 
d="M80.5 661.5q60.5 48.5 167.5 48.5t167.5 -48.5t60.5 -136.5q0 -87 -60.5 -136t-167.5 -49t-167.5 49t-60.5 136q0 88 60.5 136.5zM902 700l-616 -700h-186l616 700h186zM203.5 439q13.5 -24 44.5 -24t44.5 24t13.5 86t-13.5 86t-44.5 24t-44.5 -24t-13.5 -86t13.5 -86z
M586.5 311.5q60.5 48.5 167.5 48.5t167.5 -48.5t60.5 -136.5q0 -87 -60.5 -136t-167.5 -49t-167.5 49t-60.5 136q0 88 60.5 136.5zM709.5 89q13.5 -24 44.5 -24t44.5 24t13.5 86t-13.5 86t-44.5 24t-44.5 -24t-13.5 -86t13.5 -86z" />
    <glyph glyph-name="perthousand" unicode="&#x2030;" horiz-adv-x="1473" 
d="M80.5 661.5q60.5 48.5 167.5 48.5t167.5 -48.5t60.5 -136.5q0 -87 -60.5 -136t-167.5 -49t-167.5 49t-60.5 136q0 88 60.5 136.5zM902 700l-616 -700h-186l616 700h186zM203.5 439q13.5 -24 44.5 -24t44.5 24t13.5 86t-13.5 86t-44.5 24t-44.5 -24t-13.5 -86t13.5 -86z
M586.5 311.5q60.5 48.5 167.5 48.5t167.5 -48.5t60.5 -136.5q0 -87 -60.5 -136t-167.5 -49t-167.5 49t-60.5 136q0 88 60.5 136.5zM1057.5 311.5q60.5 48.5 167.5 48.5t167.5 -48.5t60.5 -136.5q0 -87 -60.5 -136t-167.5 -49t-167.5 49t-60.5 136q0 88 60.5 136.5zM709.5 89
q13.5 -24 44.5 -24t44.5 24t13.5 86t-13.5 86t-44.5 24t-44.5 -24t-13.5 -86t13.5 -86zM1180.5 89q13.5 -24 44.5 -24t44.5 24t13.5 86t-13.5 86t-44.5 24t-44.5 -24t-13.5 -86t13.5 -86z" />
    <glyph glyph-name="arrowup" unicode="&#x2191;" horiz-adv-x="750" 
d="M25 148v222l350 350l350 -350v-222l-219 219v-367h-262v367z" />
    <glyph glyph-name="arrowright" unicode="&#x2192;" horiz-adv-x="750" 
d="M173 700h222l350 -350l-350 -350h-222l219 219h-367v262h367z" />
    <glyph glyph-name="arrowdown" unicode="&#x2193;" horiz-adv-x="750" 
d="M725 552v-222l-350 -350l-350 350v222l219 -219v367h262v-367z" />
    <glyph glyph-name="arrowleft" unicode="&#x2190;" horiz-adv-x="750" 
d="M577 0h-222l-350 350l350 350h222l-219 -219h367v-262h-367z" />
    <glyph glyph-name="lozenge" unicode="&#x25ca;" horiz-adv-x="662" 
d="M439 0h-216l-208 350l208 350h216l208 -350zM331 527l-100 -177l100 -177l100 177z" />
    <glyph glyph-name="at" unicode="@" horiz-adv-x="956" 
d="M733 167q5 -22 19 -22q15 0 21 31t6 99q0 135 -77.5 201.5t-215.5 66.5q-137 0 -215.5 -71t-78.5 -207q0 -86 36 -149t102.5 -96t155.5 -33q168 0 293 72v-128q-127 -66 -293 -66q-134 0 -241 48t-168.5 138.5t-61.5 213.5t61.5 213.5t168.5 138.5t241 48
q132 0 235.5 -43.5t161.5 -123t58 -183.5q0 -62 -27 -117t-78.5 -89t-122.5 -34q-67 0 -102.5 17t-57.5 53q-55 -70 -137 -70q-85 0 -137.5 52.5t-52.5 137.5t52.5 137.5t137.5 52.5q82 0 137 -70v57h175v-218q0 -35 5 -57zM535.5 198q17.5 23 17.5 67t-17.5 67t-51.5 23
t-52 -23t-18 -67t18 -67t52 -23t51.5 23z" />
    <glyph glyph-name="ampersand" unicode="&#x26;" horiz-adv-x="922" 
d="M683 49q-64 -33 -141 -51t-162 -18q-176 0 -275.5 47.5t-99.5 142.5q0 68 48.5 114t138.5 60q-58 48 -82.5 90t-24.5 86q0 47 34.5 92.5t111.5 76.5t195 31q103 0 173 -25.5t104.5 -68.5t34.5 -96q0 -43 -26.5 -80t-73.5 -60.5t-104 -27.5l102 -56l1 22q0 10 -2 32h250
q0 -87 -42 -162l46 -23q9 -5 17.5 -9t15.5 -8l-104 -178zM369.5 580.5q-19.5 -19.5 -19.5 -50.5q0 -23 16 -45.5t54 -50.5q39 15 58.5 40t19.5 56q0 33 -20 51.5t-55 18.5q-34 0 -53.5 -19.5zM519 137q-126 69 -210 123q-24 -28 -24 -65q0 -40 30 -62.5t84 -22.5
q63 0 120 27z" />
    <glyph glyph-name="paragraph" unicode="&#xb6;" horiz-adv-x="730" 
d="M139.5 265.5q-64.5 32.5 -94.5 85.5t-30 118t30 117t94 83t162 31h404v-700h-161l-1 538h-80v-538h-161l-1 233q-97 0 -161.5 32.5z" />
    <glyph glyph-name="section" unicode="&#xa7;" horiz-adv-x="722" 
d="M199 113.5q64 -16.5 103 -16.5q28 0 43 4.5t15 20.5q0 17 -27 33.5t-97 38.5q-114 36 -167.5 80.5t-53.5 113.5q0 47 27.5 82t62.5 51q-16 19 -23 35t-7 39q0 68 73 109t222 41q81 0 147 -14t105 -34v-130q-58 30 -112 44t-94 14q-23 0 -37.5 -6.5t-14.5 -20.5
q0 -15 19.5 -25.5t80.5 -31.5l32 -12q106 -38 158.5 -80t52.5 -103q0 -46 -28 -79.5t-84 -58.5q29 -21 39.5 -43t10.5 -51q0 -63 -67 -103.5t-203 -40.5q-90 0 -164 15.5t-120 37.5v130q44 -23 108 -39.5zM491 290q6 7 6 20q0 15 -19 29t-54 31q-13 6 -53 23.5t-66 28.5
q-20 8 -90 38q-7 -5 -12 -14t-5 -17q0 -16 10 -27t26 -19.5t31 -14.5q27 -12 50 -21q112 -46 159 -72q11 8 17 15z" />
    <glyph glyph-name="copyright" unicode="&#xa9;" horiz-adv-x="952" 
d="M76 563.5q61 90.5 166 138.5t234 48q130 0 234.5 -48t165.5 -138.5t61 -213.5t-61 -213.5t-165.5 -138.5t-234.5 -48q-129 0 -234 48t-166 138.5t-61 213.5t61 213.5zM218 201q36 -63 102.5 -96t155.5 -33t155.5 33t102.5 96t36 149t-36 149t-102.5 96t-155.5 33
t-155.5 -33t-102.5 -96t-36 -149t36 -149zM313.5 507q63.5 57 169.5 57q100 0 160 -47.5t60 -129.5h-167q0 83 -53 83q-54 0 -54 -120t54 -120q53 0 53 76h167q0 -79 -60 -124.5t-160 -45.5q-106 0 -169.5 57t-63.5 157t63.5 157z" />
    <glyph glyph-name="registered" unicode="&#xae;" horiz-adv-x="553" 
d="M48.5 609q33.5 52 92.5 81.5t135 29.5t135.5 -29.5t93 -81.5t33.5 -118t-33.5 -118t-93 -81.5t-135.5 -29.5t-135 29.5t-92.5 81.5t-33.5 118t33.5 118zM158.5 379q43.5 -41 117.5 -41q75 0 118.5 40.5t43.5 112.5q0 71 -43.5 112t-118.5 41q-74 0 -117.5 -41t-43.5 -112
t43.5 -112zM369.5 580.5q19.5 -15.5 19.5 -42.5q0 -25 -18 -40t-46 -19q30 -2 49.5 -15.5t19.5 -40.5v-29h-95v20q0 24 -5.5 34.5t-23.5 10.5h-12v-65h-88v202h149q31 0 50.5 -15.5zM294 508.5q7 7.5 7 19.5t-7 19t-20 7h-16v-53h16q13 0 20 7.5z" />
    <glyph glyph-name="trademark" unicode="&#x2122;" horiz-adv-x="805" 
d="M510 700l56 -176l64 176h155v-310h-116v181l-69 -181h-113l-58 181v-181h-89v310h170zM5 608v91h308v-91h-91v-217h-125v217h-92z" />
    <glyph glyph-name="degree" unicode="&#xb0;" horiz-adv-x="460" 
d="M74.5 667.5q59.5 52.5 154.5 52.5q96 0 156 -52t60 -143t-60 -143t-156 -52q-95 0 -154.5 52.5t-59.5 142.5t59.5 142.5zM167 462q22 -22 62 -22q41 0 63.5 22t22.5 63t-22.5 63t-63.5 22q-40 0 -62 -22t-22 -63t22 -63z" />
    <glyph glyph-name="bar" unicode="|" horiz-adv-x="252" 
d="M227 750v-800h-202v800h202z" />
    <glyph glyph-name="brokenbar" unicode="&#xa6;" horiz-adv-x="252" 
d="M227 750v-312h-202v312h202zM227 262v-312h-202v312h202z" />
    <glyph glyph-name="dagger" unicode="&#x2020;" horiz-adv-x="685" 
d="M20 319v210l190 -7l-4 178h268l-4 -178l195 7v-210l-195 7l10 -326h-280l10 326z" />
    <glyph glyph-name="daggerdbl" unicode="&#x2021;" horiz-adv-x="685" 
d="M20 110v210l190 -17v94l-190 -17v210l190 -17l-5 127h270l-5 -127l195 17v-210l-195 17v-94l195 17v-210l-195 17l5 -127h-270l5 127z" />
    <glyph glyph-name="at.case" horiz-adv-x="956" 
d="M733 252q5 -22 19 -22q15 0 21 31t6 99q0 135 -77.5 201.5t-215.5 66.5q-137 0 -215.5 -71t-78.5 -207q0 -86 36 -149t102.5 -96t155.5 -33q168 0 293 72v-128q-127 -66 -293 -66q-134 0 -241 48t-168.5 138.5t-61.5 213.5t61.5 213.5t168.5 138.5t241 48
q132 0 235.5 -43.5t161.5 -123t58 -183.5q0 -62 -27 -117t-78.5 -89t-122.5 -34q-67 0 -102.5 17t-57.5 53q-55 -70 -137 -70q-85 0 -137.5 52.5t-52.5 137.5t52.5 137.5t137.5 52.5q82 0 137 -70v57h175v-218q0 -35 5 -57zM535.5 283q17.5 23 17.5 67t-17.5 67t-51.5 23
t-52 -23t-18 -67t18 -67t52 -23t51.5 23z" />
    <glyph glyph-name="ampersand.ss02" horiz-adv-x="779" 
d="M476.5 127q24.5 27 24.5 77q0 7 -2 27h265q0 -103 -63.5 -166t-205.5 -80v-95h-192v94q-135 14 -211.5 63.5t-76.5 127.5q0 71 50.5 111.5t143.5 58.5q-87 20 -133 64t-46 108q0 81 73.5 132.5t199.5 65.5v95h192v-95q142 -16 205.5 -81t63.5 -174h-265q2 20 2 30
q0 50 -24 80t-71 30q-44 0 -67.5 -24.5t-23.5 -68.5q0 -41 25.5 -64t70.5 -23h108v-148h-108q-45 0 -70.5 -23t-25.5 -64q0 -39 24.5 -62t66.5 -23q46 0 70.5 27z" />
    <glyph glyph-name="uni0308" unicode="&#x308;" horiz-adv-x="0" 
d="M-362 693v-72h-262v72h262zM-50 693v-72h-262v72h262z" />
    <glyph glyph-name="uni0307" unicode="&#x307;" horiz-adv-x="0" 
d="M-50 693v-72h-262v72h262z" />
    <glyph glyph-name="gravecomb" unicode="&#x300;" horiz-adv-x="0" 
d="M-50 664v-72l-450 56v72z" />
    <glyph glyph-name="acutecomb" unicode="&#x301;" horiz-adv-x="0" 
d="M-50 720v-72l-450 -56v72z" />
    <glyph glyph-name="uni030B" unicode="&#x30b;" horiz-adv-x="0" 
d="M-456 720v-72l-356 -56v72zM-50 720v-72l-356 -56v72z" />
    <glyph glyph-name="uni030C.alt" horiz-adv-x="0" 
d="M-157 495l35 285h75l-38 -285h-72z" />
    <glyph glyph-name="uni0302" unicode="&#x302;" horiz-adv-x="0" 
d="M-300 720l250 -60v-72l-250 60l-250 -60v72z" />
    <glyph glyph-name="uni030C" unicode="&#x30c;" horiz-adv-x="0" 
d="M-50 720v-72l-250 -60l-250 60v72l250 -60z" />
    <glyph glyph-name="uni0306" unicode="&#x306;" horiz-adv-x="0" 
d="M-387.5 675.5q58.5 -15.5 112.5 -15.5q53 0 112.5 15.5t112.5 44.5v-72q-53 -29 -112.5 -44.5t-112.5 -15.5q-54 0 -112.5 15.5t-112.5 44.5v72q54 -29 112.5 -44.5z" />
    <glyph glyph-name="uni030A" unicode="&#x30a;" horiz-adv-x="0" 
d="M-498 703.5q29 21.5 83 34t127 12.5t127 -12.5t82.5 -34t28.5 -47.5t-28.5 -48t-82.5 -35t-127 -13t-127 13t-83 35t-29 48t29 47.5zM-409.5 632q45.5 -10 121.5 -10t121 10t45 24q0 13 -45 22.5t-121 9.5t-121.5 -9.5t-45.5 -22.5q0 -14 45.5 -24z" />
    <glyph glyph-name="tildecomb" unicode="&#x303;" horiz-adv-x="0" 
d="M-407 720q30 0 58 -7t62 -20q36 -13 61 -19.5t54 -6.5q56 0 122 33v-62q-79 -40 -143 -40q-30 0 -58 7t-62 20q-36 13 -61 19.5t-54 6.5q-56 0 -122 -33v62q79 40 143 40z" />
    <glyph glyph-name="uni0304" unicode="&#x304;" horiz-adv-x="0" 
d="M-50 693v-72h-450v72h450z" />
    <glyph glyph-name="uni0326" unicode="&#x326;" horiz-adv-x="0" 
d="M-50 -62v-72l-450 -56v72z" />
    <glyph glyph-name="uni0327" unicode="&#x327;" horiz-adv-x="0" 
d="M-293 -148q45 0 72 5.5t27 26.5q0 18 -17.5 27t-51.5 11.5t-98 2.5l72 119h89l-56 -62q74 -3 110 -26.5t36 -70.5q0 -54 -51 -80.5t-136 -26.5q-39 0 -65 5.5t-41 11t-20 7.5v70q79 -20 130 -20z" />
    <glyph glyph-name="uni0328" unicode="&#x328;" horiz-adv-x="0" 
d="M-222 -12.5q-52 -13.5 -94 -36.5t-42 -52q0 -19 25.5 -31.5t110.5 -12.5q50 0 101 8.5t71 17.5v-70q-23 -13 -80 -21t-92 -8q-97 0 -162 26.5t-65 88.5q0 33 31 61t72.5 45t68.5 17q20 0 20 -11q0 -5 -2 -8h108q-19 0 -71 -13.5z" />
    <glyph glyph-name="uni0308.case" horiz-adv-x="0" 
d="M-382 873v-72h-282v72h282zM-50 873v-72h-282v72h282z" />
    <glyph glyph-name="uni0307.case" horiz-adv-x="0" 
d="M-50 873v-72h-302v72h302z" />
    <glyph glyph-name="gravecomb.case" horiz-adv-x="0" 
d="M-50 844v-72l-490 56v72z" />
    <glyph glyph-name="acutecomb.case" horiz-adv-x="0" 
d="M-50 900v-72l-490 -56v72z" />
    <glyph glyph-name="uni030B.case" horiz-adv-x="0" 
d="M-476 900v-72l-376 -56v72zM-50 900v-72l-376 -56v72z" />
    <glyph glyph-name="uni0302.case" horiz-adv-x="0" 
d="M-320 900l270 -60v-72l-270 60l-270 -60v72z" />
    <glyph glyph-name="uni030C.case" horiz-adv-x="0" 
d="M-50 900v-72l-270 -60l-270 60v72l270 -60z" />
    <glyph glyph-name="uni0306.case" horiz-adv-x="0" 
d="M-418 855.5q64 -15.5 123 -15.5q57 0 122 15.5t123 44.5v-72q-58 -29 -123 -44.5t-122 -15.5q-59 0 -123 15.5t-122 44.5v72q58 -29 122 -44.5z" />
    <glyph glyph-name="uni030A.case" horiz-adv-x="0" 
d="M-536 883.5q31 21.5 90 34t138 12.5t137.5 -12.5t89.5 -34t31 -47.5t-31 -48t-89.5 -35t-137.5 -13t-138 13t-90 35t-31 48t31 47.5zM-444 812q51 -10 136 -10t135.5 10t50.5 24q0 13 -50.5 22.5t-135.5 9.5t-136 -9.5t-51 -22.5q0 -14 51 -24z" />
    <glyph glyph-name="tildecomb.case" horiz-adv-x="0" 
d="M-434 900q31 0 60 -7t68 -20q38 -13 66 -19.5t57 -6.5q66 0 133 33v-62q-79 -40 -149 -40q-32 0 -61 6.5t-73 20.5q-41 13 -69 19.5t-59 6.5q-62 0 -129 -33v62q77 40 156 40z" />
    <glyph glyph-name="uni0304.case" horiz-adv-x="0" 
d="M-50 873v-72h-490v72h490z" />
    <glyph glyph-name="periodcentered.ss01" horiz-adv-x="272" 
d="M247 391v-72l-222 -28v72z" />
    </font>
</defs>
</svg>
