<?xml version="1.0" standalone="no"?>
<!DOCTYPE svg PUBLIC "-//W3C//DTD SVG 1.1//EN" "http://www.w3.org/Graphics/SVG/1.1/DTD/svg11.dtd" >
<svg xmlns="http://www.w3.org/2000/svg" xmlns:xlink="http://www.w3.org/1999/xlink" version="1.1">
<metadata>
Created by FontForge 20190801 at Wed Oct 14 09:53:51 2009
 By Jimmy Wärting
(c)2009 Commercial Type.
</metadata>
<defs>
<font id="Graphik-Medium" horiz-adv-x="600" >
  <font-face 
    font-family="Graphik Medium"
    font-weight="500"
    font-stretch="normal"
    units-per-em="1000"
    panose-1="2 11 6 3 3 2 2 6 2 3"
    ascent="821"
    descent="-179"
    x-height="523"
    cap-height="715"
    bbox="-235 -225 1134 1123"
    underline-thickness="50"
    underline-position="-100"
    stemh="106"
    stemv="121"
    unicode-range="U+0020-FB02"
  />
<missing-glyph horiz-adv-x="508" 
 />
    <glyph glyph-name="f_f" unicode="ff" horiz-adv-x="667" 
d="M93 0v432h-71v91h71v63c0 116 63 177 175 177c29 0 47 -3 69 -10v-94c-14 5 -32 10 -54 10c-49 0 -69 -32 -69 -77v-69h184v70c0 115 64 177 175 177c30 0 48 -3 70 -10v-94c-14 5 -33 9 -55 9c-49 0 -69 -32 -69 -77v-75h119v-91h-119v-432h-121v432h-184v-432h-121z
" />
    <glyph glyph-name=".notdef" horiz-adv-x="508" 
 />
    <glyph glyph-name="Eth" unicode="&#xd0;" horiz-adv-x="739" 
d="M32 311v95h69v309h217c249 0 370 -142 370 -350v-9c0 -208 -120 -356 -371 -356h-216v311h-69zM233 105h80c160 0 236 92 236 250v8c0 154 -69 247 -237 247h-79v-204h173v-95h-173v-206z" />
    <glyph glyph-name="eth" unicode="&#xf0;" horiz-adv-x="611" 
d="M168 566l-27 54l103 49c-41 36 -84 68 -124 96h143c23 -13 49 -29 75 -50l93 45l27 -54l-69 -34c95 -88 185 -219 185 -380v-22c0 -168 -112 -280 -270 -280c-154 0 -267 108 -267 269v10c0 158 113 262 237 262c61 0 101 -24 134 -61c-28 56 -69 108 -117 155zM306 84
c90 0 144 68 144 173v8c0 108 -54 174 -143 174c-90 0 -146 -65 -146 -173v-8c0 -107 54 -174 145 -174z" />
    <glyph glyph-name="Lslash" unicode="&#x141;" horiz-adv-x="570" 
d="M35 242v84l66 23v366h134v-318l191 69v-84l-191 -69v-207h305v-106h-439v265z" />
    <glyph glyph-name="lslash" unicode="&#x142;" horiz-adv-x="299" 
d="M19 291v88l70 37v349h121v-285l74 40v-88l-74 -40v-392h-121v328z" />
    <glyph glyph-name="Scaron" unicode="&#x160;" horiz-adv-x="635" 
d="M255 766l-108 135h88l75 -55l74 55h86l-110 -135h-105zM325 -10c-195 0 -277 97 -287 232h128c9 -72 38 -132 159 -132c79 0 135 44 135 110s-33 91 -149 110c-171 23 -252 75 -252 209c0 117 100 205 249 205c154 0 246 -70 260 -207h-122c-13 75 -56 107 -138 107
c-81 0 -123 -39 -123 -94c0 -58 24 -87 148 -105c168 -23 255 -71 255 -214c0 -124 -105 -221 -263 -221z" />
    <glyph glyph-name="scaron" unicode="&#x161;" horiz-adv-x="494" 
d="M194 602l-112 151h87l75 -67l75 67h84l-113 -151h-96zM251 -10c-135 0 -214 62 -219 173h114c6 -53 33 -84 104 -84c65 0 94 23 94 67c0 43 -35 59 -112 72c-138 22 -189 61 -189 159c0 105 98 157 196 157c107 0 192 -40 205 -158h-112c-10 48 -37 70 -93 70
c-52 0 -83 -25 -83 -62c0 -38 25 -53 108 -67c123 -19 196 -49 196 -160c0 -106 -75 -167 -209 -167z" />
    <glyph glyph-name="Yacute" unicode="&#xdd;" horiz-adv-x="629" 
d="M254 0v310l-237 405h147l161 -296l157 296h130l-224 -406v-309h-134zM265 766l54 135h136l-99 -135h-91z" />
    <glyph glyph-name="yacute" unicode="&#xfd;" horiz-adv-x="553" 
d="M130 -179l95 232l-207 470h131l139 -337l128 337h118l-285 -702h-119zM235 601l59 155h134l-104 -155h-89z" />
    <glyph glyph-name="Thorn" unicode="&#xde;" horiz-adv-x="609" 
d="M82 0v715h133v-127h97c160 0 265 -64 265 -215v-4c0 -151 -109 -216 -262 -216h-100v-153h-133zM215 250h97c88 0 135 40 135 119v4c0 85 -50 115 -135 115h-97v-238z" />
    <glyph glyph-name="thorn" unicode="&#xfe;" horiz-adv-x="633" 
d="M72 -179v944h121v-326c29 50 94 95 171 95c131 0 232 -97 232 -266v-8c0 -168 -97 -270 -232 -270c-83 0 -143 41 -171 92v-261h-121zM334 86c89 0 138 60 138 172v8c0 116 -60 173 -139 173c-84 0 -144 -57 -144 -173v-8c0 -117 57 -172 145 -172z" />
    <glyph glyph-name="Zcaron" unicode="&#x17d;" horiz-adv-x="608" 
d="M251 766l-108 135h88l75 -55l74 55h86l-110 -135h-105zM22 0v18l365 592h-328v105h516v-17l-357 -591h347v-107h-543z" />
    <glyph glyph-name="zcaron" unicode="&#x17e;" horiz-adv-x="493" 
d="M203 602l-112 151h87l75 -67l75 67h84l-113 -151h-96zM17 0v14l277 413h-250v96h429v-17l-276 -409h268v-97h-448z" />
    <glyph glyph-name="onehalf" unicode="&#xbd;" horiz-adv-x="728" 
d="M42 0l528 715h77l-528 -715h-77zM107 360v265l-82 -51v78l94 63h82v-355h-94zM418 0v13l128 135c36 37 59 68 59 99c0 27 -14 43 -42 43c-29 0 -47 -18 -52 -61h-85c4 85 57 131 141 131c85 0 129 -45 129 -109c0 -47 -28 -86 -70 -126l-58 -57h131v-68h-281z" />
    <glyph glyph-name="onequarter" unicode="&#xbc;" horiz-adv-x="724" 
d="M107 360v265l-82 -51v78l94 63h82v-355h-94zM55 0l528 715h77l-528 -715h-77zM566 0v69h-178v34l154 252h113v-222h46v-64h-46v-69h-89zM477 133h91v157z" />
    <glyph glyph-name="onesuperior" unicode="&#xb9;" horiz-adv-x="253" 
d="M104 360v265l-82 -51v78l94 63h82v-355h-94z" />
    <glyph glyph-name="threequarters" unicode="&#xbe;" horiz-adv-x="738" 
d="M169 354c-98 0 -144 49 -146 120h83c3 -31 20 -54 58 -54c36 0 54 18 54 47c0 30 -18 45 -54 45h-28v58h27c36 0 52 16 52 43c0 24 -15 40 -45 40s-50 -18 -54 -48h-83c5 66 54 115 139 115c83 0 131 -40 131 -97c0 -40 -24 -65 -61 -77c41 -8 70 -37 70 -82
c0 -67 -52 -110 -143 -110zM96 0l528 715h77l-528 -715h-77zM577 0v69h-178v34l154 252h113v-222h46v-64h-46v-69h-89zM488 133h91v157z" />
    <glyph glyph-name="threesuperior" unicode="&#xb3;" horiz-adv-x="336" 
d="M166 354c-98 0 -144 49 -146 120h83c3 -31 20 -54 58 -54c36 0 54 18 54 47c0 30 -18 45 -54 45h-28v58h27c36 0 52 16 52 43c0 24 -15 40 -45 40s-50 -18 -54 -48h-83c5 66 54 115 139 115c83 0 131 -40 131 -97c0 -40 -24 -65 -61 -77c41 -8 70 -37 70 -82
c0 -67 -52 -110 -143 -110z" />
    <glyph glyph-name="twosuperior" unicode="&#xb2;" horiz-adv-x="313" 
d="M7 360v13l128 135c36 37 59 68 59 99c0 26 -14 43 -42 43c-29 0 -47 -18 -52 -61h-85c4 84 57 131 141 131c85 0 129 -45 129 -109c0 -48 -28 -86 -70 -126l-58 -57h131v-68h-281z" />
    <glyph glyph-name="brokenbar" unicode="&#xa6;" horiz-adv-x="264" 
d="M84 -148v447h90v-447h-90zM84 369v407h90v-407h-90z" />
    <glyph glyph-name="minus" unicode="&#x2212;" horiz-adv-x="540" 
d="M37 293v96h467v-96h-467z" />
    <glyph glyph-name="multiply" unicode="&#xd7;" horiz-adv-x="509" 
d="M101 115l-66 66l154 153l-155 154l66 67l154 -155l154 154l66 -66l-154 -154l155 -154l-67 -66l-154 155z" />
    <glyph glyph-name="space" unicode=" " horiz-adv-x="238" 
 />
    <glyph glyph-name="exclam" unicode="!" horiz-adv-x="305" 
d="M152 -7c-44 0 -80 34 -80 77c0 44 36 78 80 78c45 0 81 -34 81 -78c0 -43 -36 -77 -81 -77zM104 215l-18 500h135l-19 -500h-98z" />
    <glyph glyph-name="quotedbl" unicode="&#x22;" horiz-adv-x="409" 
d="M70 458l-17 257h121l-17 -257h-87zM253 458l-18 257h121l-17 -257h-86z" />
    <glyph glyph-name="numbersign" unicode="#" horiz-adv-x="532" 
d="M259 99l24 167h-83l-24 -167h-89l24 167h-77v98h92l16 110h-82v95h96l22 146h88l-21 -146h83l22 146h89l-22 -146h81v-95h-95l-16 -110h85v-98h-100l-24 -167h-89zM231 474l-16 -110h83l16 110h-83z" />
    <glyph glyph-name="dollar" unicode="$" horiz-adv-x="635" 
d="M286 -135v126c-171 12 -239 109 -249 230h124c8 -65 30 -120 125 -132v225c-148 25 -225 79 -225 206c0 111 89 194 225 203v90h67v-91c129 -12 209 -79 221 -203h-118c-11 61 -42 96 -103 106v-205c148 -24 234 -74 234 -209c0 -117 -87 -210 -234 -220v-126h-67z
M464 199c0 57 -24 85 -111 104v-214c67 9 111 51 111 110zM179 531c0 -52 19 -82 107 -100v197c-69 -8 -107 -47 -107 -97z" />
    <glyph glyph-name="percent" unicode="%" horiz-adv-x="801" 
d="M205 456c47 0 76 34 76 93c0 58 -29 93 -76 93s-77 -33 -77 -93c0 -61 30 -93 77 -93zM204 375c-98 0 -174 74 -174 173c0 100 79 174 175 174s173 -72 173 -172c0 -101 -76 -175 -174 -175zM128 0l461 715h84l-460 -715h-85zM597 71c47 0 76 34 76 93
c0 58 -29 93 -76 93s-77 -33 -77 -93c0 -61 30 -93 77 -93zM596 -10c-98 0 -173 74 -173 173c0 100 78 174 174 174s174 -72 174 -172c0 -101 -77 -175 -175 -175z" />
    <glyph glyph-name="ampersand" unicode="&#x26;" horiz-adv-x="716" 
d="M685 370l-117 -224l120 -146h-153l-60 73c-45 -46 -104 -82 -196 -82c-139 0 -235 79 -235 204c0 105 65 166 161 212c-38 50 -56 98 -56 141c0 113 93 173 197 173c98 0 180 -59 180 -155c0 -83 -56 -142 -149 -182l126 -154l73 140h109zM293 91c46 0 87 20 120 59
l-152 185c-53 -27 -91 -60 -91 -127c0 -72 45 -117 123 -117zM267 547c0 -33 20 -64 54 -105c67 31 95 63 95 119c0 41 -28 71 -70 71c-44 0 -79 -28 -79 -85z" />
    <glyph glyph-name="quotesingle" unicode="'" horiz-adv-x="229" 
d="M70 458l-17 257h123l-17 -257h-89z" />
    <glyph glyph-name="parenleft" unicode="(" horiz-adv-x="335" 
d="M213 -148c-86 102 -166 252 -166 461c0 208 80 359 166 461h106c-81 -108 -152 -254 -152 -461c0 -208 71 -353 152 -461h-106z" />
    <glyph glyph-name="parenright" unicode=")" horiz-adv-x="335" 
d="M17 -146c80 108 151 254 151 461c0 208 -71 353 -151 461h105c86 -102 166 -252 166 -461c0 -208 -80 -359 -166 -461h-105z" />
    <glyph glyph-name="asterisk" unicode="*" horiz-adv-x="429" 
d="M149 394l-77 55l85 102l-120 23l27 89l114 -50l-13 130h100l-13 -130l114 50l26 -89l-121 -23l85 -102l-76 -55l-67 118z" />
    <glyph glyph-name="plus" unicode="+" horiz-adv-x="539" 
d="M219 96v198h-182v94h182v198h101v-198h183v-94h-183v-198h-101z" />
    <glyph glyph-name="comma" unicode="," horiz-adv-x="292" 
d="M103 -123l-75 33l91 237l115 -46z" />
    <glyph glyph-name="hyphen" unicode="-" horiz-adv-x="353" 
d="M56 229v100h240v-100h-240z" />
    <glyph glyph-name="period" unicode="." horiz-adv-x="289" 
d="M144 -7c-44 0 -79 34 -79 78s35 79 79 79c45 0 80 -35 80 -79s-35 -78 -80 -78z" />
    <glyph glyph-name="slash" unicode="/" horiz-adv-x="415" 
d="M-6 -148l301 924h103l-302 -924h-102z" />
    <glyph glyph-name="zero" unicode="0" horiz-adv-x="701" 
d="M354 96c110 0 163 84 163 246v35c0 152 -58 244 -165 244c-108 0 -167 -86 -167 -245v-36c0 -162 62 -244 169 -244zM351 -10c-182 0 -300 134 -300 349v36c0 217 120 350 300 350c181 0 299 -132 299 -347v-36c0 -215 -112 -352 -299 -352z" />
    <glyph glyph-name="one" unicode="1" horiz-adv-x="419" 
d="M183 0v583l-151 -103v117l166 118h119v-715h-134z" />
    <glyph glyph-name="two" unicode="2" horiz-adv-x="578" 
d="M15 0v24l270 285c68 72 109 135 109 203c0 67 -38 109 -107 109c-71 0 -116 -41 -128 -142h-122c9 156 103 246 254 246c148 0 236 -85 236 -211c0 -93 -55 -174 -140 -256l-159 -155h304v-103h-517z" />
    <glyph glyph-name="three" unicode="3" horiz-adv-x="623" 
d="M304 -10c-170 0 -263 94 -269 231h121c7 -75 49 -131 145 -131c93 0 136 45 136 116c0 78 -42 117 -129 117h-55v95h51c82 0 119 38 119 105c0 58 -37 101 -111 101c-76 0 -125 -46 -133 -118h-118c7 124 100 219 253 219c149 0 236 -86 236 -192
c0 -81 -47 -130 -116 -156c83 -19 138 -78 138 -173c0 -132 -104 -214 -268 -214z" />
    <glyph glyph-name="four" unicode="4" horiz-adv-x="641" 
d="M385 0v145h-354v47l316 523h167v-471h96v-99h-96v-145h-129zM173 244h214v370z" />
    <glyph glyph-name="five" unicode="5" horiz-adv-x="604" 
d="M291 -10c-168 0 -247 92 -255 215h124c11 -66 38 -112 130 -112c82 0 129 57 129 145c0 86 -50 141 -129 141c-73 0 -117 -25 -149 -62h-68l6 398h434v-105h-332l-1 -194c28 32 78 60 154 60c129 0 220 -90 220 -240c0 -151 -109 -246 -263 -246z" />
    <glyph glyph-name="six" unicode="6" horiz-adv-x="641" 
d="M331 -10c-208 0 -280 146 -280 335v17c0 248 125 383 296 383c130 0 216 -64 233 -189h-124c-13 54 -41 86 -110 86c-96 0 -159 -85 -163 -248c33 55 92 92 177 92c137 0 235 -94 235 -233c0 -145 -102 -243 -264 -243zM329 88c80 0 134 57 134 142
c0 86 -52 144 -134 144c-81 0 -138 -57 -138 -136c0 -95 57 -150 138 -150z" />
    <glyph glyph-name="seven" unicode="7" horiz-adv-x="545" 
d="M132 0l230 607h-333v108h500v-16l-260 -699h-137z" />
    <glyph glyph-name="eight" unicode="8" horiz-adv-x="627" 
d="M314 -10c-142 0 -268 72 -268 212c0 91 54 154 134 182c-66 26 -106 78 -106 149c0 121 116 192 240 192c128 0 239 -72 239 -190c0 -73 -42 -122 -106 -150c84 -30 133 -92 133 -179c0 -141 -122 -216 -266 -216zM314 90c76 0 133 44 133 124c0 79 -58 122 -132 122
c-73 0 -135 -43 -135 -123s62 -123 134 -123zM316 423c65 0 111 39 111 104c0 61 -49 102 -113 102c-63 0 -113 -39 -113 -103c0 -65 53 -103 115 -103z" />
    <glyph glyph-name="nine" unicode="9" horiz-adv-x="642" 
d="M302 -9c-146 0 -233 72 -250 195h125c13 -56 46 -92 123 -92c102 0 157 82 159 245c-33 -54 -91 -90 -176 -90c-138 0 -237 91 -237 232c0 146 102 245 265 245c187 0 279 -126 279 -332v-37c0 -235 -104 -366 -288 -366zM311 342c81 0 138 54 138 133
c0 96 -57 152 -139 152c-80 0 -133 -57 -133 -142c0 -86 52 -143 134 -143z" />
    <glyph glyph-name="colon" unicode=":" horiz-adv-x="297" 
d="M148 -7c-44 0 -79 34 -79 78s35 79 79 79c45 0 80 -35 80 -79s-35 -78 -80 -78zM148 285c-44 0 -79 35 -79 79s35 78 79 78c45 0 80 -34 80 -78s-35 -79 -80 -79z" />
    <glyph glyph-name="semicolon" unicode=";" horiz-adv-x="303" 
d="M91 -123l-74 33l91 237l114 -46zM163 285c-45 0 -80 35 -80 79s35 78 80 78c44 0 80 -34 80 -78s-36 -79 -80 -79z" />
    <glyph glyph-name="less" unicode="&#x3c;" horiz-adv-x="507" 
d="M447 81l-398 228v26l398 228v-112l-234 -128l234 -131v-111z" />
    <glyph glyph-name="equal" unicode="=" horiz-adv-x="513" 
d="M39 185v91h434v-91h-434zM39 371v92h434v-92h-434z" />
    <glyph glyph-name="greater" unicode="&#x3e;" horiz-adv-x="507" 
d="M60 81v113l234 128l-234 131v111l399 -229v-25z" />
    <glyph glyph-name="question" unicode="?" horiz-adv-x="516" 
d="M175 215v38c0 79 53 128 101 175c37 37 70 70 70 113c0 51 -28 84 -89 84c-62 0 -105 -44 -112 -113h-116c7 131 100 213 234 213c143 0 210 -78 210 -175c0 -71 -43 -117 -88 -161c-47 -45 -95 -86 -98 -142v-32h-112zM230 -7c-45 0 -82 34 -82 77c0 44 37 78 82 78
c44 0 80 -34 80 -78c0 -43 -36 -77 -80 -77z" />
    <glyph glyph-name="at" unicode="@" horiz-adv-x="917" 
d="M460 -151c-269 0 -421 189 -421 408c0 252 203 432 436 432c238 0 404 -154 404 -365c0 -192 -109 -263 -199 -263c-84 0 -117 32 -128 84c-28 -52 -80 -89 -143 -89c-98 0 -162 68 -162 179c0 137 88 233 197 233c68 0 102 -31 117 -65l7 57h108l-31 -260
c-7 -49 9 -74 46 -74c56 0 112 57 112 197c0 178 -123 299 -328 299c-203 0 -356 -147 -356 -365c0 -185 115 -341 342 -341c112 0 187 33 244 84h83c-57 -90 -181 -151 -328 -151zM439 141c55 0 109 53 109 145c0 63 -32 96 -89 96c-55 0 -101 -54 -101 -144
c0 -59 32 -97 81 -97z" />
    <glyph glyph-name="A" unicode="A" horiz-adv-x="703" 
d="M27 0l239 715h174l236 -715h-138l-57 177h-273l-56 -177h-125zM345 606l-106 -332h211z" />
    <glyph glyph-name="B" unicode="B" horiz-adv-x="645" 
d="M82 0v715h256c147 0 234 -56 234 -186v-4c0 -71 -32 -127 -113 -152c97 -21 143 -74 143 -169v-4c0 -133 -88 -200 -245 -200h-275zM212 95h129c89 0 130 40 130 114v4c0 74 -41 111 -139 111h-120v-229zM212 414h110c88 0 122 32 122 105v4c0 68 -39 97 -124 97h-108
v-206z" />
    <glyph glyph-name="C" unicode="C" horiz-adv-x="741" 
d="M395 -10c-224 0 -349 143 -349 363v8c0 215 148 365 347 365c164 0 291 -82 307 -250h-135c-15 95 -68 144 -171 144c-126 0 -208 -98 -208 -258v-8c0 -161 77 -256 209 -256c99 0 169 50 183 151h130c-21 -172 -143 -259 -313 -259z" />
    <glyph glyph-name="D" unicode="D" horiz-adv-x="714" 
d="M215 105h78c160 0 237 92 237 250v8c0 154 -70 247 -238 247h-77v-505zM82 0v715h217c249 0 370 -142 370 -350v-9c0 -208 -121 -356 -372 -356h-215z" />
    <glyph glyph-name="E" unicode="E" horiz-adv-x="584" 
d="M82 0v715h447v-105h-314v-196h252v-100h-252v-209h331v-105h-464z" />
    <glyph glyph-name="F" unicode="F" horiz-adv-x="559" 
d="M82 0v715h443v-106h-310v-213h244v-103h-244v-293h-133z" />
    <glyph glyph-name="G" unicode="G" horiz-adv-x="775" 
d="M403 -10c-229 0 -357 152 -357 363v8c0 213 148 365 357 365c153 0 289 -70 308 -241h-133c-16 95 -80 136 -173 136c-140 0 -221 -104 -221 -261v-8c0 -153 71 -258 221 -258c134 0 189 81 193 180h-180v100h311v-66c0 -198 -124 -318 -326 -318z" />
    <glyph glyph-name="H" unicode="H" horiz-adv-x="751" 
d="M82 0v715h133v-304h321v304h134v-715h-134v304h-321v-304h-133z" />
    <glyph glyph-name="I" unicode="I" horiz-adv-x="307" 
d="M86 0v715h134v-715h-134z" />
    <glyph glyph-name="J" unicode="J" horiz-adv-x="443" 
d="M148 -9c-59 0 -89 9 -112 21v104c25 -10 50 -18 92 -18c65 0 107 34 107 122v495h134v-498c0 -155 -89 -226 -221 -226z" />
    <glyph glyph-name="K" unicode="K" horiz-adv-x="659" 
d="M82 0v715h133v-324l274 325h143l-296 -342l311 -374h-157l-275 334v-334h-133z" />
    <glyph glyph-name="L" unicode="L" horiz-adv-x="551" 
d="M82 0v715h133v-609h305v-106h-438z" />
    <glyph glyph-name="M" unicode="M" horiz-adv-x="890" 
d="M82 0v715h178l188 -488l184 488h176v-715h-133v540l-213 -540h-43l-217 540v-540h-120z" />
    <glyph glyph-name="N" unicode="N" horiz-adv-x="745" 
d="M82 0v715h159l301 -517v517h121v-715h-138l-322 548v-548h-121z" />
    <glyph glyph-name="O" unicode="O" horiz-adv-x="814" 
d="M410 97c135 0 220 103 220 258v8c0 147 -82 256 -222 256s-223 -103 -223 -257v-8c0 -156 95 -257 225 -257zM408 -10c-219 0 -362 157 -362 363v8c0 209 150 364 362 364c213 0 360 -151 360 -361v-8c0 -209 -143 -366 -360 -366z" />
    <glyph glyph-name="P" unicode="P" horiz-adv-x="609" 
d="M82 0v715h230c160 0 265 -71 265 -221v-4c0 -151 -109 -218 -262 -218h-100v-272h-133zM215 368h97c88 0 135 43 135 122v4c0 85 -50 118 -135 118h-97v-244z" />
    <glyph glyph-name="Q" unicode="Q" horiz-adv-x="814" 
d="M644 -91l-98 105c-41 -15 -88 -24 -138 -24c-219 0 -362 157 -362 363v8c0 209 150 363 362 363c213 0 361 -151 361 -360v-8c0 -118 -46 -218 -124 -284l79 -85zM409 95c20 0 39 2 56 6l-70 76l81 76l88 -95c42 46 66 114 66 198v8c0 147 -82 255 -222 255
c-141 0 -224 -103 -224 -257v-8c0 -160 96 -259 225 -259z" />
    <glyph glyph-name="R" unicode="R" horiz-adv-x="655" 
d="M82 0v715h240c157 0 267 -64 267 -210v-4c0 -112 -70 -169 -159 -192l201 -309h-144l-187 289h-85v-289h-133zM215 384h107c89 0 136 38 136 114v4c0 82 -51 110 -136 110h-107v-228z" />
    <glyph glyph-name="S" unicode="S" horiz-adv-x="635" 
d="M325 -10c-195 0 -277 97 -287 232h128c9 -72 38 -132 159 -132c79 0 135 44 135 110s-33 91 -149 110c-171 23 -252 75 -252 209c0 117 100 205 249 205c154 0 246 -70 260 -207h-122c-13 75 -56 107 -138 107c-81 0 -123 -39 -123 -94c0 -58 24 -87 148 -105
c168 -23 255 -71 255 -214c0 -124 -105 -221 -263 -221z" />
    <glyph glyph-name="T" unicode="T" horiz-adv-x="583" 
d="M225 0v610h-199v105h532v-105h-199v-610h-134z" />
    <glyph glyph-name="U" unicode="U" horiz-adv-x="723" 
d="M357 -10c-179 0 -281 98 -281 282v443h134v-433c0 -131 42 -185 148 -185c103 0 155 46 155 194v424h134v-435c0 -187 -101 -290 -290 -290z" />
    <glyph glyph-name="V" unicode="V" horiz-adv-x="683" 
d="M264 0l-241 715h139l186 -580l187 580h125l-242 -715h-154z" />
    <glyph glyph-name="W" unicode="W" horiz-adv-x="955" 
d="M204 0l-178 715h136l124 -525l139 525h110l142 -528l128 528h124l-179 -715h-133l-141 521l-145 -521h-127z" />
    <glyph glyph-name="X" unicode="X" horiz-adv-x="695" 
d="M36 0l230 367l-214 348h150l152 -254l151 254h137l-211 -345l229 -370h-152l-168 279l-168 -279h-136z" />
    <glyph glyph-name="Y" unicode="Y" horiz-adv-x="629" 
d="M254 0v310l-237 405h147l161 -296l157 296h130l-224 -406v-309h-134z" />
    <glyph glyph-name="Z" unicode="Z" horiz-adv-x="608" 
d="M22 0v18l365 592h-328v105h516v-17l-357 -591h347v-107h-543z" />
    <glyph glyph-name="bracketleft" unicode="[" horiz-adv-x="377" 
d="M79 -148v924h256v-91h-134v-742h134v-91h-256z" />
    <glyph glyph-name="backslash" unicode="\" horiz-adv-x="415" 
d="M319 -148l-301 924h102l301 -924h-102z" />
    <glyph glyph-name="bracketright" unicode="]" horiz-adv-x="377" 
d="M42 -148v91h134v742h-134v91h256v-924h-256z" />
    <glyph glyph-name="asciicircum" unicode="^" horiz-adv-x="516" 
d="M36 402l166 313h113l166 -313h-112l-112 213l-113 -213h-108z" />
    <glyph glyph-name="underscore" unicode="_" horiz-adv-x="410" 
d="M-1 -159v74h412v-74h-412z" />
    <glyph glyph-name="grave" unicode="`" horiz-adv-x="400" 
d="M163 601l-104 155h134l59 -155h-89z" />
    <glyph glyph-name="a" unicode="a" horiz-adv-x="555" 
d="M209 -10c-96 0 -175 46 -175 155c0 122 118 166 268 166h65v27c0 70 -24 105 -95 105c-63 0 -94 -30 -100 -82h-117c10 122 107 173 224 173s209 -48 209 -191v-343h-119v64c-34 -45 -80 -74 -160 -74zM238 77c74 0 129 39 129 106v52h-62c-92 0 -151 -21 -151 -85
c0 -44 24 -73 84 -73z" />
    <glyph glyph-name="b" unicode="b" horiz-adv-x="633" 
d="M364 -10c-83 0 -143 41 -171 94v-84h-121v765h121v-326c29 50 94 95 171 95c131 0 232 -97 232 -266v-8c0 -168 -97 -270 -232 -270zM334 86c89 0 138 60 138 172v8c0 116 -60 173 -139 173c-84 0 -144 -57 -144 -173v-8c0 -117 57 -172 145 -172z" />
    <glyph glyph-name="c" unicode="c" horiz-adv-x="575" 
d="M301 -10c-150 0 -264 98 -264 265v8c0 166 118 271 264 271c116 0 225 -52 239 -196h-117c-10 70 -56 99 -120 99c-83 0 -142 -64 -142 -172v-8c0 -114 56 -174 145 -174c64 0 119 38 126 112h111c-9 -120 -100 -205 -242 -205z" />
    <glyph glyph-name="d" unicode="d" horiz-adv-x="633" 
d="M268 -10c-131 0 -230 93 -230 263v8c0 167 99 273 235 273c85 0 138 -39 167 -91v322h121v-765h-121v88c-28 -52 -95 -98 -172 -98zM298 86c84 0 146 56 146 173v8c0 115 -53 172 -141 172c-89 0 -141 -62 -141 -175v-8c0 -115 58 -170 136 -170z" />
    <glyph glyph-name="e" unicode="e" horiz-adv-x="580" 
d="M302 -10c-154 0 -265 101 -265 266v8c0 162 111 270 260 270c130 0 247 -77 247 -264v-35h-383c4 -99 54 -155 144 -155c73 0 111 29 120 80h117c-17 -110 -106 -170 -240 -170zM163 316h261c-6 90 -52 130 -127 130c-73 0 -122 -49 -134 -130z" />
    <glyph glyph-name="f" unicode="f" horiz-adv-x="362" 
d="M93 0v432h-71v91h71v70c0 115 64 177 176 177c29 0 47 -3 69 -10v-94c-14 5 -33 9 -55 9c-49 0 -69 -32 -69 -77v-75h119v-91h-119v-432h-121z" />
    <glyph glyph-name="g" unicode="g" horiz-adv-x="633" 
d="M295 -192c-164 0 -238 74 -252 174h122c10 -52 50 -82 129 -82c94 0 146 47 146 141v77c-29 -50 -94 -97 -171 -97c-131 0 -232 98 -232 249v7c0 147 100 257 235 257c86 0 138 -39 168 -91v80h121v-484c-1 -154 -104 -231 -266 -231zM299 114c84 0 145 60 145 160v7
c0 99 -54 158 -141 158c-90 0 -142 -65 -142 -160v-8c0 -97 60 -157 138 -157z" />
    <glyph glyph-name="h" unicode="h" horiz-adv-x="608" 
d="M72 0v765h121v-325c25 51 83 94 169 94c105 0 179 -61 179 -205v-329h-121v318c0 79 -32 115 -104 115c-68 0 -123 -42 -123 -125v-308h-121z" />
    <glyph glyph-name="i" unicode="i" horiz-adv-x="271" 
d="M75 0v523h121v-523h-121zM134 609c-40 0 -72 30 -72 69c0 40 32 70 72 70s72 -30 72 -70c0 -39 -32 -69 -72 -69z" />
    <glyph glyph-name="j" unicode="j" horiz-adv-x="271" 
d="M3 -188v93c53 4 72 30 72 74v544h121v-541c0 -106 -48 -168 -193 -170zM134 609c-40 0 -72 30 -72 69c0 40 32 70 72 70s72 -30 72 -70c0 -39 -32 -69 -72 -69z" />
    <glyph glyph-name="k" unicode="k" horiz-adv-x="540" 
d="M72 0v765h121v-472l187 230h132l-203 -240l220 -283h-140l-196 257v-257h-121z" />
    <glyph glyph-name="l" unicode="l" horiz-adv-x="271" 
d="M75 0v765h121v-765h-121z" />
    <glyph glyph-name="m" unicode="m" horiz-adv-x="918" 
d="M72 0v523h121v-80c25 49 82 91 159 91c68 0 122 -29 148 -94c40 65 112 94 177 94c96 0 174 -59 174 -203v-331h-121v323c0 77 -33 110 -93 110s-115 -40 -115 -120v-313h-121v323c0 77 -34 110 -93 110c-60 0 -115 -40 -115 -120v-313h-121z" />
    <glyph glyph-name="n" unicode="n" horiz-adv-x="608" 
d="M72 0v523h121v-83c25 51 83 94 169 94c105 0 179 -61 179 -205v-329h-121v318c0 79 -32 115 -104 115c-68 0 -123 -42 -123 -125v-308h-121z" />
    <glyph glyph-name="o" unicode="o" horiz-adv-x="611" 
d="M306 84c90 0 144 67 144 174v7c0 108 -54 174 -144 174s-145 -65 -145 -173v-8c0 -107 53 -174 145 -174zM305 -10c-154 0 -268 107 -268 266v8c0 162 115 270 269 270c153 0 268 -107 268 -267v-8c0 -163 -115 -269 -269 -269z" />
    <glyph glyph-name="p" unicode="p" horiz-adv-x="633" 
d="M72 -179v702h121v-84c29 50 94 95 171 95c131 0 232 -97 232 -266v-8c0 -168 -97 -270 -232 -270c-83 0 -143 41 -171 92v-261h-121zM334 86c89 0 138 60 138 172v8c0 116 -60 173 -139 173c-84 0 -144 -57 -144 -173v-8c0 -117 57 -172 145 -172z" />
    <glyph glyph-name="q" unicode="q" horiz-adv-x="633" 
d="M440 -179v265c-28 -50 -95 -96 -172 -96c-131 0 -230 93 -230 263v8c0 167 99 273 235 273c85 0 138 -39 167 -91v80h121v-702h-121zM298 86c84 0 146 56 146 173v8c0 115 -53 172 -141 172c-89 0 -141 -62 -141 -175v-8c0 -115 58 -170 136 -170z" />
    <glyph glyph-name="r" unicode="r" horiz-adv-x="397" 
d="M72 0v523h121v-98c33 66 82 105 170 106v-113c-106 -1 -170 -35 -170 -146v-272h-121z" />
    <glyph glyph-name="s" unicode="s" horiz-adv-x="494" 
d="M251 -10c-135 0 -214 62 -219 173h114c6 -53 33 -84 104 -84c65 0 94 23 94 67c0 43 -35 59 -112 72c-138 22 -189 61 -189 159c0 105 98 157 196 157c107 0 192 -40 205 -158h-112c-10 48 -37 70 -93 70c-52 0 -83 -25 -83 -62c0 -38 25 -53 108 -67
c123 -19 196 -49 196 -160c0 -106 -75 -167 -209 -167z" />
    <glyph glyph-name="t" unicode="t" horiz-adv-x="369" 
d="M250 -9c-104 0 -158 56 -158 155v286h-70v91h70v115h121v-115h115v-91h-115v-275c0 -46 22 -67 60 -67c24 0 42 3 59 10v-96c-19 -7 -45 -13 -82 -13z" />
    <glyph glyph-name="u" unicode="u" horiz-adv-x="605" 
d="M247 -10c-103 0 -180 59 -180 198v335h121v-321c0 -79 33 -115 103 -115c65 0 122 42 122 125v311h121v-523h-121v82c-26 -51 -81 -92 -166 -92z" />
    <glyph glyph-name="v" unicode="v" horiz-adv-x="557" 
d="M209 0l-191 523h130l137 -399l135 399h119l-189 -523h-141z" />
    <glyph glyph-name="w" unicode="w" horiz-adv-x="814" 
d="M180 0l-160 523h129l104 -378l111 378h101l102 -378l109 378h118l-164 -523h-123l-97 352l-106 -352h-124z" />
    <glyph glyph-name="x" unicode="x" horiz-adv-x="556" 
d="M21 0l182 268l-170 255h140l109 -169l108 169h127l-169 -246l187 -277h-141l-122 189l-125 -189h-126z" />
    <glyph glyph-name="y" unicode="y" horiz-adv-x="553" 
d="M130 -179l95 232l-207 470h131l139 -337l128 337h118l-285 -702h-119z" />
    <glyph glyph-name="z" unicode="z" horiz-adv-x="493" 
d="M17 0v14l277 413h-250v96h429v-17l-276 -409h268v-97h-448z" />
    <glyph glyph-name="braceleft" unicode="{" horiz-adv-x="396" 
d="M354 -147c-169 0 -252 62 -225 217l17 96c10 55 -17 106 -110 106v87c93 0 120 52 110 106l-17 96c-27 157 56 217 225 217v-89c-90 -2 -122 -30 -108 -127l17 -110c11 -72 -31 -119 -100 -136c70 -16 111 -64 100 -136l-17 -109c-14 -98 18 -127 108 -129v-89z" />
    <glyph glyph-name="bar" unicode="|" horiz-adv-x="259" 
d="M84 -148v924h90v-924h-90z" />
    <glyph glyph-name="braceright" unicode="}" horiz-adv-x="396" 
d="M42 -147v89c89 2 122 31 107 129l-16 109c-11 72 30 120 100 136c-70 17 -111 64 -100 136l16 110c15 97 -18 125 -107 127v89c169 0 252 -60 225 -217l-17 -96c-10 -54 17 -106 109 -106v-87c-92 0 -119 -51 -109 -106l17 -96c27 -155 -56 -217 -225 -217z" />
    <glyph glyph-name="asciitilde" unicode="~" horiz-adv-x="474" 
d="M38 220c7 108 63 155 122 155c68 0 112 -48 145 -48c23 0 42 17 45 50h86c-5 -106 -63 -156 -120 -156c-71 0 -113 49 -147 49c-24 0 -41 -18 -45 -50h-86z" />
    <glyph glyph-name="Adieresis" unicode="&#xc4;" horiz-adv-x="703" 
d="M27 0l239 715h174l236 -715h-138l-57 177h-273l-56 -177h-125zM345 606l-106 -332h211zM244 777c-36 0 -66 29 -66 65s30 65 66 65s66 -29 66 -65s-30 -65 -66 -65zM455 777c-36 0 -66 29 -66 65s30 65 66 65s66 -29 66 -65s-30 -65 -66 -65z" />
    <glyph glyph-name="Aring" unicode="&#xc5;" horiz-adv-x="703" 
d="M27 0l239 715h174l236 -715h-138l-57 177h-273l-56 -177h-125zM350 753c-62 0 -112 49 -112 109s50 109 112 109s112 -49 112 -109s-50 -109 -112 -109zM345 606l-106 -332h211zM350 807c29 0 50 23 50 55s-21 55 -50 55c-30 0 -50 -23 -50 -55s20 -55 50 -55z" />
    <glyph glyph-name="Ccedilla" unicode="&#xc7;" horiz-adv-x="741" 
d="M380 -219c-63 0 -104 34 -110 88h66c3 -17 16 -33 40 -33c23 0 37 14 37 34c0 19 -14 32 -35 32c-14 0 -24 -5 -30 -9l-34 32l39 67c-198 17 -307 155 -307 361v8c0 215 148 365 347 365c164 0 291 -82 307 -250h-135c-15 95 -68 144 -171 144c-126 0 -208 -98 -208 -258
v-8c0 -161 77 -256 209 -256c99 0 169 50 183 151h130c-21 -166 -135 -253 -296 -259l-23 -40c50 6 100 -20 100 -83c0 -56 -47 -86 -109 -86z" />
    <glyph glyph-name="Eacute" unicode="&#xc9;" horiz-adv-x="584" 
d="M261 766l54 135h136l-99 -135h-91zM82 0v715h447v-105h-314v-196h252v-100h-252v-209h331v-105h-464z" />
    <glyph glyph-name="Ntilde" unicode="&#xd1;" horiz-adv-x="745" 
d="M443 768c-48 0 -83 39 -112 39c-18 0 -33 -17 -37 -40h-76c7 84 53 131 109 131c46 0 82 -40 113 -40c18 0 32 17 36 40h77c-8 -84 -55 -130 -110 -130zM82 0v715h159l301 -517v517h121v-715h-138l-322 548v-548h-121z" />
    <glyph glyph-name="Odieresis" unicode="&#xd6;" horiz-adv-x="814" 
d="M300 777c-36 0 -66 29 -66 65s30 65 66 65s66 -29 66 -65s-30 -65 -66 -65zM511 777c-36 0 -66 29 -66 65s30 65 66 65s66 -29 66 -65s-30 -65 -66 -65zM410 97c135 0 220 103 220 258v8c0 147 -82 256 -222 256s-223 -103 -223 -257v-8c0 -156 95 -257 225 -257z
M408 -10c-219 0 -362 157 -362 363v8c0 209 150 364 362 364c213 0 360 -151 360 -361v-8c0 -209 -143 -366 -360 -366z" />
    <glyph glyph-name="Udieresis" unicode="&#xdc;" horiz-adv-x="723" 
d="M357 -10c-179 0 -281 98 -281 282v443h134v-433c0 -131 42 -185 148 -185c103 0 155 46 155 194v424h134v-435c0 -187 -101 -290 -290 -290zM254 777c-36 0 -66 29 -66 65s30 65 66 65s66 -29 66 -65s-30 -65 -66 -65zM465 777c-36 0 -66 29 -66 65s30 65 66 65
s66 -29 66 -65s-30 -65 -66 -65z" />
    <glyph glyph-name="aacute" unicode="&#xe1;" horiz-adv-x="555" 
d="M209 -10c-96 0 -175 46 -175 155c0 122 118 166 268 166h65v27c0 70 -24 105 -95 105c-63 0 -94 -30 -100 -82h-117c10 122 107 173 224 173s209 -48 209 -191v-343h-119v64c-34 -45 -80 -74 -160 -74zM238 77c74 0 129 39 129 106v52h-62c-92 0 -151 -21 -151 -85
c0 -44 24 -73 84 -73zM229 601l59 155h134l-104 -155h-89z" />
    <glyph glyph-name="agrave" unicode="&#xe0;" horiz-adv-x="555" 
d="M209 -10c-96 0 -175 46 -175 155c0 122 118 166 268 166h65v27c0 70 -24 105 -95 105c-63 0 -94 -30 -100 -82h-117c10 122 107 173 224 173s209 -48 209 -191v-343h-119v64c-34 -45 -80 -74 -160 -74zM238 77c74 0 129 39 129 106v52h-62c-92 0 -151 -21 -151 -85
c0 -44 24 -73 84 -73zM240 601l-104 155h134l59 -155h-89z" />
    <glyph glyph-name="acircumflex" unicode="&#xe2;" horiz-adv-x="555" 
d="M209 -10c-96 0 -175 46 -175 155c0 122 118 166 268 166h65v27c0 70 -24 105 -95 105c-63 0 -94 -30 -100 -82h-117c10 122 107 173 224 173s209 -48 209 -191v-343h-119v64c-34 -45 -80 -74 -160 -74zM238 77c74 0 129 39 129 106v52h-62c-92 0 -151 -21 -151 -85
c0 -44 24 -73 84 -73zM109 602l114 151h96l111 -151h-86l-75 68l-76 -68h-84z" />
    <glyph glyph-name="adieresis" unicode="&#xe4;" horiz-adv-x="555" 
d="M209 -10c-96 0 -175 46 -175 155c0 122 118 166 268 166h65v27c0 70 -24 105 -95 105c-63 0 -94 -30 -100 -82h-117c10 122 107 173 224 173s209 -48 209 -191v-343h-119v64c-34 -45 -80 -74 -160 -74zM238 77c74 0 129 39 129 106v52h-62c-92 0 -151 -21 -151 -85
c0 -44 24 -73 84 -73zM180 613c-36 0 -66 29 -66 65c0 35 30 65 66 65s66 -30 66 -65c0 -36 -30 -65 -66 -65zM378 613c-37 0 -66 29 -66 65c0 35 29 65 66 65c36 0 66 -30 66 -65c0 -36 -30 -65 -66 -65z" />
    <glyph glyph-name="atilde" unicode="&#xe3;" horiz-adv-x="555" 
d="M209 -10c-96 0 -175 46 -175 155c0 122 118 166 268 166h65v27c0 70 -24 105 -95 105c-63 0 -94 -30 -100 -82h-117c10 122 107 173 224 173s209 -48 209 -191v-343h-119v64c-34 -45 -80 -74 -160 -74zM238 77c74 0 129 39 129 106v52h-62c-92 0 -151 -21 -151 -85
c0 -44 24 -73 84 -73zM337 606c-48 0 -82 40 -111 40c-18 0 -33 -17 -37 -40h-75c8 84 51 131 107 131c46 0 81 -39 112 -39c18 0 32 16 36 40h75c-8 -84 -52 -132 -107 -132z" />
    <glyph glyph-name="aring" unicode="&#xe5;" horiz-adv-x="555" 
d="M209 -10c-96 0 -175 46 -175 155c0 122 118 166 268 166h65v27c0 70 -24 105 -95 105c-63 0 -94 -30 -100 -82h-117c10 122 107 173 224 173s209 -48 209 -191v-343h-119v64c-34 -45 -80 -74 -160 -74zM238 77c74 0 129 39 129 106v52h-62c-92 0 -151 -21 -151 -85
c0 -44 24 -73 84 -73zM279 643c29 0 50 24 50 55c0 32 -21 55 -50 55s-50 -23 -50 -55c0 -31 21 -55 50 -55zM279 590c-61 0 -111 49 -111 108s50 108 111 108s111 -49 111 -108s-50 -108 -111 -108z" />
    <glyph glyph-name="ccedilla" unicode="&#xe7;" horiz-adv-x="575" 
d="M283 -219c-63 0 -104 34 -110 88h66c3 -17 16 -33 40 -33c23 0 37 14 37 34c0 19 -14 32 -35 32c-14 0 -24 -5 -30 -9l-34 32l40 68c-128 17 -220 111 -220 262v8c0 166 118 271 264 271c116 0 225 -52 239 -196h-117c-10 70 -56 99 -120 99c-83 0 -142 -64 -142 -172v-8
c0 -114 56 -174 145 -174c64 0 119 38 126 112h111c-9 -116 -94 -199 -228 -205l-23 -40c50 6 100 -20 100 -83c0 -56 -47 -86 -109 -86z" />
    <glyph glyph-name="eacute" unicode="&#xe9;" horiz-adv-x="580" 
d="M245 601l59 155h134l-104 -155h-89zM302 -10c-154 0 -265 101 -265 266v8c0 162 111 270 260 270c130 0 247 -77 247 -264v-35h-383c4 -99 54 -155 144 -155c73 0 111 29 120 80h117c-17 -110 -106 -170 -240 -170zM163 316h261c-6 90 -52 130 -127 130
c-73 0 -122 -49 -134 -130z" />
    <glyph glyph-name="egrave" unicode="&#xe8;" horiz-adv-x="580" 
d="M302 -10c-154 0 -265 101 -265 266v8c0 162 111 270 260 270c130 0 247 -77 247 -264v-35h-383c4 -99 54 -155 144 -155c73 0 111 29 120 80h117c-17 -110 -106 -170 -240 -170zM163 316h261c-6 90 -52 130 -127 130c-73 0 -122 -49 -134 -130zM256 601l-104 155h134
l59 -155h-89z" />
    <glyph glyph-name="ecircumflex" unicode="&#xea;" horiz-adv-x="580" 
d="M134 602l114 151h96l111 -151h-86l-75 68l-76 -68h-84zM302 -10c-154 0 -265 101 -265 266v8c0 162 111 270 260 270c130 0 247 -77 247 -264v-35h-383c4 -99 54 -155 144 -155c73 0 111 29 120 80h117c-17 -110 -106 -170 -240 -170zM163 316h261
c-6 90 -52 130 -127 130c-73 0 -122 -49 -134 -130z" />
    <glyph glyph-name="edieresis" unicode="&#xeb;" horiz-adv-x="580" 
d="M196 613c-36 0 -66 29 -66 65c0 35 30 65 66 65s66 -30 66 -65c0 -36 -30 -65 -66 -65zM394 613c-37 0 -66 29 -66 65c0 35 29 65 66 65c36 0 66 -30 66 -65c0 -36 -30 -65 -66 -65zM302 -10c-154 0 -265 101 -265 266v8c0 162 111 270 260 270c130 0 247 -77 247 -264
v-35h-383c4 -99 54 -155 144 -155c73 0 111 29 120 80h117c-17 -110 -106 -170 -240 -170zM163 316h261c-6 90 -52 130 -127 130c-73 0 -122 -49 -134 -130z" />
    <glyph glyph-name="iacute" unicode="&#xed;" horiz-adv-x="271" 
d="M86 601l59 155h134l-104 -155h-89zM75 0v523h121v-523h-121z" />
    <glyph glyph-name="igrave" unicode="&#xec;" horiz-adv-x="271" 
d="M75 0v523h121v-523h-121zM97 601l-104 155h134l59 -155h-89z" />
    <glyph glyph-name="icircumflex" unicode="&#xee;" horiz-adv-x="271" 
d="M-25 602l114 151h96l111 -151h-86l-75 68l-76 -68h-84zM75 0v523h121v-523h-121z" />
    <glyph glyph-name="idieresis" unicode="&#xef;" horiz-adv-x="271" 
d="M39 613c-36 0 -66 29 -66 65c0 35 30 65 66 65s66 -30 66 -65c0 -36 -30 -65 -66 -65zM231 613c-36 0 -66 29 -66 65c0 35 30 65 66 65s66 -30 66 -65c0 -36 -30 -65 -66 -65zM75 0v523h121v-523h-121z" />
    <glyph glyph-name="ntilde" unicode="&#xf1;" horiz-adv-x="608" 
d="M72 0v523h121v-83c25 51 83 94 169 94c105 0 179 -61 179 -205v-329h-121v318c0 79 -32 115 -104 115c-68 0 -123 -42 -123 -125v-308h-121zM361 606c-48 0 -82 40 -111 40c-18 0 -33 -17 -37 -40h-75c8 84 51 131 107 131c46 0 81 -39 112 -39c18 0 32 16 36 40h75
c-8 -84 -52 -132 -107 -132z" />
    <glyph glyph-name="oacute" unicode="&#xf3;" horiz-adv-x="611" 
d="M255 601l59 155h134l-104 -155h-89zM306 84c90 0 144 67 144 174v7c0 108 -54 174 -144 174s-145 -65 -145 -173v-8c0 -107 53 -174 145 -174zM305 -10c-154 0 -268 107 -268 266v8c0 162 115 270 269 270c153 0 268 -107 268 -267v-8c0 -163 -115 -269 -269 -269z" />
    <glyph glyph-name="ograve" unicode="&#xf2;" horiz-adv-x="611" 
d="M306 84c90 0 144 67 144 174v7c0 108 -54 174 -144 174s-145 -65 -145 -173v-8c0 -107 53 -174 145 -174zM305 -10c-154 0 -268 107 -268 266v8c0 162 115 270 269 270c153 0 268 -107 268 -267v-8c0 -163 -115 -269 -269 -269zM266 601l-104 155h134l59 -155h-89z" />
    <glyph glyph-name="ocircumflex" unicode="&#xf4;" horiz-adv-x="611" 
d="M144 602l114 151h96l111 -151h-86l-75 68l-76 -68h-84zM306 84c90 0 144 67 144 174v7c0 108 -54 174 -144 174s-145 -65 -145 -173v-8c0 -107 53 -174 145 -174zM305 -10c-154 0 -268 107 -268 266v8c0 162 115 270 269 270c153 0 268 -107 268 -267v-8
c0 -163 -115 -269 -269 -269z" />
    <glyph glyph-name="odieresis" unicode="&#xf6;" horiz-adv-x="611" 
d="M206 613c-36 0 -66 29 -66 65c0 35 30 65 66 65s66 -30 66 -65c0 -36 -30 -65 -66 -65zM404 613c-37 0 -66 29 -66 65c0 35 29 65 66 65c36 0 66 -30 66 -65c0 -36 -30 -65 -66 -65zM306 84c90 0 144 67 144 174v7c0 108 -54 174 -144 174s-145 -65 -145 -173v-8
c0 -107 53 -174 145 -174zM305 -10c-154 0 -268 107 -268 266v8c0 162 115 270 269 270c153 0 268 -107 268 -267v-8c0 -163 -115 -269 -269 -269z" />
    <glyph glyph-name="otilde" unicode="&#xf5;" horiz-adv-x="611" 
d="M306 84c90 0 144 67 144 174v7c0 108 -54 174 -144 174s-145 -65 -145 -173v-8c0 -107 53 -174 145 -174zM305 -10c-154 0 -268 107 -268 266v8c0 162 115 270 269 270c153 0 268 -107 268 -267v-8c0 -163 -115 -269 -269 -269zM363 606c-48 0 -82 40 -111 40
c-18 0 -33 -17 -37 -40h-75c8 84 51 131 107 131c46 0 81 -39 112 -39c18 0 32 16 36 40h75c-8 -84 -52 -132 -107 -132z" />
    <glyph glyph-name="uacute" unicode="&#xfa;" horiz-adv-x="605" 
d="M252 601l59 155h134l-104 -155h-89zM247 -10c-103 0 -180 59 -180 198v335h121v-321c0 -79 33 -115 103 -115c65 0 122 42 122 125v311h121v-523h-121v82c-26 -51 -81 -92 -166 -92z" />
    <glyph glyph-name="ugrave" unicode="&#xf9;" horiz-adv-x="605" 
d="M247 -10c-103 0 -180 59 -180 198v335h121v-321c0 -79 33 -115 103 -115c65 0 122 42 122 125v311h121v-523h-121v82c-26 -51 -81 -92 -166 -92zM263 601l-104 155h134l59 -155h-89z" />
    <glyph glyph-name="ucircumflex" unicode="&#xfb;" horiz-adv-x="605" 
d="M141 602l114 151h96l111 -151h-86l-75 68l-76 -68h-84zM247 -10c-103 0 -180 59 -180 198v335h121v-321c0 -79 33 -115 103 -115c65 0 122 42 122 125v311h121v-523h-121v82c-26 -51 -81 -92 -166 -92z" />
    <glyph glyph-name="udieresis" unicode="&#xfc;" horiz-adv-x="605" 
d="M203 613c-36 0 -66 29 -66 65c0 35 30 65 66 65s66 -30 66 -65c0 -36 -30 -65 -66 -65zM401 613c-37 0 -66 29 -66 65c0 35 29 65 66 65c36 0 66 -30 66 -65c0 -36 -30 -65 -66 -65zM247 -10c-103 0 -180 59 -180 198v335h121v-321c0 -79 33 -115 103 -115
c65 0 122 42 122 125v311h121v-523h-121v82c-26 -51 -81 -92 -166 -92z" />
    <glyph glyph-name="dagger" unicode="&#x2020;" horiz-adv-x="386" 
d="M142 213v288h-112v90h112v124h103v-124h111v-90h-111v-288h-103z" />
    <glyph glyph-name="degree" unicode="&#xb0;" horiz-adv-x="437" 
d="M219 459c53 0 90 44 90 100c0 58 -37 102 -90 102c-54 0 -93 -44 -93 -102c0 -56 39 -100 93 -100zM219 396c-94 0 -169 74 -169 163c0 91 75 165 169 165c93 0 168 -74 168 -165c0 -89 -75 -163 -168 -163z" />
    <glyph glyph-name="cent" unicode="&#xa2;" horiz-adv-x="577" 
d="M270 -135v127c-136 13 -233 109 -233 264v8c0 152 101 253 233 268v97h67v-97c105 -9 195 -67 208 -194h-114c-9 59 -46 90 -94 100v-356c53 10 96 48 102 113h109c-9 -111 -89 -192 -211 -203v-127h-67zM159 256c0 -98 43 -157 111 -172v353c-66 -16 -111 -77 -111 -173
v-8z" />
    <glyph glyph-name="sterling" unicode="&#xa3;" horiz-adv-x="620" 
d="M42 304v85h60c-9 36 -16 75 -16 120c0 132 106 215 242 215c150 0 229 -83 238 -209h-125c-12 70 -41 106 -110 106c-66 0 -111 -46 -111 -117c0 -42 6 -79 13 -115h199v-85h-182c6 -32 10 -65 10 -102c0 -24 -5 -44 -12 -63c55 -15 104 -41 140 -41c47 0 76 20 80 75
h117c-6 -105 -67 -182 -175 -182c-93 0 -164 59 -217 59c-39 0 -56 -25 -59 -50h-104c5 59 36 125 105 144c6 17 10 35 10 59c0 34 -8 67 -18 101h-85z" />
    <glyph glyph-name="section" unicode="&#xa7;" horiz-adv-x="565" 
d="M276 -137c-122 0 -198 63 -201 171h116c4 -50 27 -81 86 -81c57 0 84 31 84 73c0 43 -25 64 -127 89c-121 30 -200 73 -200 180c0 66 43 114 111 135c-36 29 -55 67 -55 123c0 103 90 171 199 171c120 0 193 -61 197 -167h-115c-4 47 -24 77 -83 77
c-58 0 -83 -33 -83 -74c0 -44 22 -63 122 -88c120 -30 205 -67 205 -181c0 -61 -42 -112 -110 -136c35 -28 54 -67 54 -122c0 -98 -86 -170 -200 -170zM343 200c49 12 71 39 71 76c0 48 -39 65 -115 87l-77 22c-43 -9 -70 -37 -70 -76c0 -45 39 -64 116 -86z" />
    <glyph glyph-name="bullet" unicode="&#x2022;" horiz-adv-x="348" 
d="M174 177c-73 0 -128 57 -128 128c0 70 55 128 128 128c74 0 128 -58 128 -128c0 -71 -54 -128 -128 -128z" />
    <glyph glyph-name="paragraph" unicode="&#xb6;" horiz-adv-x="573" 
d="M268 -100v439h-11c-130 0 -219 61 -219 185c0 129 93 191 219 191h232v-815h-72v755h-78v-755h-71z" />
    <glyph glyph-name="germandbls" unicode="&#xdf;" horiz-adv-x="608" 
d="M353 -9c-43 0 -77 8 -93 14v96c16 -7 41 -15 72 -15c57 0 117 25 117 137v7c0 101 -69 154 -174 152v95c95 -2 128 58 128 110v4c0 60 -36 95 -104 95c-64 0 -106 -46 -106 -120v-566h-121v557c0 141 107 217 232 217c129 0 214 -68 214 -181v-3
c0 -65 -45 -129 -119 -153c99 -24 174 -102 174 -212v-6c0 -166 -102 -228 -220 -228z" />
    <glyph glyph-name="registered" unicode="&#xae;" horiz-adv-x="515" 
d="M178 396v219h82c54 0 87 -22 87 -68v-1c0 -32 -18 -50 -42 -59l55 -91h-59l-48 81h-19v-81h-56zM234 515h24c22 0 34 9 34 28v1c0 21 -13 28 -34 28h-24v-57zM258 319c103 0 183 75 183 184s-77 184 -183 184c-107 0 -184 -76 -184 -185c0 -110 81 -183 184 -183z
M258 281c-125 0 -225 96 -225 221c0 123 99 223 225 223c127 0 224 -99 224 -222c0 -125 -99 -222 -224 -222z" />
    <glyph glyph-name="copyright" unicode="&#xa9;" horiz-adv-x="843" 
d="M425 153c-129 0 -200 79 -200 200v8c0 121 84 201 198 201c97 0 169 -47 177 -146h-96c-7 46 -33 70 -81 70c-60 0 -98 -44 -98 -125v-7c0 -80 35 -124 99 -124c47 0 82 23 88 74h92c-8 -100 -80 -151 -179 -151zM421 32c172 0 321 133 321 327c0 191 -144 324 -319 324
c-178 0 -321 -134 -321 -326c0 -194 149 -325 319 -325zM421 -13c-207 0 -373 160 -373 370c0 207 165 371 375 371c212 0 373 -163 373 -369c0 -211 -166 -372 -375 -372z" />
    <glyph glyph-name="trademark" unicode="&#x2122;" horiz-adv-x="733" 
d="M342 393v322h97l78 -199l77 199h98v-322h-76v224l-91 -224h-25l-91 224v-224h-67zM124 393v262h-92v60h260v-60h-92v-262h-76z" />
    <glyph glyph-name="acute" unicode="&#xb4;" horiz-adv-x="400" 
d="M148 601l59 155h134l-104 -155h-89z" />
    <glyph glyph-name="dieresis" unicode="&#xa8;" horiz-adv-x="400" 
d="M101 613c-36 0 -66 29 -66 65c0 35 30 65 66 65s66 -30 66 -65c0 -36 -30 -65 -66 -65zM299 613c-37 0 -66 29 -66 65c0 35 29 65 66 65c36 0 66 -30 66 -65c0 -36 -30 -65 -66 -65z" />
    <glyph glyph-name="notequal" unicode="&#x2260;" horiz-adv-x="513" 
d="M39 371v92h227l39 100h91l-39 -100h116v-92h-152l-36 -95h188v-91h-223l-39 -101h-91l39 101h-120v91h155l36 95h-191z" />
    <glyph glyph-name="AE" unicode="&#xc6;" horiz-adv-x="971" 
d="M22 0l351 715h543v-105h-312v-196h250v-100h-250v-209h329v-105h-462v183h-232l-87 -183h-130zM444 610l-159 -332h186v332h-27z" />
    <glyph glyph-name="Oslash" unicode="&#xd8;" horiz-adv-x="814" 
d="M84 -33l-50 51l91 98c-51 63 -79 145 -79 237v8c0 209 150 363 362 363c85 0 160 -24 219 -67l78 84l50 -50l-75 -81c56 -63 89 -148 89 -246v-8c0 -209 -144 -366 -361 -366c-93 0 -172 28 -232 76zM409 97c137 0 222 103 222 259v8c0 60 -13 113 -37 154l-336 -364
c39 -37 91 -57 151 -57zM184 354c0 -56 11 -103 31 -141l333 359c-36 30 -84 47 -140 47c-141 0 -224 -103 -224 -257v-8z" />
    <glyph glyph-name="plusminus" unicode="&#xb1;" horiz-adv-x="539" 
d="M219 157v175h-182v94h182v176h101v-176h183v-94h-183v-175h-101zM37 0v89h467v-89h-467z" />
    <glyph glyph-name="lessequal" unicode="&#x2264;" horiz-adv-x="507" 
d="M447 128l-398 213v26l398 213v-111l-223 -114l223 -115v-112zM49 0v89h398v-89h-398z" />
    <glyph glyph-name="greaterequal" unicode="&#x2265;" horiz-adv-x="507" 
d="M60 128v112l223 115l-223 114v111l399 -213v-26zM60 0v89h399v-89h-399z" />
    <glyph glyph-name="yen" unicode="&#xa5;" horiz-adv-x="604" 
d="M76 286v63h149l-204 366h145l147 -288l141 288h128l-192 -366h150v-63h-166v-67h166v-64h-166v-155h-132v155h-166v64h166v67h-166z" />
    <glyph glyph-name="ordfeminine" unicode="&#xaa;" horiz-adv-x="444" 
d="M169 289c-76 0 -140 37 -140 124c0 98 90 132 215 132h51v22c0 50 -19 76 -70 76c-47 0 -69 -24 -75 -59h-104c7 96 84 140 184 140c101 0 173 -41 173 -155v-271h-107v50c-24 -34 -62 -59 -127 -59zM200 368c54 0 95 27 95 76v37h-48c-67 0 -109 -16 -109 -61
c0 -33 18 -52 62 -52z" />
    <glyph glyph-name="ordmasculine" unicode="&#xba;" horiz-adv-x="504" 
d="M253 374c67 0 104 50 104 130v6c0 80 -38 129 -104 129s-106 -48 -106 -129v-6c0 -81 38 -130 106 -130zM252 289c-125 0 -218 84 -218 212v6c0 132 94 217 219 217c124 0 217 -84 217 -213v-6c0 -132 -94 -216 -218 -216z" />
    <glyph glyph-name="ae" unicode="&#xe6;" horiz-adv-x="891" 
d="M620 -10c-90 0 -158 36 -199 100c-46 -67 -106 -100 -205 -100c-101 0 -182 46 -182 155c0 122 116 169 266 169h68v24c0 70 -27 105 -95 105c-63 0 -95 -29 -101 -82h-117c10 122 107 173 221 173c75 0 134 -21 166 -76c41 48 100 76 173 76c126 0 241 -75 241 -264v-33
h-372c4 -100 50 -157 137 -157c70 0 107 29 116 80h116c-17 -110 -104 -170 -233 -170zM239 77c75 0 129 39 129 106v53h-65c-90 0 -149 -20 -149 -84c0 -46 24 -75 85 -75zM486 314h250c-7 92 -49 132 -121 132c-70 0 -118 -50 -129 -132z" />
    <glyph glyph-name="oslash" unicode="&#xf8;" horiz-adv-x="611" 
d="M69 -38l-47 42l73 79c-37 45 -58 104 -58 173v8c0 162 115 270 269 270c61 0 115 -17 159 -48l67 73l47 -42l-67 -73c39 -45 62 -106 62 -177v-8c0 -163 -115 -269 -269 -269c-63 0 -120 18 -164 50zM306 84c91 0 145 67 145 173v8c0 36 -6 67 -18 93l-222 -241
c24 -22 56 -33 95 -33zM161 258c0 -33 5 -62 14 -87l220 239c-24 19 -54 30 -89 30c-90 0 -145 -66 -145 -174v-8z" />
    <glyph glyph-name="questiondown" unicode="&#xbf;" horiz-adv-x="516" 
d="M340 383v-38c0 -79 -52 -128 -100 -175c-38 -36 -70 -70 -70 -113c0 -51 27 -84 88 -84c63 0 105 44 112 113h116c-6 -130 -99 -212 -234 -212c-143 0 -210 77 -210 175c0 70 43 116 88 160c47 45 95 86 99 142v32h111zM286 606c45 0 81 -35 81 -78
c0 -44 -36 -78 -81 -78c-44 0 -81 34 -81 78c0 43 37 78 81 78z" />
    <glyph glyph-name="exclamdown" unicode="&#xa1;" horiz-adv-x="306" 
d="M85 -117l19 500h97l19 -500h-135zM153 450c-44 0 -81 34 -81 78c0 43 37 77 81 77s81 -34 81 -77c0 -44 -37 -78 -81 -78z" />
    <glyph glyph-name="florin" unicode="&#x192;" horiz-adv-x="417" 
d="M27 324v90h94l21 141c17 115 83 169 189 169c31 0 51 -3 72 -11v-95c-14 6 -33 10 -60 10c-50 0 -75 -33 -82 -82l-20 -132h125v-90h-138l-75 -506h-120l75 506h-81z" />
    <glyph glyph-name="approxequal" unicode="&#x2248;" horiz-adv-x="530" 
d="M41 148c8 99 61 142 122 142c78 0 150 -42 201 -42c23 0 42 15 45 45h79c-5 -97 -60 -142 -119 -142c-80 0 -152 43 -203 43c-23 0 -41 -16 -46 -46h-79zM41 342c8 99 61 142 122 142c78 0 150 -42 201 -42c23 0 42 15 45 45h79c-5 -97 -60 -142 -119 -142
c-80 0 -152 43 -203 43c-23 0 -41 -16 -46 -46h-79z" />
    <glyph glyph-name="guillemotleft" unicode="&#xab;" horiz-adv-x="492" 
d="M176 78l-128 183l128 183h95l-123 -183l123 -183h-95zM355 78l-128 183l128 183h95l-123 -183l123 -183h-95z" />
    <glyph glyph-name="guillemotright" unicode="&#xbb;" horiz-adv-x="492" 
d="M43 78l123 183l-123 183h95l128 -183l-128 -183h-95zM221 78l123 183l-123 183h95l128 -183l-128 -183h-95z" />
    <glyph glyph-name="ellipsis" unicode="&#x2026;" horiz-adv-x="840" 
d="M144 -7c-44 0 -79 34 -79 78s35 79 79 79c45 0 80 -35 80 -79s-35 -78 -80 -78zM420 -7c-45 0 -79 34 -79 78s34 79 79 79s80 -35 80 -79s-35 -78 -80 -78zM695 -7c-44 0 -79 34 -79 78s35 79 79 79c45 0 81 -35 81 -79s-36 -78 -81 -78z" />
    <glyph glyph-name="uni00A0" unicode="&#xa0;" horiz-adv-x="271" 
 />
    <glyph glyph-name="Agrave" unicode="&#xc0;" horiz-adv-x="703" 
d="M27 0l239 715h174l236 -715h-138l-57 177h-273l-56 -177h-125zM345 606l-106 -332h211zM311 766l-98 135h136l53 -135h-91z" />
    <glyph glyph-name="Atilde" unicode="&#xc3;" horiz-adv-x="703" 
d="M27 0l239 715h174l236 -715h-138l-57 177h-273l-56 -177h-125zM345 606l-106 -332h211zM408 768c-48 0 -83 39 -112 39c-18 0 -33 -17 -37 -40h-76c7 84 53 131 109 131c46 0 82 -40 113 -40c18 0 32 17 36 40h77c-8 -84 -55 -130 -110 -130z" />
    <glyph glyph-name="Otilde" unicode="&#xd5;" horiz-adv-x="814" 
d="M464 768c-48 0 -83 39 -112 39c-18 0 -33 -17 -37 -40h-76c7 84 53 131 109 131c46 0 82 -40 113 -40c18 0 32 17 36 40h77c-8 -84 -55 -130 -110 -130zM410 97c135 0 220 103 220 258v8c0 147 -82 256 -222 256s-223 -103 -223 -257v-8c0 -156 95 -257 225 -257z
M408 -10c-219 0 -362 157 -362 363v8c0 209 150 364 362 364c213 0 360 -151 360 -361v-8c0 -209 -143 -366 -360 -366z" />
    <glyph glyph-name="OE" unicode="&#x152;" horiz-adv-x="964" 
d="M46 359c0 208 121 356 371 356h493v-105h-299v-196h236v-100h-236v-209h316v-105h-512c-248 0 -369 142 -369 350v9zM478 610h-58c-159 0 -235 -92 -235 -250v-8c0 -154 69 -247 237 -247h56v505z" />
    <glyph glyph-name="oe" unicode="&#x153;" horiz-adv-x="991" 
d="M305 -10c-154 0 -268 107 -268 266v8c0 162 115 270 269 270c90 0 161 -38 204 -103c42 65 111 103 198 103c130 0 248 -77 248 -264v-35h-384c4 -99 54 -155 145 -155c72 0 110 29 120 80h116c-17 -110 -106 -170 -239 -170c-92 0 -163 36 -205 102
c-43 -65 -115 -102 -204 -102zM306 84c90 0 144 68 144 173v8c0 108 -54 174 -144 174s-145 -65 -145 -173v-8c0 -107 54 -174 145 -174zM574 316h261c-6 90 -52 130 -127 130c-72 0 -122 -49 -134 -130z" />
    <glyph glyph-name="endash" unicode="&#x2013;" horiz-adv-x="532" 
d="M45 240v84h441v-84h-441z" />
    <glyph glyph-name="emdash" unicode="&#x2014;" horiz-adv-x="909" 
d="M45 240v84h819v-84h-819z" />
    <glyph glyph-name="quotedblleft" unicode="&#x201c;" horiz-adv-x="473" 
d="M146 464l-110 43l125 220l71 -31zM343 464l-110 43l125 220l70 -31z" />
    <glyph glyph-name="quotedblright" unicode="&#x201d;" horiz-adv-x="473" 
d="M116 464l-71 32l86 231l109 -43zM312 464l-70 32l85 231l110 -43z" />
    <glyph glyph-name="quoteleft" unicode="&#x2018;" horiz-adv-x="277" 
d="M146 464l-110 43l125 220l71 -31z" />
    <glyph glyph-name="quoteright" unicode="&#x2019;" horiz-adv-x="277" 
d="M116 464l-71 32l86 231l109 -43z" />
    <glyph glyph-name="divide" unicode="&#xf7;" horiz-adv-x="540" 
d="M270 71c-42 0 -76 33 -76 75s34 75 76 75c41 0 76 -33 76 -75s-35 -75 -76 -75zM37 296v91h467v-91h-467zM270 461c-42 0 -76 33 -76 75c0 43 34 76 76 76c41 0 76 -33 76 -76c0 -42 -35 -75 -76 -75z" />
    <glyph glyph-name="ydieresis" unicode="&#xff;" horiz-adv-x="553" 
d="M130 -179l95 232l-207 470h131l139 -337l128 337h118l-285 -702h-119zM186 613c-36 0 -66 29 -66 65c0 35 30 65 66 65s66 -30 66 -65c0 -36 -30 -65 -66 -65zM384 613c-37 0 -66 29 -66 65c0 35 29 65 66 65c36 0 66 -30 66 -65c0 -36 -30 -65 -66 -65z" />
    <glyph glyph-name="Ydieresis" unicode="&#x178;" horiz-adv-x="629" 
d="M254 0v310l-237 405h147l161 -296l157 296h130l-224 -406v-309h-134zM211 777c-36 0 -66 29 -66 65s30 65 66 65s66 -29 66 -65s-30 -65 -66 -65zM422 777c-36 0 -66 29 -66 65s30 65 66 65s66 -29 66 -65s-30 -65 -66 -65z" />
    <glyph glyph-name="fraction" unicode="&#x2044;" horiz-adv-x="135" 
d="M-235 0l528 715h77l-528 -715h-77z" />
    <glyph glyph-name="Euro" unicode="&#x20ac;" horiz-adv-x="692" 
d="M28 389v63h69c20 156 122 273 285 273c151 0 247 -84 263 -235h-125c-11 85 -61 132 -138 132c-91 0 -141 -66 -154 -170h206l-12 -63h-197v-68h184l-11 -63h-170c13 -103 63 -163 155 -163c83 0 132 49 145 145h124c-18 -158 -114 -250 -271 -250
c-165 0 -264 111 -284 268h-69v63h66v68h-66z" />
    <glyph glyph-name="guilsinglleft" unicode="&#x2039;" horiz-adv-x="316" 
d="M176 78l-128 183l128 183h97l-123 -183l123 -183h-97z" />
    <glyph glyph-name="guilsinglright" unicode="&#x203a;" horiz-adv-x="316" 
d="M43 78l123 183l-123 183h97l128 -183l-128 -183h-97z" />
    <glyph glyph-name="daggerdbl" unicode="&#x2021;" horiz-adv-x="386" 
d="M142 416v96h-112v85h112v118h103v-118h111v-85h-111v-96h111v-85h-111v-118h-103v118h-112v85h112z" />
    <glyph glyph-name="periodcentered" unicode="&#xb7;" horiz-adv-x="289" 
d="M144 248c-44 0 -79 35 -79 79s35 78 79 78c45 0 80 -34 80 -78s-35 -79 -80 -79z" />
    <glyph glyph-name="quotesinglbase" unicode="&#x201a;" horiz-adv-x="276" 
d="M114 -111l-70 31l85 232l110 -43z" />
    <glyph glyph-name="quotedblbase" unicode="&#x201e;" horiz-adv-x="473" 
d="M114 -111l-70 31l85 232l110 -43zM311 -111l-71 31l86 232l110 -43z" />
    <glyph glyph-name="perthousand" unicode="&#x2030;" horiz-adv-x="1164" 
d="M201 464c45 0 73 34 73 90c0 54 -28 89 -73 89c-44 0 -74 -33 -74 -90s30 -89 74 -89zM201 384c-96 0 -171 72 -171 168c0 98 78 170 171 170c94 0 170 -70 170 -167c0 -98 -75 -171 -170 -171zM122 0l460 715h85l-461 -715h-84zM581 70c45 0 73 34 73 90
c0 54 -28 89 -73 89c-44 0 -73 -33 -73 -90s29 -89 73 -89zM581 -10c-96 0 -170 72 -170 168c0 98 77 170 170 170c94 0 170 -70 170 -167c0 -98 -75 -171 -170 -171zM963 70c46 0 74 34 74 90c0 54 -28 89 -74 89c-44 0 -73 -33 -73 -90s29 -89 73 -89zM963 -10
c-96 0 -170 72 -170 168c0 98 77 170 170 170c94 0 171 -70 171 -167c0 -98 -75 -171 -171 -171z" />
    <glyph glyph-name="Acircumflex" unicode="&#xc2;" horiz-adv-x="703" 
d="M27 0l239 715h174l236 -715h-138l-57 177h-273l-56 -177h-125zM345 606l-106 -332h211zM188 766l111 135h104l108 -135h-88l-74 55l-75 -55h-86z" />
    <glyph glyph-name="Ecircumflex" unicode="&#xca;" horiz-adv-x="584" 
d="M151 766l111 135h104l108 -135h-88l-74 55l-75 -55h-86zM82 0v715h447v-105h-314v-196h252v-100h-252v-209h331v-105h-464z" />
    <glyph glyph-name="Aacute" unicode="&#xc1;" horiz-adv-x="703" 
d="M27 0l239 715h174l236 -715h-138l-57 177h-273l-56 -177h-125zM345 606l-106 -332h211zM298 766l54 135h136l-99 -135h-91z" />
    <glyph glyph-name="Edieresis" unicode="&#xcb;" horiz-adv-x="584" 
d="M82 0v715h447v-105h-314v-196h252v-100h-252v-209h331v-105h-464zM207 777c-36 0 -66 29 -66 65s30 65 66 65s66 -29 66 -65s-30 -65 -66 -65zM418 777c-36 0 -66 29 -66 65s30 65 66 65s66 -29 66 -65s-30 -65 -66 -65z" />
    <glyph glyph-name="Egrave" unicode="&#xc8;" horiz-adv-x="584" 
d="M274 766l-98 135h136l53 -135h-91zM82 0v715h447v-105h-314v-196h252v-100h-252v-209h331v-105h-464z" />
    <glyph glyph-name="Iacute" unicode="&#xcd;" horiz-adv-x="307" 
d="M86 0v715h134v-715h-134zM101 766l54 135h136l-99 -135h-91z" />
    <glyph glyph-name="Icircumflex" unicode="&#xce;" horiz-adv-x="307" 
d="M86 0v715h134v-715h-134zM-9 766l111 135h104l108 -135h-88l-74 55l-75 -55h-86z" />
    <glyph glyph-name="Idieresis" unicode="&#xcf;" horiz-adv-x="307" 
d="M86 0v715h134v-715h-134zM47 777c-36 0 -66 29 -66 65s30 65 66 65s66 -29 66 -65s-30 -65 -66 -65zM258 777c-36 0 -66 29 -66 65s30 65 66 65s66 -29 66 -65s-30 -65 -66 -65z" />
    <glyph glyph-name="Igrave" unicode="&#xcc;" horiz-adv-x="307" 
d="M86 0v715h134v-715h-134zM114 766l-98 135h136l53 -135h-91z" />
    <glyph glyph-name="Oacute" unicode="&#xd3;" horiz-adv-x="814" 
d="M354 766l54 135h136l-99 -135h-91zM410 97c135 0 220 103 220 258v8c0 147 -82 256 -222 256s-223 -103 -223 -257v-8c0 -156 95 -257 225 -257zM408 -10c-219 0 -362 157 -362 363v8c0 209 150 364 362 364c213 0 360 -151 360 -361v-8c0 -209 -143 -366 -360 -366z" />
    <glyph glyph-name="Ocircumflex" unicode="&#xd4;" horiz-adv-x="814" 
d="M244 766l111 135h104l108 -135h-88l-74 55l-75 -55h-86zM410 97c135 0 220 103 220 258v8c0 147 -82 256 -222 256s-223 -103 -223 -257v-8c0 -156 95 -257 225 -257zM408 -10c-219 0 -362 157 -362 363v8c0 209 150 364 362 364c213 0 360 -151 360 -361v-8
c0 -209 -143 -366 -360 -366z" />
    <glyph glyph-name="Ograve" unicode="&#xd2;" horiz-adv-x="814" 
d="M367 766l-98 135h136l53 -135h-91zM410 97c135 0 220 103 220 258v8c0 147 -82 256 -222 256s-223 -103 -223 -257v-8c0 -156 95 -257 225 -257zM408 -10c-219 0 -362 157 -362 363v8c0 209 150 364 362 364c213 0 360 -151 360 -361v-8c0 -209 -143 -366 -360 -366z" />
    <glyph glyph-name="Uacute" unicode="&#xda;" horiz-adv-x="723" 
d="M308 766l54 135h136l-99 -135h-91zM357 -10c-179 0 -281 98 -281 282v443h134v-433c0 -131 42 -185 148 -185c103 0 155 46 155 194v424h134v-435c0 -187 -101 -290 -290 -290z" />
    <glyph glyph-name="Ucircumflex" unicode="&#xdb;" horiz-adv-x="723" 
d="M198 766l111 135h104l108 -135h-88l-74 55l-75 -55h-86zM357 -10c-179 0 -281 98 -281 282v443h134v-433c0 -131 42 -185 148 -185c103 0 155 46 155 194v424h134v-435c0 -187 -101 -290 -290 -290z" />
    <glyph glyph-name="Ugrave" unicode="&#xd9;" horiz-adv-x="723" 
d="M321 766l-98 135h136l53 -135h-91zM357 -10c-179 0 -281 98 -281 282v443h134v-433c0 -131 42 -185 148 -185c103 0 155 46 155 194v424h134v-435c0 -187 -101 -290 -290 -290z" />
    <glyph glyph-name="dotlessi" unicode="&#x131;" horiz-adv-x="271" 
d="M75 0v523h121v-523h-121z" />
    <glyph glyph-name="circumflex" unicode="&#x2c6;" horiz-adv-x="400" 
d="M39 602l114 151h96l111 -151h-86l-75 68l-76 -68h-84z" />
    <glyph glyph-name="tilde" unicode="&#x2dc;" horiz-adv-x="400" 
d="M258 606c-48 0 -82 40 -111 40c-18 0 -33 -17 -37 -40h-75c8 84 51 131 107 131c46 0 81 -39 112 -39c18 0 32 16 36 40h75c-8 -84 -52 -132 -107 -132z" />
    <glyph glyph-name="macron" unicode="&#xaf;" horiz-adv-x="400" 
d="M60 634v78h280v-78h-280z" />
    <glyph glyph-name="breve" unicode="&#x2d8;" horiz-adv-x="400" 
d="M199 606c-82 0 -140 57 -145 143h84c5 -36 24 -58 61 -58s58 22 65 58h82c-5 -86 -67 -143 -147 -143z" />
    <glyph glyph-name="dotaccent" unicode="&#x2d9;" horiz-adv-x="400" 
d="M200 611c-40 0 -71 30 -71 69c0 38 31 68 71 68c39 0 71 -30 71 -68c0 -39 -32 -69 -71 -69z" />
    <glyph glyph-name="ring" unicode="&#x2da;" horiz-adv-x="400" 
d="M200 643c29 0 50 24 50 55c0 32 -21 55 -50 55s-50 -23 -50 -55c0 -31 21 -55 50 -55zM200 590c-61 0 -111 49 -111 108s50 108 111 108s111 -49 111 -108s-50 -108 -111 -108z" />
    <glyph glyph-name="cedilla" unicode="&#xb8;" horiz-adv-x="400" 
d="M206 -219c-63 0 -104 34 -110 88h66c3 -17 16 -33 40 -33c23 0 37 14 37 34c0 19 -14 32 -35 32c-14 0 -24 -5 -30 -9l-34 32l44 75h60l-29 -50c50 6 100 -20 100 -83c0 -56 -47 -86 -109 -86z" />
    <glyph glyph-name="hungarumlaut" unicode="&#x2dd;" horiz-adv-x="400" 
d="M80 601l41 155h113l-76 -155h-78zM243 601l41 155h113l-76 -155h-78z" />
    <glyph glyph-name="ogonek" unicode="&#x2db;" horiz-adv-x="400" 
d="M213 -182c-63 0 -109 29 -109 79c0 46 39 82 82 103h82c-39 -27 -58 -50 -58 -77c0 -22 13 -33 35 -33c15 0 31 3 43 9v-67c-17 -8 -42 -14 -75 -14z" />
    <glyph glyph-name="caron" unicode="&#x2c7;" horiz-adv-x="400" 
d="M151 602l-112 151h87l75 -67l75 67h84l-113 -151h-96z" />
    <glyph glyph-name="space_uni0326" horiz-adv-x="400" 
d="M186 -225l-71 27l52 165l111 -22z" />
    <glyph glyph-name="caron.alt" horiz-adv-x="400" 
d="M170 590l10 175h110l-49 -175h-71z" />
    <glyph glyph-name="space_uni0326.alt" horiz-adv-x="400" 
d="M248 588l-111 22l92 169l70 -26z" />
    <glyph glyph-name="grave.uc" horiz-adv-x="400" 
d="M163 766l-98 135h136l53 -135h-91z" />
    <glyph glyph-name="dieresis.uc" horiz-adv-x="400" 
d="M94 777c-36 0 -66 29 -66 65s30 65 66 65s66 -29 66 -65s-30 -65 -66 -65zM305 777c-36 0 -66 29 -66 65s30 65 66 65s66 -29 66 -65s-30 -65 -66 -65z" />
    <glyph glyph-name="macron.uc" horiz-adv-x="400" 
d="M56 780v81h288v-81h-288z" />
    <glyph glyph-name="acute.uc" horiz-adv-x="400" 
d="M146 766l54 135h136l-99 -135h-91z" />
    <glyph glyph-name="circumflex.uc" horiz-adv-x="400" 
d="M38 766l111 135h104l108 -135h-88l-74 55l-75 -55h-86z" />
    <glyph glyph-name="caron.uc" horiz-adv-x="400" 
d="M146 766l-108 135h88l75 -55l74 55h86l-110 -135h-105z" />
    <glyph glyph-name="breve.uc" horiz-adv-x="400" 
d="M199 761c-83 0 -141 57 -145 140h85c5 -34 24 -56 60 -56s57 21 63 56h84c-5 -83 -66 -140 -147 -140z" />
    <glyph glyph-name="dotaccent.uc" horiz-adv-x="400" 
d="M200 775c-40 0 -71 31 -71 69s31 68 71 68c39 0 71 -30 71 -68s-32 -69 -71 -69z" />
    <glyph glyph-name="ring.uc" horiz-adv-x="400" 
d="M200 807c29 0 50 23 50 55s-21 55 -50 55c-30 0 -50 -23 -50 -55s20 -55 50 -55zM200 753c-62 0 -112 49 -112 109s50 109 112 109s112 -49 112 -109s-50 -109 -112 -109z" />
    <glyph glyph-name="tilde.uc" horiz-adv-x="400" 
d="M258 768c-48 0 -83 39 -112 39c-18 0 -33 -17 -37 -40h-76c7 84 53 131 109 131c46 0 82 -40 113 -40c18 0 32 17 36 40h77c-8 -84 -55 -130 -110 -130z" />
    <glyph glyph-name="hungarumlaut.uc" horiz-adv-x="400" 
d="M74 766l38 135h118l-73 -135h-83zM244 766l38 135h118l-73 -135h-83z" />
    <glyph glyph-name="Dcroat" unicode="&#x110;" horiz-adv-x="739" 
d="M32 311v95h69v309h217c249 0 370 -142 370 -350v-9c0 -208 -120 -356 -371 -356h-216v311h-69zM233 105h80c160 0 236 92 236 250v8c0 154 -69 247 -237 247h-79v-204h173v-95h-173v-206z" />
    <glyph glyph-name="Eng" unicode="&#x14a;" horiz-adv-x="745" 
d="M448 -193c-57 0 -86 10 -109 21v101c25 -10 48 -18 88 -18c60 0 100 30 104 95l-326 549v-555h-123v715h161l297 -507v507h123v-700c0 -138 -86 -208 -215 -208z" />
    <glyph glyph-name="IJ" unicode="&#x132;" horiz-adv-x="715" 
d="M86 0v715h134v-715h-134zM419 -9c-59 0 -89 9 -112 21v104c25 -10 50 -18 92 -18c65 0 107 34 107 122v495h134v-498c0 -155 -89 -226 -221 -226z" />
    <glyph glyph-name="uni0237" unicode="&#x237;" horiz-adv-x="271" 
d="M3 -188v93c53 4 72 30 72 74v544h121v-541c0 -106 -48 -168 -193 -170z" />
    <glyph glyph-name="dcroat" unicode="&#x111;" horiz-adv-x="633" 
d="M271 604v75h169v86h121v-86h68v-75h-68v-604h-121v88c-28 -52 -95 -98 -172 -98c-131 0 -230 93 -230 263v8c0 167 99 273 235 273c85 0 138 -39 167 -91v161h-169zM298 86c84 0 146 56 146 173v8c0 115 -53 172 -141 172c-89 0 -141 -62 -141 -175v-8
c0 -115 58 -170 136 -170z" />
    <glyph glyph-name="eng" unicode="&#x14b;" horiz-adv-x="608" 
d="M349 -188v93c53 4 71 30 71 74v339c0 79 -32 115 -104 115c-68 0 -123 -42 -123 -125v-308h-121v523h121v-83c25 51 83 94 169 94c105 0 179 -61 179 -205v-347c0 -106 -48 -168 -192 -170z" />
    <glyph glyph-name="ij" unicode="&#x133;" horiz-adv-x="542" 
d="M75 0v523h121v-523h-121zM134 609c-40 0 -72 30 -72 69c0 40 32 70 72 70s72 -30 72 -70c0 -39 -32 -69 -72 -69zM273 -188v93c53 4 72 30 72 74v544h121v-541c0 -106 -48 -168 -193 -170zM404 609c-40 0 -72 30 -72 69c0 40 32 70 72 70s72 -30 72 -70
c0 -39 -32 -69 -72 -69z" />
    <glyph glyph-name="Abreve" unicode="&#x102;" horiz-adv-x="703" 
d="M27 0l239 715h174l236 -715h-138l-57 177h-273l-56 -177h-125zM345 606l-106 -332h211zM349 761c-83 0 -141 57 -145 140h85c5 -34 24 -56 60 -56s57 21 63 56h84c-5 -83 -66 -140 -147 -140z" />
    <glyph glyph-name="Amacron" unicode="&#x100;" horiz-adv-x="703" 
d="M27 0l239 715h174l236 -715h-138l-57 177h-273l-56 -177h-125zM345 606l-106 -332h211zM206 780v81h288v-81h-288z" />
    <glyph glyph-name="Aogonek" unicode="&#x104;" horiz-adv-x="703" 
d="M605 -182c-68 0 -112 31 -112 81c0 45 39 80 81 101h-36l-57 177h-273l-56 -177h-125l239 715h174l233 -708c-49 -28 -71 -56 -71 -83c0 -21 13 -32 35 -32c15 0 31 3 43 9v-69c-17 -8 -41 -14 -75 -14zM345 606l-106 -332h211z" />
    <glyph glyph-name="Aringacute" unicode="&#x1fa;" horiz-adv-x="703" 
d="M27 0l239 715h174l236 -715h-138l-57 177h-273l-56 -177h-125zM356 746c-62 0 -112 49 -112 109s50 109 112 109s112 -49 112 -109s-50 -109 -112 -109zM345 606l-106 -332h211zM309 988l54 135h136l-99 -135h-91zM356 800c29 0 50 23 50 55s-21 55 -50 55
c-30 0 -50 -23 -50 -55s20 -55 50 -55z" />
    <glyph glyph-name="AEacute" unicode="&#x1fc;" horiz-adv-x="971" 
d="M22 0l351 715h543v-105h-312v-196h250v-100h-250v-209h329v-105h-462v183h-232l-87 -183h-130zM444 610l-159 -332h186v332h-27zM559 766l54 135h136l-99 -135h-91z" />
    <glyph glyph-name="Cacute" unicode="&#x106;" horiz-adv-x="741" 
d="M395 -10c-224 0 -349 143 -349 363v8c0 215 148 365 347 365c164 0 291 -82 307 -250h-135c-15 95 -68 144 -171 144c-126 0 -208 -98 -208 -258v-8c0 -161 77 -256 209 -256c99 0 169 50 183 151h130c-21 -172 -143 -259 -313 -259zM342 766l54 135h136l-99 -135h-91z
" />
    <glyph glyph-name="Ccaron" unicode="&#x10c;" horiz-adv-x="741" 
d="M340 766l-108 135h88l75 -55l74 55h86l-110 -135h-105zM395 -10c-224 0 -349 143 -349 363v8c0 215 148 365 347 365c164 0 291 -82 307 -250h-135c-15 95 -68 144 -171 144c-126 0 -208 -98 -208 -258v-8c0 -161 77 -256 209 -256c99 0 169 50 183 151h130
c-21 -172 -143 -259 -313 -259z" />
    <glyph glyph-name="Ccircumflex" unicode="&#x108;" horiz-adv-x="741" 
d="M232 766l111 135h104l108 -135h-88l-74 55l-75 -55h-86zM395 -10c-224 0 -349 143 -349 363v8c0 215 148 365 347 365c164 0 291 -82 307 -250h-135c-15 95 -68 144 -171 144c-126 0 -208 -98 -208 -258v-8c0 -161 77 -256 209 -256c99 0 169 50 183 151h130
c-21 -172 -143 -259 -313 -259z" />
    <glyph glyph-name="Cdotaccent" unicode="&#x10a;" horiz-adv-x="741" 
d="M395 -10c-224 0 -349 143 -349 363v8c0 215 148 365 347 365c164 0 291 -82 307 -250h-135c-15 95 -68 144 -171 144c-126 0 -208 -98 -208 -258v-8c0 -161 77 -256 209 -256c99 0 169 50 183 151h130c-21 -172 -143 -259 -313 -259zM391 775c-40 0 -71 31 -71 69
s31 68 71 68c39 0 71 -30 71 -68s-32 -69 -71 -69z" />
    <glyph glyph-name="Dcaron" unicode="&#x10e;" horiz-adv-x="714" 
d="M270 766l-108 135h88l75 -55l74 55h86l-110 -135h-105zM215 105h78c160 0 237 92 237 250v8c0 154 -70 247 -238 247h-77v-505zM82 0v715h217c249 0 370 -142 370 -350v-9c0 -208 -121 -356 -372 -356h-215z" />
    <glyph glyph-name="Ebreve" unicode="&#x114;" horiz-adv-x="584" 
d="M82 0v715h447v-105h-314v-196h252v-100h-252v-209h331v-105h-464zM316 761c-83 0 -141 57 -145 140h85c5 -34 24 -56 60 -56s57 21 63 56h84c-5 -83 -66 -140 -147 -140z" />
    <glyph glyph-name="Ecaron" unicode="&#x11a;" horiz-adv-x="584" 
d="M261 766l-108 135h88l75 -55l74 55h86l-110 -135h-105zM82 0v715h447v-105h-314v-196h252v-100h-252v-209h331v-105h-464z" />
    <glyph glyph-name="Edotaccent" unicode="&#x116;" horiz-adv-x="584" 
d="M313 775c-40 0 -71 31 -71 69s31 68 71 68c39 0 71 -30 71 -68s-32 -69 -71 -69zM82 0v715h447v-105h-314v-196h252v-100h-252v-209h331v-105h-464z" />
    <glyph glyph-name="Emacron" unicode="&#x112;" horiz-adv-x="584" 
d="M82 0v715h447v-105h-314v-196h252v-100h-252v-209h331v-105h-464zM169 780v81h288v-81h-288z" />
    <glyph glyph-name="Eogonek" unicode="&#x118;" horiz-adv-x="584" 
d="M459 -182c-67 0 -111 31 -111 81c0 45 39 80 81 101h-347v715h447v-105h-314v-196h252v-100h-252v-209h331v-105h-32c-38 -27 -57 -49 -57 -76c0 -21 13 -32 35 -32c15 0 30 3 43 9v-69c-17 -8 -42 -14 -76 -14z" />
    <glyph glyph-name="Gbreve" unicode="&#x11e;" horiz-adv-x="775" 
d="M403 -10c-229 0 -357 152 -357 363v8c0 213 148 365 357 365c153 0 289 -70 308 -241h-133c-16 95 -80 136 -173 136c-140 0 -221 -104 -221 -261v-8c0 -153 71 -258 221 -258c134 0 189 81 193 180h-180v100h311v-66c0 -198 -124 -318 -326 -318zM397 761
c-83 0 -141 57 -145 140h85c5 -34 24 -56 60 -56s57 21 63 56h84c-5 -83 -66 -140 -147 -140z" />
    <glyph glyph-name="Gcircumflex" unicode="&#x11c;" horiz-adv-x="775" 
d="M403 -10c-229 0 -357 152 -357 363v8c0 213 148 365 357 365c153 0 289 -70 308 -241h-133c-16 95 -80 136 -173 136c-140 0 -221 -104 -221 -261v-8c0 -153 71 -258 221 -258c134 0 189 81 193 180h-180v100h311v-66c0 -198 -124 -318 -326 -318zM236 766l111 135h104
l108 -135h-88l-74 55l-75 -55h-86z" />
    <glyph glyph-name="Gcommaaccent" unicode="&#x122;" horiz-adv-x="775" 
d="M403 -10c-229 0 -357 152 -357 363v8c0 213 148 365 357 365c153 0 289 -70 308 -241h-133c-16 95 -80 136 -173 136c-140 0 -221 -104 -221 -261v-8c0 -153 71 -258 221 -258c134 0 189 81 193 180h-180v100h311v-66c0 -198 -124 -318 -326 -318zM372 -225l-71 27
l52 165l111 -22z" />
    <glyph glyph-name="Gdotaccent" unicode="&#x120;" horiz-adv-x="775" 
d="M403 -10c-229 0 -357 152 -357 363v8c0 213 148 365 357 365c153 0 289 -70 308 -241h-133c-16 95 -80 136 -173 136c-140 0 -221 -104 -221 -261v-8c0 -153 71 -258 221 -258c134 0 189 81 193 180h-180v100h311v-66c0 -198 -124 -318 -326 -318zM398 775
c-40 0 -71 31 -71 69s31 68 71 68c39 0 71 -30 71 -68s-32 -69 -71 -69z" />
    <glyph glyph-name="Hbar" unicode="&#x126;" horiz-adv-x="751" 
d="M16 504v78h66v133h133v-133h321v133h134v-133h66v-78h-66v-504h-134v304h-321v-304h-133v504h-66zM215 411h321v93h-321v-93z" />
    <glyph glyph-name="Hcircumflex" unicode="&#x124;" horiz-adv-x="751" 
d="M82 0v715h133v-304h321v304h134v-715h-134v304h-321v-304h-133zM213 766l111 135h104l108 -135h-88l-74 55l-75 -55h-86z" />
    <glyph glyph-name="Idotaccent" unicode="&#x130;" horiz-adv-x="307" 
d="M86 0v715h134v-715h-134zM154 775c-40 0 -71 31 -71 69s31 68 71 68c39 0 71 -30 71 -68s-32 -69 -71 -69z" />
    <glyph glyph-name="Ibreve" unicode="&#x12c;" horiz-adv-x="307" 
d="M86 0v715h134v-715h-134zM154 761c-83 0 -141 57 -145 140h85c5 -34 24 -56 60 -56s57 21 63 56h84c-5 -83 -66 -140 -147 -140z" />
    <glyph glyph-name="Imacron" unicode="&#x12a;" horiz-adv-x="307" 
d="M86 0v715h134v-715h-134zM9 780v81h288v-81h-288z" />
    <glyph glyph-name="Iogonek" unicode="&#x12e;" horiz-adv-x="307" 
d="M155 -182c-68 0 -112 31 -112 81c0 45 39 80 81 101h-38v715h134v-708c-46 -28 -68 -55 -68 -83c0 -21 13 -32 35 -32c15 0 31 3 43 9v-69c-17 -8 -41 -14 -75 -14z" />
    <glyph glyph-name="Itilde" unicode="&#x128;" horiz-adv-x="307" 
d="M86 0v715h134v-715h-134zM213 768c-48 0 -83 39 -112 39c-18 0 -33 -17 -37 -40h-76c7 84 53 131 109 131c46 0 82 -40 113 -40c18 0 32 17 36 40h77c-8 -84 -55 -130 -110 -130z" />
    <glyph glyph-name="Jcircumflex" unicode="&#x134;" horiz-adv-x="443" 
d="M137 766l111 135h104l108 -135h-88l-74 55l-75 -55h-86zM148 -9c-59 0 -89 9 -112 21v104c25 -10 50 -18 92 -18c65 0 107 34 107 122v495h134v-498c0 -155 -89 -226 -221 -226z" />
    <glyph glyph-name="Kcommaaccent" unicode="&#x136;" horiz-adv-x="659" 
d="M82 0v715h133v-324l274 325h143l-296 -342l311 -374h-157l-275 334v-334h-133zM316 -225l-71 27l52 165l111 -22z" />
    <glyph glyph-name="Lacute" unicode="&#x139;" horiz-adv-x="551" 
d="M99 766l54 135h136l-99 -135h-91zM82 0v715h133v-609h305v-106h-438z" />
    <glyph glyph-name="Lcaron" unicode="&#x13d;" horiz-adv-x="551" 
d="M313 550l20 165h115l-59 -165h-76zM82 0v715h133v-609h305v-106h-438z" />
    <glyph glyph-name="Lcommaaccent" unicode="&#x13b;" horiz-adv-x="551" 
d="M274 -225l-71 27l52 165l111 -22zM82 0v715h133v-609h305v-106h-438z" />
    <glyph glyph-name="Ldot" unicode="&#x13f;" horiz-adv-x="561" 
d="M82 0v715h133v-609h305v-106h-438zM429 312c-44 0 -79 35 -79 79s35 78 79 78c45 0 80 -34 80 -78s-35 -79 -80 -79z" />
    <glyph glyph-name="Nacute" unicode="&#x143;" horiz-adv-x="745" 
d="M333 766l54 135h136l-99 -135h-91zM82 0v715h159l301 -517v517h121v-715h-138l-322 548v-548h-121z" />
    <glyph glyph-name="Ncaron" unicode="&#x147;" horiz-adv-x="745" 
d="M331 766l-108 135h88l75 -55l74 55h86l-110 -135h-105zM82 0v715h159l301 -517v517h121v-715h-138l-322 548v-548h-121z" />
    <glyph glyph-name="Ncommaaccent" unicode="&#x145;" horiz-adv-x="745" 
d="M337 -225l-71 27l52 165l111 -22zM82 0v715h159l301 -517v517h121v-715h-138l-322 548v-548h-121z" />
    <glyph glyph-name="Obreve" unicode="&#x14e;" horiz-adv-x="814" 
d="M405 761c-83 0 -141 57 -145 140h85c5 -34 24 -56 60 -56s57 21 63 56h84c-5 -83 -66 -140 -147 -140zM410 97c135 0 220 103 220 258v8c0 147 -82 256 -222 256s-223 -103 -223 -257v-8c0 -156 95 -257 225 -257zM408 -10c-219 0 -362 157 -362 363v8
c0 209 150 364 362 364c213 0 360 -151 360 -361v-8c0 -209 -143 -366 -360 -366z" />
    <glyph glyph-name="Ohungarumlaut" unicode="&#x150;" horiz-adv-x="814" 
d="M272 766l38 135h118l-73 -135h-83zM442 766l38 135h118l-73 -135h-83zM410 97c135 0 220 103 220 258v8c0 147 -82 256 -222 256s-223 -103 -223 -257v-8c0 -156 95 -257 225 -257zM408 -10c-219 0 -362 157 -362 363v8c0 209 150 364 362 364c213 0 360 -151 360 -361
v-8c0 -209 -143 -366 -360 -366z" />
    <glyph glyph-name="Omacron" unicode="&#x14c;" horiz-adv-x="814" 
d="M262 780v81h288v-81h-288zM410 97c135 0 220 103 220 258v8c0 147 -82 256 -222 256s-223 -103 -223 -257v-8c0 -156 95 -257 225 -257zM408 -10c-219 0 -362 157 -362 363v8c0 209 150 364 362 364c213 0 360 -151 360 -361v-8c0 -209 -143 -366 -360 -366z" />
    <glyph glyph-name="Oslashacute" unicode="&#x1fe;" horiz-adv-x="814" 
d="M84 -33l-50 51l91 98c-51 63 -79 145 -79 237v8c0 209 150 363 362 363c85 0 160 -24 219 -67l78 84l50 -50l-75 -81c56 -63 89 -148 89 -246v-8c0 -209 -144 -366 -361 -366c-93 0 -172 28 -232 76zM409 97c137 0 222 103 222 259v8c0 60 -13 113 -37 154l-336 -364
c39 -37 91 -57 151 -57zM184 354c0 -56 11 -103 31 -141l333 359c-36 30 -84 47 -140 47c-141 0 -224 -103 -224 -257v-8zM355 766l54 135h136l-99 -135h-91z" />
    <glyph glyph-name="Racute" unicode="&#x154;" horiz-adv-x="655" 
d="M268 766l54 135h136l-99 -135h-91zM82 0v715h240c157 0 267 -64 267 -210v-4c0 -112 -70 -169 -159 -192l201 -309h-144l-187 289h-85v-289h-133zM215 384h107c89 0 136 38 136 114v4c0 82 -51 110 -136 110h-107v-228z" />
    <glyph glyph-name="Rcaron" unicode="&#x158;" horiz-adv-x="655" 
d="M266 766l-108 135h88l75 -55l74 55h86l-110 -135h-105zM82 0v715h240c157 0 267 -64 267 -210v-4c0 -112 -70 -169 -159 -192l201 -309h-144l-187 289h-85v-289h-133zM215 384h107c89 0 136 38 136 114v4c0 82 -51 110 -136 110h-107v-228z" />
    <glyph glyph-name="Rcommaaccent" unicode="&#x156;" horiz-adv-x="655" 
d="M306 -225l-71 27l52 165l111 -22zM82 0v715h240c157 0 267 -64 267 -210v-4c0 -112 -70 -169 -159 -192l201 -309h-144l-187 289h-85v-289h-133zM215 384h107c89 0 136 38 136 114v4c0 82 -51 110 -136 110h-107v-228z" />
    <glyph glyph-name="Sacute" unicode="&#x15a;" horiz-adv-x="635" 
d="M325 -10c-195 0 -277 97 -287 232h128c9 -72 38 -132 159 -132c79 0 135 44 135 110s-33 91 -149 110c-171 23 -252 75 -252 209c0 117 100 205 249 205c154 0 246 -70 260 -207h-122c-13 75 -56 107 -138 107c-81 0 -123 -39 -123 -94c0 -58 24 -87 148 -105
c168 -23 255 -71 255 -214c0 -124 -105 -221 -263 -221zM257 766l54 135h136l-99 -135h-91z" />
    <glyph glyph-name="Scedilla" unicode="&#x15e;" horiz-adv-x="635" 
d="M295 -219c-63 0 -104 34 -110 88h66c3 -17 16 -33 40 -33c23 0 37 14 37 34c0 19 -14 32 -35 32c-14 0 -24 -5 -30 -9l-34 32l40 68c-155 17 -222 108 -231 229h128c9 -72 38 -132 159 -132c79 0 135 44 135 110s-33 91 -149 110c-171 23 -252 75 -252 209
c0 117 100 205 249 205c154 0 246 -70 260 -207h-122c-13 75 -56 107 -138 107c-81 0 -123 -39 -123 -94c0 -58 24 -87 148 -105c168 -23 255 -71 255 -214c0 -124 -104 -220 -261 -221l-23 -40c50 6 100 -20 100 -83c0 -56 -47 -86 -109 -86z" />
    <glyph glyph-name="Scircumflex" unicode="&#x15c;" horiz-adv-x="635" 
d="M147 766l111 135h104l108 -135h-88l-74 55l-75 -55h-86zM325 -10c-195 0 -277 97 -287 232h128c9 -72 38 -132 159 -132c79 0 135 44 135 110s-33 91 -149 110c-171 23 -252 75 -252 209c0 117 100 205 249 205c154 0 246 -70 260 -207h-122c-13 75 -56 107 -138 107
c-81 0 -123 -39 -123 -94c0 -58 24 -87 148 -105c168 -23 255 -71 255 -214c0 -124 -105 -221 -263 -221z" />
    <glyph glyph-name="Scommaaccent" unicode="&#x218;" horiz-adv-x="636" 
d="M283 -225l-71 27l52 165l111 -22zM325 -10c-195 0 -277 97 -287 232h128c9 -72 38 -132 159 -132c79 0 135 44 135 110s-33 91 -149 110c-171 23 -252 75 -252 209c0 117 100 205 249 205c154 0 246 -70 260 -207h-122c-13 75 -56 107 -138 107c-81 0 -123 -39 -123 -94
c0 -58 24 -87 148 -105c168 -23 255 -71 255 -214c0 -124 -105 -221 -263 -221z" />
    <glyph glyph-name="Tcaron" unicode="&#x164;" horiz-adv-x="583" 
d="M237 766l-108 135h88l75 -55l74 55h86l-110 -135h-105zM225 0v610h-199v105h532v-105h-199v-610h-134z" />
    <glyph glyph-name="Tcommaaccent" unicode="&#x162;" horiz-adv-x="584" 
d="M265 -225l-71 27l52 165l111 -22zM225 0v610h-199v105h532v-105h-199v-610h-134z" />
    <glyph glyph-name="Tbar" unicode="&#x166;" horiz-adv-x="583" 
d="M87 315v90h138v205h-199v105h532v-105h-199v-205h137v-90h-137v-315h-134v315h-138z" />
    <glyph glyph-name="Ubreve" unicode="&#x16c;" horiz-adv-x="723" 
d="M357 -10c-179 0 -281 98 -281 282v443h134v-433c0 -131 42 -185 148 -185c103 0 155 46 155 194v424h134v-435c0 -187 -101 -290 -290 -290zM359 761c-83 0 -141 57 -145 140h85c5 -34 24 -56 60 -56s57 21 63 56h84c-5 -83 -66 -140 -147 -140z" />
    <glyph glyph-name="Uhungarumlaut" unicode="&#x170;" horiz-adv-x="723" 
d="M226 766l38 135h118l-73 -135h-83zM396 766l38 135h118l-73 -135h-83zM357 -10c-179 0 -281 98 -281 282v443h134v-433c0 -131 42 -185 148 -185c103 0 155 46 155 194v424h134v-435c0 -187 -101 -290 -290 -290z" />
    <glyph glyph-name="Umacron" unicode="&#x16a;" horiz-adv-x="723" 
d="M357 -10c-179 0 -281 98 -281 282v443h134v-433c0 -131 42 -185 148 -185c103 0 155 46 155 194v424h134v-435c0 -187 -101 -290 -290 -290zM216 780v81h288v-81h-288z" />
    <glyph glyph-name="Uogonek" unicode="&#x172;" horiz-adv-x="723" 
d="M398 -182c-66 0 -110 30 -110 80c0 39 29 71 63 92c-175 1 -275 100 -275 282v443h134v-433c0 -131 42 -185 148 -185c103 0 155 46 155 194v424h134v-435c0 -133 -52 -221 -142 -262c-60 -28 -109 -49 -109 -93c0 -22 13 -33 35 -33c15 0 31 3 43 9v-69
c-17 -8 -41 -14 -76 -14z" />
    <glyph glyph-name="Uring" unicode="&#x16e;" horiz-adv-x="723" 
d="M357 -10c-179 0 -281 98 -281 282v443h134v-433c0 -131 42 -185 148 -185c103 0 155 46 155 194v424h134v-435c0 -187 -101 -290 -290 -290zM360 787c29 0 50 23 50 55s-21 55 -50 55c-30 0 -50 -23 -50 -55s20 -55 50 -55zM360 733c-62 0 -112 49 -112 109
s50 109 112 109s112 -49 112 -109s-50 -109 -112 -109z" />
    <glyph glyph-name="Utilde" unicode="&#x168;" horiz-adv-x="723" 
d="M357 -10c-179 0 -281 98 -281 282v443h134v-433c0 -131 42 -185 148 -185c103 0 155 46 155 194v424h134v-435c0 -187 -101 -290 -290 -290zM418 768c-48 0 -83 39 -112 39c-18 0 -33 -17 -37 -40h-76c7 84 53 131 109 131c46 0 82 -40 113 -40c18 0 32 17 36 40h77
c-8 -84 -55 -130 -110 -130z" />
    <glyph glyph-name="Wacute" unicode="&#x1e82;" horiz-adv-x="955" 
d="M436 766l54 135h136l-99 -135h-91zM204 0l-178 715h136l124 -525l139 525h110l142 -528l128 528h124l-179 -715h-133l-141 521l-145 -521h-127z" />
    <glyph glyph-name="Wcircumflex" unicode="&#x174;" horiz-adv-x="955" 
d="M315 766l111 135h104l108 -135h-88l-74 55l-75 -55h-86zM204 0l-178 715h136l124 -525l139 525h110l142 -528l128 528h124l-179 -715h-133l-141 521l-145 -521h-127z" />
    <glyph glyph-name="Wdieresis" unicode="&#x1e84;" horiz-adv-x="955" 
d="M374 777c-36 0 -66 29 -66 65s30 65 66 65s66 -29 66 -65s-30 -65 -66 -65zM585 777c-36 0 -66 29 -66 65s30 65 66 65s66 -29 66 -65s-30 -65 -66 -65zM204 0l-178 715h136l124 -525l139 525h110l142 -528l128 528h124l-179 -715h-133l-141 521l-145 -521h-127z" />
    <glyph glyph-name="Wgrave" unicode="&#x1e80;" horiz-adv-x="955" 
d="M441 766l-98 135h136l53 -135h-91zM204 0l-178 715h136l124 -525l139 525h110l142 -528l128 528h124l-179 -715h-133l-141 521l-145 -521h-127z" />
    <glyph glyph-name="Ycircumflex" unicode="&#x176;" horiz-adv-x="629" 
d="M254 0v310l-237 405h147l161 -296l157 296h130l-224 -406v-309h-134zM155 766l111 135h104l108 -135h-88l-74 55l-75 -55h-86z" />
    <glyph glyph-name="Ygrave" unicode="&#x1ef2;" horiz-adv-x="629" 
d="M254 0v310l-237 405h147l161 -296l157 296h130l-224 -406v-309h-134zM285 766l-98 135h136l53 -135h-91z" />
    <glyph glyph-name="Zacute" unicode="&#x179;" horiz-adv-x="608" 
d="M253 766l54 135h136l-99 -135h-91zM22 0v18l365 592h-328v105h516v-17l-357 -591h347v-107h-543z" />
    <glyph glyph-name="Zdotaccent" unicode="&#x17b;" horiz-adv-x="608" 
d="M22 0v18l365 592h-328v105h516v-17l-357 -591h347v-107h-543zM305 775c-40 0 -71 31 -71 69s31 68 71 68c39 0 71 -30 71 -68s-32 -69 -71 -69z" />
    <glyph glyph-name="abreve" unicode="&#x103;" horiz-adv-x="555" 
d="M209 -10c-96 0 -175 46 -175 155c0 122 118 166 268 166h65v27c0 70 -24 105 -95 105c-63 0 -94 -30 -100 -82h-117c10 122 107 173 224 173s209 -48 209 -191v-343h-119v64c-34 -45 -80 -74 -160 -74zM238 77c74 0 129 39 129 106v52h-62c-92 0 -151 -21 -151 -85
c0 -44 24 -73 84 -73zM278 606c-82 0 -140 57 -145 143h84c5 -36 24 -58 61 -58s58 22 65 58h82c-5 -86 -67 -143 -147 -143z" />
    <glyph glyph-name="amacron" unicode="&#x101;" horiz-adv-x="555" 
d="M209 -10c-96 0 -175 46 -175 155c0 122 118 166 268 166h65v27c0 70 -24 105 -95 105c-63 0 -94 -30 -100 -82h-117c10 122 107 173 224 173s209 -48 209 -191v-343h-119v64c-34 -45 -80 -74 -160 -74zM238 77c74 0 129 39 129 106v52h-62c-92 0 -151 -21 -151 -85
c0 -44 24 -73 84 -73zM139 634v78h280v-78h-280z" />
    <glyph glyph-name="aogonek" unicode="&#x105;" horiz-adv-x="555" 
d="M421 -182c-65 0 -109 30 -109 80c0 46 39 81 82 102h-25v64c-34 -45 -80 -74 -160 -74c-96 0 -175 46 -175 155c0 122 118 166 268 166h65v27c0 70 -24 105 -95 105c-63 0 -94 -30 -100 -82h-117c10 122 107 173 224 173s209 -48 209 -191v-336c-49 -30 -70 -56 -70 -84
c0 -22 13 -33 35 -33c15 0 30 3 43 9v-67c-17 -8 -41 -14 -75 -14zM238 77c74 0 129 39 129 106v52h-62c-92 0 -151 -21 -151 -85c0 -44 24 -73 84 -73z" />
    <glyph glyph-name="aringacute" unicode="&#x1fb;" horiz-adv-x="555" 
d="M209 -10c-96 0 -175 46 -175 155c0 122 118 166 268 166h65v27c0 70 -24 105 -95 105c-63 0 -94 -30 -100 -82h-117c10 122 107 173 224 173s209 -48 209 -191v-343h-119v64c-34 -45 -80 -74 -160 -74zM238 77c74 0 129 39 129 106v52h-62c-92 0 -151 -21 -151 -85
c0 -44 24 -73 84 -73zM280 629c29 0 50 24 50 55c0 32 -21 55 -50 55s-50 -23 -50 -55c0 -31 21 -55 50 -55zM280 576c-61 0 -111 49 -111 108s50 108 111 108s111 -49 111 -108s-50 -108 -111 -108zM240 828l54 135h136l-99 -135h-91z" />
    <glyph glyph-name="aeacute" unicode="&#x1fd;" horiz-adv-x="891" 
d="M620 -10c-90 0 -158 36 -199 100c-46 -67 -106 -100 -205 -100c-101 0 -182 46 -182 155c0 122 116 169 266 169h68v24c0 70 -27 105 -95 105c-63 0 -95 -29 -101 -82h-117c10 122 107 173 221 173c75 0 134 -21 166 -76c41 48 100 76 173 76c126 0 241 -75 241 -264v-33
h-372c4 -100 50 -157 137 -157c70 0 107 29 116 80h116c-17 -110 -104 -170 -233 -170zM239 77c75 0 129 39 129 106v53h-65c-90 0 -149 -20 -149 -84c0 -46 24 -75 85 -75zM486 314h250c-7 92 -49 132 -121 132c-70 0 -118 -50 -129 -132zM404 601l59 155h134l-104 -155
h-89z" />
    <glyph glyph-name="cacute" unicode="&#x107;" horiz-adv-x="575" 
d="M248 601l59 155h134l-104 -155h-89zM301 -10c-150 0 -264 98 -264 265v8c0 166 118 271 264 271c116 0 225 -52 239 -196h-117c-10 70 -56 99 -120 99c-83 0 -142 -64 -142 -172v-8c0 -114 56 -174 145 -174c64 0 119 38 126 112h111c-9 -120 -100 -205 -242 -205z" />
    <glyph glyph-name="ccaron" unicode="&#x10d;" horiz-adv-x="575" 
d="M249 602l-112 151h87l75 -67l75 67h84l-113 -151h-96zM301 -10c-150 0 -264 98 -264 265v8c0 166 118 271 264 271c116 0 225 -52 239 -196h-117c-10 70 -56 99 -120 99c-83 0 -142 -64 -142 -172v-8c0 -114 56 -174 145 -174c64 0 119 38 126 112h111
c-9 -120 -100 -205 -242 -205z" />
    <glyph glyph-name="ccircumflex" unicode="&#x109;" horiz-adv-x="575" 
d="M137 602l114 151h96l111 -151h-86l-75 68l-76 -68h-84zM301 -10c-150 0 -264 98 -264 265v8c0 166 118 271 264 271c116 0 225 -52 239 -196h-117c-10 70 -56 99 -120 99c-83 0 -142 -64 -142 -172v-8c0 -114 56 -174 145 -174c64 0 119 38 126 112h111
c-9 -120 -100 -205 -242 -205z" />
    <glyph glyph-name="cdotaccent" unicode="&#x10b;" horiz-adv-x="575" 
d="M301 -10c-150 0 -264 98 -264 265v8c0 166 118 271 264 271c116 0 225 -52 239 -196h-117c-10 70 -56 99 -120 99c-83 0 -142 -64 -142 -172v-8c0 -114 56 -174 145 -174c64 0 119 38 126 112h111c-9 -120 -100 -205 -242 -205zM299 611c-40 0 -71 30 -71 69
c0 38 31 68 71 68c39 0 71 -30 71 -68c0 -39 -32 -69 -71 -69z" />
    <glyph glyph-name="dcaron" unicode="&#x10f;" horiz-adv-x="633" 
d="M605 590l10 175h110l-49 -175h-71zM268 -10c-131 0 -230 93 -230 263v8c0 167 99 273 235 273c85 0 138 -39 167 -91v322h121v-765h-121v88c-28 -52 -95 -98 -172 -98zM298 86c84 0 146 56 146 173v8c0 115 -53 172 -141 172c-89 0 -141 -62 -141 -175v-8
c0 -115 58 -170 136 -170z" />
    <glyph glyph-name="ebreve" unicode="&#x115;" horiz-adv-x="580" 
d="M302 -10c-154 0 -265 101 -265 266v8c0 162 111 270 260 270c130 0 247 -77 247 -264v-35h-383c4 -99 54 -155 144 -155c73 0 111 29 120 80h117c-17 -110 -106 -170 -240 -170zM163 316h261c-6 90 -52 130 -127 130c-73 0 -122 -49 -134 -130zM287 606
c-82 0 -140 57 -145 143h84c5 -36 24 -58 61 -58s58 22 65 58h82c-5 -86 -67 -143 -147 -143z" />
    <glyph glyph-name="ecaron" unicode="&#x11b;" horiz-adv-x="580" 
d="M246 602l-112 151h87l75 -67l75 67h84l-113 -151h-96zM302 -10c-154 0 -265 101 -265 266v8c0 162 111 270 260 270c130 0 247 -77 247 -264v-35h-383c4 -99 54 -155 144 -155c73 0 111 29 120 80h117c-17 -110 -106 -170 -240 -170zM163 316h261c-6 90 -52 130 -127 130
c-73 0 -122 -49 -134 -130z" />
    <glyph glyph-name="edotaccent" unicode="&#x117;" horiz-adv-x="580" 
d="M302 -10c-154 0 -265 101 -265 266v8c0 162 111 270 260 270c130 0 247 -77 247 -264v-35h-383c4 -99 54 -155 144 -155c73 0 111 29 120 80h117c-17 -110 -106 -170 -240 -170zM163 316h261c-6 90 -52 130 -127 130c-73 0 -122 -49 -134 -130zM295 611
c-40 0 -71 30 -71 69c0 38 31 68 71 68c39 0 71 -30 71 -68c0 -39 -32 -69 -71 -69z" />
    <glyph glyph-name="emacron" unicode="&#x113;" horiz-adv-x="580" 
d="M302 -10c-154 0 -265 101 -265 266v8c0 162 111 270 260 270c130 0 247 -77 247 -264v-35h-383c4 -99 54 -155 144 -155c73 0 111 29 120 80h117c-17 -110 -106 -170 -240 -170zM163 316h261c-6 90 -52 130 -127 130c-73 0 -122 -49 -134 -130zM155 634v78h280v-78h-280z
" />
    <glyph glyph-name="eogonek" unicode="&#x119;" horiz-adv-x="580" 
d="M395 -182c-66 0 -110 30 -110 80c0 40 35 74 74 96c-17 -3 -38 -4 -57 -4c-154 0 -265 101 -265 266v8c0 162 111 270 260 270c130 0 247 -77 247 -264v-35h-383c4 -99 54 -155 144 -155c73 0 111 29 120 80h117c-12 -76 -56 -114 -83 -138c-41 -37 -69 -68 -69 -99
c0 -22 13 -33 35 -33c15 0 31 3 44 9v-67c-18 -8 -39 -14 -74 -14zM163 316h261c-6 90 -52 130 -127 130c-73 0 -122 -49 -134 -130z" />
    <glyph glyph-name="gbreve" unicode="&#x11f;" horiz-adv-x="633" 
d="M295 -192c-164 0 -238 74 -252 174h122c10 -52 50 -82 129 -82c94 0 146 47 146 141v77c-29 -50 -94 -97 -171 -97c-131 0 -232 98 -232 249v7c0 147 100 257 235 257c86 0 138 -39 168 -91v80h121v-484c-1 -154 -104 -231 -266 -231zM299 114c84 0 145 60 145 160v7
c0 99 -54 158 -141 158c-90 0 -142 -65 -142 -160v-8c0 -97 60 -157 138 -157zM297 606c-82 0 -140 57 -145 143h84c5 -36 24 -58 61 -58s58 22 65 58h82c-5 -86 -67 -143 -147 -143z" />
    <glyph glyph-name="gcircumflex" unicode="&#x11d;" horiz-adv-x="633" 
d="M137 602l114 151h96l111 -151h-86l-75 68l-76 -68h-84zM295 -192c-164 0 -238 74 -252 174h122c10 -52 50 -82 129 -82c94 0 146 47 146 141v77c-29 -50 -94 -97 -171 -97c-131 0 -232 98 -232 249v7c0 147 100 257 235 257c86 0 138 -39 168 -91v80h121v-484
c-1 -154 -104 -231 -266 -231zM299 114c84 0 145 60 145 160v7c0 99 -54 158 -141 158c-90 0 -142 -65 -142 -160v-8c0 -97 60 -157 138 -157z" />
    <glyph glyph-name="gcommaaccent" unicode="&#x123;" horiz-adv-x="633" 
d="M355 588l-111 22l92 169l70 -26zM295 -192c-164 0 -238 74 -252 174h122c10 -52 50 -82 129 -82c94 0 146 47 146 141v77c-29 -50 -94 -97 -171 -97c-131 0 -232 98 -232 249v7c0 147 100 257 235 257c86 0 138 -39 168 -91v80h121v-484c-1 -154 -104 -231 -266 -231z
M299 114c84 0 145 60 145 160v7c0 99 -54 158 -141 158c-90 0 -142 -65 -142 -160v-8c0 -97 60 -157 138 -157z" />
    <glyph glyph-name="gdotaccent" unicode="&#x121;" horiz-adv-x="633" 
d="M295 -192c-164 0 -238 74 -252 174h122c10 -52 50 -82 129 -82c94 0 146 47 146 141v77c-29 -50 -94 -97 -171 -97c-131 0 -232 98 -232 249v7c0 147 100 257 235 257c86 0 138 -39 168 -91v80h121v-484c-1 -154 -104 -231 -266 -231zM299 114c84 0 145 60 145 160v7
c0 99 -54 158 -141 158c-90 0 -142 -65 -142 -160v-8c0 -97 60 -157 138 -157zM298 611c-40 0 -71 30 -71 69c0 38 31 68 71 68c39 0 71 -30 71 -68c0 -39 -32 -69 -71 -69z" />
    <glyph glyph-name="hbar" unicode="&#x127;" horiz-adv-x="608" 
d="M4 604v75h68v86h121v-86h169v-75h-169v-164c25 51 83 94 169 94c105 0 179 -61 179 -205v-329h-121v318c0 79 -32 115 -104 115c-68 0 -123 -42 -123 -125v-308h-121v604h-68z" />
    <glyph glyph-name="hcircumflex" unicode="&#x125;" horiz-adv-x="608" 
d="M72 0v765h121v-325c25 51 83 94 169 94c105 0 179 -61 179 -205v-329h-121v318c0 79 -32 115 -104 115c-68 0 -123 -42 -123 -125v-308h-121z" />
    <glyph glyph-name="ibreve" unicode="&#x12d;" horiz-adv-x="271" 
d="M75 0v523h121v-523h-121zM135 606c-82 0 -140 57 -145 143h84c5 -36 24 -58 61 -58s58 22 65 58h82c-5 -86 -67 -143 -147 -143z" />
    <glyph glyph-name="imacron" unicode="&#x12b;" horiz-adv-x="271" 
d="M28 634v78h214v-78h-214zM75 0v523h121v-523h-121z" />
    <glyph glyph-name="iogonek" unicode="&#x12f;" horiz-adv-x="271" 
d="M134 -182c-66 0 -109 30 -109 81c0 45 38 80 81 101h-31v523h121v-518c-47 -30 -66 -55 -66 -82c0 -22 13 -33 35 -33c15 0 31 3 43 9v-67c-17 -8 -39 -14 -74 -14zM134 609c-40 0 -72 30 -72 69c0 40 32 70 72 70s72 -30 72 -70c0 -39 -32 -69 -72 -69z" />
    <glyph glyph-name="itilde" unicode="&#x129;" horiz-adv-x="271" 
d="M75 0v523h121v-523h-121zM194 606c-48 0 -82 40 -111 40c-18 0 -33 -17 -37 -40h-75c8 84 51 131 107 131c46 0 81 -39 112 -39c18 0 32 16 36 40h75c-8 -84 -52 -132 -107 -132z" />
    <glyph glyph-name="idotaccent" horiz-adv-x="271" 
d="M134 609c-40 0 -72 30 -72 69c0 40 32 70 72 70s72 -30 72 -70c0 -39 -32 -69 -72 -69zM75 0v523h121v-523h-121z" />
    <glyph glyph-name="jcircumflex" unicode="&#x135;" horiz-adv-x="271" 
d="M3 -188v93c53 4 72 30 72 74v544h121v-541c0 -106 -48 -168 -193 -170zM-26 602l114 151h96l111 -151h-86l-75 68l-76 -68h-84z" />
    <glyph glyph-name="kcommaaccent" unicode="&#x137;" horiz-adv-x="540" 
d="M72 0v765h121v-472l187 230h132l-203 -240l220 -283h-140l-196 257v-257h-121zM256 -225l-71 27l52 165l111 -22z" />
    <glyph glyph-name="lacute" unicode="&#x13a;" horiz-adv-x="271" 
d="M75 0v765h121v-765h-121z" />
    <glyph glyph-name="lcaron" unicode="&#x13e;" horiz-adv-x="271" 
d="M240 590l10 175h110l-49 -175h-71zM75 0v765h121v-765h-121z" />
    <glyph glyph-name="lcommaaccent" unicode="&#x13c;" horiz-adv-x="271" 
d="M110 -225l-71 27l52 165l111 -22zM75 0v765h121v-765h-121z" />
    <glyph glyph-name="ldot" unicode="&#x140;" horiz-adv-x="378" 
d="M75 0v765h121v-765h-121zM322 285c-44 0 -79 35 -79 79s35 78 79 78c45 0 80 -34 80 -78s-35 -79 -80 -79z" />
    <glyph glyph-name="nacute" unicode="&#x144;" horiz-adv-x="608" 
d="M253 601l59 155h134l-104 -155h-89zM72 0v523h121v-83c25 51 83 94 169 94c105 0 179 -61 179 -205v-329h-121v318c0 79 -32 115 -104 115c-68 0 -123 -42 -123 -125v-308h-121z" />
    <glyph glyph-name="napostrophe" unicode="&#x149;" horiz-adv-x="655" 
d="M32 464l-71 32l86 231l109 -43zM118 0v523h121v-83c25 51 83 94 169 94c105 0 179 -61 179 -205v-329h-121v318c0 79 -32 115 -104 115c-68 0 -123 -42 -123 -125v-308h-121z" />
    <glyph glyph-name="ncaron" unicode="&#x148;" horiz-adv-x="608" 
d="M254 602l-112 151h87l75 -67l75 67h84l-113 -151h-96zM72 0v523h121v-83c25 51 83 94 169 94c105 0 179 -61 179 -205v-329h-121v318c0 79 -32 115 -104 115c-68 0 -123 -42 -123 -125v-308h-121z" />
    <glyph glyph-name="ncommaaccent" unicode="&#x146;" horiz-adv-x="608" 
d="M277 -225l-71 27l52 165l111 -22zM72 0v523h121v-83c25 51 83 94 169 94c105 0 179 -61 179 -205v-329h-121v318c0 79 -32 115 -104 115c-68 0 -123 -42 -123 -125v-308h-121z" />
    <glyph glyph-name="obreve" unicode="&#x14f;" horiz-adv-x="611" 
d="M306 84c90 0 144 67 144 174v7c0 108 -54 174 -144 174s-145 -65 -145 -173v-8c0 -107 53 -174 145 -174zM305 -10c-154 0 -268 107 -268 266v8c0 162 115 270 269 270c153 0 268 -107 268 -267v-8c0 -163 -115 -269 -269 -269zM304 606c-82 0 -140 57 -145 143h84
c5 -36 24 -58 61 -58s58 22 65 58h82c-5 -86 -67 -143 -147 -143z" />
    <glyph glyph-name="ohungarumlaut" unicode="&#x151;" horiz-adv-x="611" 
d="M177 601l41 155h113l-76 -155h-78zM340 601l41 155h113l-76 -155h-78zM306 84c90 0 144 67 144 174v7c0 108 -54 174 -144 174s-145 -65 -145 -173v-8c0 -107 53 -174 145 -174zM305 -10c-154 0 -268 107 -268 266v8c0 162 115 270 269 270c153 0 268 -107 268 -267v-8
c0 -163 -115 -269 -269 -269z" />
    <glyph glyph-name="omacron" unicode="&#x14d;" horiz-adv-x="611" 
d="M165 634v78h280v-78h-280zM306 84c90 0 144 67 144 174v7c0 108 -54 174 -144 174s-145 -65 -145 -173v-8c0 -107 53 -174 145 -174zM305 -10c-154 0 -268 107 -268 266v8c0 162 115 270 269 270c153 0 268 -107 268 -267v-8c0 -163 -115 -269 -269 -269z" />
    <glyph glyph-name="oslashacute" unicode="&#x1ff;" horiz-adv-x="611" 
d="M69 -38l-47 42l73 79c-37 45 -58 104 -58 173v8c0 162 115 270 269 270c61 0 115 -17 159 -48l67 73l47 -42l-67 -73c39 -45 62 -106 62 -177v-8c0 -163 -115 -269 -269 -269c-63 0 -120 18 -164 50zM306 84c91 0 145 67 145 173v8c0 36 -6 67 -18 93l-222 -241
c24 -22 56 -33 95 -33zM161 258c0 -33 5 -62 14 -87l220 239c-24 19 -54 30 -89 30c-90 0 -145 -66 -145 -174v-8zM254 601l59 155h134l-104 -155h-89z" />
    <glyph glyph-name="racute" unicode="&#x155;" horiz-adv-x="397" 
d="M166 601l59 155h134l-104 -155h-89zM72 0v523h121v-98c33 66 82 105 170 106v-113c-106 -1 -170 -35 -170 -146v-272h-121z" />
    <glyph glyph-name="rcaron" unicode="&#x159;" horiz-adv-x="397" 
d="M167 602l-112 151h87l75 -67l75 67h84l-113 -151h-96zM72 0v523h121v-98c33 66 82 105 170 106v-113c-106 -1 -170 -35 -170 -146v-272h-121z" />
    <glyph glyph-name="rcommaaccent" unicode="&#x157;" horiz-adv-x="397" 
d="M106 -225l-71 27l52 165l111 -22zM72 0v523h121v-98c33 66 82 105 170 106v-113c-106 -1 -170 -35 -170 -146v-272h-121z" />
    <glyph glyph-name="sacute" unicode="&#x15b;" horiz-adv-x="494" 
d="M195 601l59 155h134l-104 -155h-89zM251 -10c-135 0 -214 62 -219 173h114c6 -53 33 -84 104 -84c65 0 94 23 94 67c0 43 -35 59 -112 72c-138 22 -189 61 -189 159c0 105 98 157 196 157c107 0 192 -40 205 -158h-112c-10 48 -37 70 -93 70c-52 0 -83 -25 -83 -62
c0 -38 25 -53 108 -67c123 -19 196 -49 196 -160c0 -106 -75 -167 -209 -167z" />
    <glyph glyph-name="scedilla" unicode="&#x15f;" horiz-adv-x="494" 
d="M232 -219c-63 0 -104 34 -110 88h66c3 -17 16 -33 40 -33c23 0 37 14 37 34c0 19 -14 32 -35 32c-14 0 -24 -5 -30 -9l-34 32l39 68c-107 12 -169 72 -173 170h114c6 -53 33 -84 104 -84c65 0 94 23 94 67c0 43 -35 59 -112 72c-138 22 -189 61 -189 159
c0 105 98 157 196 157c107 0 192 -40 205 -158h-112c-10 48 -37 70 -93 70c-52 0 -83 -25 -83 -62c0 -38 25 -53 108 -67c123 -19 196 -49 196 -160c0 -103 -70 -163 -196 -167l-23 -40c50 6 100 -20 100 -83c0 -56 -47 -86 -109 -86z" />
    <glyph glyph-name="scircumflex" unicode="&#x15d;" horiz-adv-x="494" 
d="M83 602l114 151h96l111 -151h-86l-75 68l-76 -68h-84zM251 -10c-135 0 -214 62 -219 173h114c6 -53 33 -84 104 -84c65 0 94 23 94 67c0 43 -35 59 -112 72c-138 22 -189 61 -189 159c0 105 98 157 196 157c107 0 192 -40 205 -158h-112c-10 48 -37 70 -93 70
c-52 0 -83 -25 -83 -62c0 -38 25 -53 108 -67c123 -19 196 -49 196 -160c0 -106 -75 -167 -209 -167z" />
    <glyph glyph-name="scommaaccent" unicode="&#x219;" horiz-adv-x="494" 
d="M218 -225l-71 27l52 165l111 -22zM251 -10c-135 0 -214 62 -219 173h114c6 -53 33 -84 104 -84c65 0 94 23 94 67c0 43 -35 59 -112 72c-138 22 -189 61 -189 159c0 105 98 157 196 157c107 0 192 -40 205 -158h-112c-10 48 -37 70 -93 70c-52 0 -83 -25 -83 -62
c0 -38 25 -53 108 -67c123 -19 196 -49 196 -160c0 -106 -75 -167 -209 -167z" />
    <glyph glyph-name="tbar" unicode="&#x167;" horiz-adv-x="369" 
d="M22 261v75h70v97h-70v90h70v115h121v-115h114v-90h-114v-97h114v-75h-114v-104c0 -46 21 -68 60 -68c24 0 42 4 59 11v-96c-19 -6 -45 -13 -82 -13c-104 0 -158 56 -158 155v115h-70z" />
    <glyph glyph-name="tcaron" unicode="&#x165;" horiz-adv-x="369" 
d="M275 590l10 175h110l-49 -175h-71zM250 -9c-104 0 -158 56 -158 155v286h-70v91h70v115h121v-115h115v-91h-115v-275c0 -46 22 -67 60 -67c24 0 42 3 59 10v-96c-19 -7 -45 -13 -82 -13z" />
    <glyph glyph-name="tcommaaccent" unicode="&#x163;" horiz-adv-x="369" 
d="M173 -225l-71 27l52 165l111 -22zM250 -9c-104 0 -158 56 -158 155v286h-70v91h70v115h121v-115h115v-91h-115v-275c0 -46 22 -67 60 -67c24 0 42 3 59 10v-96c-19 -7 -45 -13 -82 -13z" />
    <glyph glyph-name="ubreve" unicode="&#x16d;" horiz-adv-x="605" 
d="M247 -10c-103 0 -180 59 -180 198v335h121v-321c0 -79 33 -115 103 -115c65 0 122 42 122 125v311h121v-523h-121v82c-26 -51 -81 -92 -166 -92zM301 606c-82 0 -140 57 -145 143h84c5 -36 24 -58 61 -58s58 22 65 58h82c-5 -86 -67 -143 -147 -143z" />
    <glyph glyph-name="uhungarumlaut" unicode="&#x171;" horiz-adv-x="605" 
d="M247 -10c-103 0 -180 59 -180 198v335h121v-321c0 -79 33 -115 103 -115c65 0 122 42 122 125v311h121v-523h-121v82c-26 -51 -81 -92 -166 -92zM174 601l41 155h113l-76 -155h-78zM337 601l41 155h113l-76 -155h-78z" />
    <glyph glyph-name="umacron" unicode="&#x16b;" horiz-adv-x="605" 
d="M247 -10c-103 0 -180 59 -180 198v335h121v-321c0 -79 33 -115 103 -115c65 0 122 42 122 125v311h121v-523h-121v82c-26 -51 -81 -92 -166 -92zM162 634v78h280v-78h-280z" />
    <glyph glyph-name="uogonek" unicode="&#x173;" horiz-adv-x="605" 
d="M469 -182c-65 0 -109 30 -109 81c0 45 39 80 82 101h-29v82c-26 -51 -81 -92 -166 -92c-103 0 -180 59 -180 198v335h121v-321c0 -79 33 -115 103 -115c65 0 122 42 122 125v311h121v-515c-49 -33 -68 -58 -68 -85c0 -22 13 -33 35 -33c15 0 31 3 43 9v-67
c-17 -8 -40 -14 -75 -14z" />
    <glyph glyph-name="uring" unicode="&#x16f;" horiz-adv-x="605" 
d="M299 616c29 0 50 24 50 55c0 32 -21 55 -50 55s-50 -23 -50 -55c0 -31 21 -55 50 -55zM299 563c-61 0 -111 49 -111 108s50 108 111 108s111 -49 111 -108s-50 -108 -111 -108zM247 -10c-103 0 -180 59 -180 198v335h121v-321c0 -79 33 -115 103 -115
c65 0 122 42 122 125v311h121v-523h-121v82c-26 -51 -81 -92 -166 -92z" />
    <glyph glyph-name="utilde" unicode="&#x169;" horiz-adv-x="605" 
d="M247 -10c-103 0 -180 59 -180 198v335h121v-321c0 -79 33 -115 103 -115c65 0 122 42 122 125v311h121v-523h-121v82c-26 -51 -81 -92 -166 -92zM360 606c-48 0 -82 40 -111 40c-18 0 -33 -17 -37 -40h-75c8 84 51 131 107 131c46 0 81 -39 112 -39c18 0 32 16 36 40h75
c-8 -84 -52 -132 -107 -132z" />
    <glyph glyph-name="wacute" unicode="&#x1e83;" horiz-adv-x="814" 
d="M368 601l59 155h134l-104 -155h-89zM180 0l-160 523h129l104 -378l111 378h101l102 -378l109 378h118l-164 -523h-123l-97 352l-106 -352h-124z" />
    <glyph glyph-name="wcircumflex" unicode="&#x175;" horiz-adv-x="814" 
d="M245 602l114 151h96l111 -151h-86l-75 68l-76 -68h-84zM180 0l-160 523h129l104 -378l111 378h101l102 -378l109 378h118l-164 -523h-123l-97 352l-106 -352h-124z" />
    <glyph glyph-name="wdieresis" unicode="&#x1e85;" horiz-adv-x="814" 
d="M314 613c-36 0 -66 29 -66 65c0 35 30 65 66 65s66 -30 66 -65c0 -36 -30 -65 -66 -65zM512 613c-37 0 -66 29 -66 65c0 35 29 65 66 65c36 0 66 -30 66 -65c0 -36 -30 -65 -66 -65zM180 0l-160 523h129l104 -378l111 378h101l102 -378l109 378h118l-164 -523h-123
l-97 352l-106 -352h-124z" />
    <glyph glyph-name="wgrave" unicode="&#x1e81;" horiz-adv-x="814" 
d="M180 0l-160 523h129l104 -378l111 378h101l102 -378l109 378h118l-164 -523h-123l-97 352l-106 -352h-124zM376 601l-104 155h134l59 -155h-89z" />
    <glyph glyph-name="ycircumflex" unicode="&#x177;" horiz-adv-x="553" 
d="M130 -179l95 232l-207 470h131l139 -337l128 337h118l-285 -702h-119zM118 602l114 151h96l111 -151h-86l-75 68l-76 -68h-84z" />
    <glyph glyph-name="ygrave" unicode="&#x1ef3;" horiz-adv-x="553" 
d="M130 -179l95 232l-207 470h131l139 -337l128 337h118l-285 -702h-119zM243 601l-104 155h134l59 -155h-89z" />
    <glyph glyph-name="zacute" unicode="&#x17a;" horiz-adv-x="493" 
d="M202 601l59 155h134l-104 -155h-89zM17 0v14l277 413h-250v96h429v-17l-276 -409h268v-97h-448z" />
    <glyph glyph-name="zdotaccent" unicode="&#x17c;" horiz-adv-x="493" 
d="M17 0v14l277 413h-250v96h429v-17l-276 -409h268v-97h-448zM253 611c-40 0 -71 30 -71 69c0 38 31 68 71 68c39 0 71 -30 71 -68c0 -39 -32 -69 -71 -69z" />
    <glyph glyph-name="f_i" unicode="&#xfb01;" horiz-adv-x="628" 
d="M431 0v523h121v-523h-121zM490 609c-40 0 -72 30 -72 69c0 40 32 70 72 70s72 -30 72 -70c0 -39 -32 -69 -72 -69zM93 0v432h-71v91h71v70c0 115 63 177 174 177c30 0 47 -3 66 -9v-94c-14 6 -29 8 -51 8c-48 0 -68 -32 -68 -77v-75h119v-91h-119v-432h-121z" />
    <glyph glyph-name="f_l" unicode="&#xfb02;" horiz-adv-x="628" 
d="M93 0v432h-71v91h71v70c0 115 63 177 174 177c30 0 47 -3 66 -9v-94c-14 6 -29 8 -51 8c-48 0 -68 -32 -68 -77v-75h119v-91h-119v-432h-121zM431 0v765h121v-765h-121z" />
    <glyph glyph-name="oneeighth" unicode="&#x215b;" horiz-adv-x="751" 
d="M577 -6c-86 0 -146 36 -146 106c0 42 24 74 65 88c-31 13 -51 37 -51 74c0 62 61 98 133 98c73 0 131 -36 131 -98c0 -37 -20 -60 -52 -73c43 -15 66 -45 66 -87c0 -69 -60 -108 -146 -108zM577 59c31 0 54 18 54 51c0 31 -23 49 -54 49c-30 0 -54 -18 -54 -50
s24 -50 54 -50zM578 212c26 0 46 17 46 43s-21 42 -46 42c-26 0 -47 -16 -47 -43c0 -26 22 -42 47 -42zM107 360v265l-82 -51v78l94 63h82v-355h-94zM47 0l528 715h77l-528 -715h-77z" />
    <glyph glyph-name="onethird" unicode="&#x2153;" horiz-adv-x="758" 
d="M584 -6c-98 0 -144 49 -146 120h83c3 -31 20 -53 58 -53c36 0 54 17 54 46c0 30 -18 46 -54 46h-28v57h27c36 0 52 16 52 43c0 24 -15 41 -45 41s-50 -18 -54 -49h-83c5 67 54 115 139 115c83 0 131 -40 131 -97c0 -40 -24 -65 -61 -77c41 -8 70 -37 70 -82
c0 -67 -52 -110 -143 -110zM107 360v265l-82 -51v78l94 63h82v-355h-94zM50 0l528 715h77l-528 -715h-77z" />
    <glyph glyph-name="threeeighths" unicode="&#x215c;" horiz-adv-x="785" 
d="M611 -6c-86 0 -146 36 -146 106c0 42 24 74 65 88c-31 13 -51 37 -51 74c0 62 61 98 133 98c73 0 131 -36 131 -98c0 -37 -20 -60 -52 -73c43 -15 66 -45 66 -87c0 -69 -60 -108 -146 -108zM611 59c31 0 54 18 54 51c0 31 -23 49 -54 49c-30 0 -54 -18 -54 -50
s24 -50 54 -50zM612 212c26 0 46 17 46 43s-21 42 -46 42c-26 0 -47 -16 -47 -43c0 -26 22 -42 47 -42zM92 0l528 715h77l-528 -715h-77zM169 354c-98 0 -144 49 -146 120h83c3 -31 20 -54 58 -54c36 0 54 18 54 47c0 30 -18 45 -54 45h-28v58h27c36 0 52 16 52 43
c0 24 -15 40 -45 40s-50 -18 -54 -48h-83c5 66 54 115 139 115c83 0 131 -40 131 -97c0 -40 -24 -65 -61 -77c41 -8 70 -37 70 -82c0 -67 -52 -110 -143 -110z" />
    <glyph glyph-name="fiveeighths" unicode="&#x215d;" horiz-adv-x="775" 
d="M602 -6c-86 0 -146 36 -146 106c0 42 24 74 65 88c-31 13 -51 37 -51 74c0 62 61 98 133 98c73 0 131 -36 131 -98c0 -37 -20 -60 -52 -73c43 -15 66 -45 66 -87c0 -69 -60 -108 -146 -108zM602 59c31 0 54 18 54 51c0 31 -23 49 -54 49c-30 0 -54 -18 -54 -50
s24 -50 54 -50zM603 212c26 0 46 17 46 43s-21 42 -46 42c-26 0 -47 -16 -47 -43c0 -26 22 -42 47 -42zM162 354c-93 0 -136 48 -139 113h86c4 -26 15 -44 51 -44c32 0 50 23 50 57s-19 55 -51 55c-30 0 -47 -11 -59 -27h-62l7 207h238v-68h-171l-2 -87c15 19 39 37 84 37
c65 0 110 -43 110 -116c0 -79 -56 -127 -142 -127zM82 0l528 715h77l-528 -715h-77z" />
    <glyph glyph-name="twothirds" unicode="&#x2154;" horiz-adv-x="800" 
d="M626 -6c-98 0 -144 49 -146 120h83c3 -31 20 -53 58 -53c36 0 54 17 54 46c0 30 -18 46 -54 46h-28v57h27c36 0 52 16 52 43c0 24 -15 41 -45 41s-50 -18 -54 -49h-83c5 67 54 115 139 115c83 0 131 -40 131 -97c0 -40 -24 -65 -61 -77c41 -8 70 -37 70 -82
c0 -67 -52 -110 -143 -110zM10 360v13l128 135c36 37 59 68 59 99c0 26 -14 43 -42 43c-29 0 -47 -18 -52 -61h-85c4 84 57 131 141 131c85 0 129 -45 129 -109c0 -48 -28 -86 -70 -126l-58 -57h131v-68h-281zM106 0l528 715h77l-528 -715h-77z" />
    <glyph glyph-name="seveneighths" unicode="&#x215e;" horiz-adv-x="746" 
d="M573 -6c-86 0 -146 36 -146 106c0 42 24 74 65 88c-31 13 -51 37 -51 74c0 62 61 98 133 98c73 0 131 -36 131 -98c0 -37 -20 -60 -52 -73c43 -15 66 -45 66 -87c0 -69 -60 -108 -146 -108zM573 59c31 0 54 18 54 51c0 31 -23 49 -54 49c-30 0 -54 -18 -54 -50
s24 -50 54 -50zM574 212c26 0 46 17 46 43s-21 42 -46 42c-26 0 -47 -16 -47 -43c0 -26 22 -42 47 -42zM68 360l106 281h-153v74h270v-10l-129 -345h-94zM34 0l528 715h77l-528 -715h-77z" />
    <glyph glyph-name="uni24C5" unicode="&#x24c5;" horiz-adv-x="843" 
d="M294 160v399h140c100 0 155 -44 155 -128v-3c0 -85 -58 -125 -150 -125h-49v-143h-96zM390 369h42c43 0 66 21 66 59v3c0 39 -24 55 -66 55h-42v-117zM421 32c172 0 321 133 321 327c0 191 -144 324 -319 324c-178 0 -321 -134 -321 -326c0 -194 149 -325 319 -325z
M421 -13c-207 0 -373 160 -373 370c0 207 165 371 375 371c212 0 373 -163 373 -369c0 -211 -166 -372 -375 -372z" />
    <glyph glyph-name="registered.alt" horiz-adv-x="843" 
d="M277 161v399h146c96 0 155 -39 155 -122v-2c0 -60 -35 -92 -80 -106l103 -169h-99l-92 152h-39v-152h-94zM371 377h48c44 0 65 18 65 55v3c0 38 -23 52 -64 52h-49v-110zM421 32c172 0 321 133 321 327c0 191 -144 324 -319 324c-178 0 -321 -134 -321 -326
c0 -194 149 -325 319 -325zM421 -13c-207 0 -373 160 -373 370c0 207 165 371 375 371c212 0 373 -163 373 -369c0 -211 -166 -372 -375 -372z" />
    <glyph glyph-name="dollar.old" horiz-adv-x="621" 
d="M277 -131v122c-166 12 -231 105 -241 223h120c8 -63 30 -117 121 -128v220c-144 24 -218 76 -218 199c0 107 87 187 218 196v88h66v-89c125 -12 202 -77 214 -196h-114c-11 58 -41 93 -100 103v-200c143 -24 227 -71 227 -202c0 -113 -84 -204 -227 -214v-122h-66z
M450 193c0 56 -22 83 -107 101v-208c64 9 107 50 107 107zM174 515c0 -50 18 -79 103 -97v191c-67 -8 -103 -46 -103 -94z" />
    <glyph glyph-name="Euro.old" horiz-adv-x="671" 
d="M27 377v61h68c18 152 117 265 276 265c147 0 239 -81 254 -227h-120c-12 82 -60 128 -135 128c-88 0 -137 -65 -149 -166h200l-12 -61h-191v-65h179l-11 -62h-165c12 -99 60 -158 151 -158c80 0 128 47 141 141h119c-17 -153 -109 -243 -262 -243
c-159 0 -256 108 -275 260h-68v62h65v65h-65z" />
    <glyph glyph-name="sterling.old" horiz-adv-x="607" 
d="M41 295v82h58c-9 35 -15 73 -15 117c0 128 102 208 235 208c145 0 222 -80 229 -203h-120c-12 68 -40 102 -107 102c-64 0 -108 -43 -108 -112c0 -41 5 -77 12 -112h194v-82h-177c6 -31 10 -63 10 -99c0 -23 -5 -43 -12 -62c53 -14 101 -39 136 -39c46 0 75 19 78 73h113
c-5 -102 -64 -177 -170 -177c-90 0 -158 57 -210 57c-38 0 -54 -24 -57 -48h-101c5 56 35 120 101 139c6 16 10 34 10 57c0 34 -7 66 -17 99h-82z" />
    <glyph glyph-name="yen.old" horiz-adv-x="586" 
d="M73 278v61h144l-196 355h139l143 -280l138 280h124l-187 -355h146v-61h-161v-66h161v-61h-161v-151h-129v151h-161v61h161v66h-161z" />
    <glyph glyph-name="zero.old" horiz-adv-x="655" 
d="M329 90c100 0 152 72 152 206v30c0 130 -54 204 -153 204s-154 -71 -154 -203v-32c0 -134 56 -205 155 -205zM328 -10c-168 0 -283 117 -283 303v32c0 189 116 304 283 304s282 -114 282 -301v-31c0 -189 -112 -307 -282 -307z" />
    <glyph glyph-name="one.old" horiz-adv-x="406" 
d="M182 0v493l-148 -100v112l162 114h112v-619h-126z" />
    <glyph glyph-name="two.old" horiz-adv-x="559" 
d="M18 0v23l242 227c69 66 119 117 119 183c0 59 -38 98 -105 98c-68 0 -112 -41 -124 -134h-114c9 140 98 232 243 232c140 0 228 -77 228 -190c0 -89 -67 -154 -154 -234l-116 -108h276v-97h-495z" />
    <glyph glyph-name="three.old" horiz-adv-x="604" 
d="M298 -105c-169 0 -258 96 -264 230h117c7 -78 48 -133 144 -133c94 0 136 48 136 122c0 79 -45 116 -133 116h-53v91h49c84 0 119 42 119 108c0 62 -35 103 -108 103c-76 0 -124 -46 -133 -120h-113c6 121 96 217 249 217c145 0 227 -84 227 -190
c0 -80 -44 -130 -113 -157c84 -22 137 -75 137 -173c0 -129 -99 -214 -261 -214z" />
    <glyph glyph-name="four.old" horiz-adv-x="638" 
d="M385 -95v146h-361v42l322 525h164v-477h97v-90h-97v-146h-125zM162 141h224v380z" />
    <glyph glyph-name="five.old" horiz-adv-x="586" 
d="M285 -105c-162 0 -242 89 -250 209h118c11 -65 40 -111 131 -111c80 0 129 58 129 145c0 83 -51 139 -128 139c-72 0 -116 -25 -148 -62h-64l5 404h424v-103h-326l-2 -204c29 32 80 57 153 57c124 0 214 -87 214 -231c0 -148 -106 -243 -256 -243z" />
    <glyph glyph-name="six.old" horiz-adv-x="627" 
d="M322 -10c-202 0 -273 142 -273 327v32c0 244 120 376 289 376c127 0 211 -63 228 -186h-120c-13 55 -43 87 -111 87c-94 0 -154 -86 -158 -261c31 52 91 90 174 90c135 0 231 -91 231 -227c0 -143 -100 -238 -260 -238zM322 85c79 0 133 56 133 140s-52 141 -134 141
c-80 0 -138 -56 -138 -134c0 -93 58 -147 139 -147z" />
    <glyph glyph-name="seven.old" horiz-adv-x="542" 
d="M112 -95l248 610h-334v103h496v-15l-277 -698h-133z" />
    <glyph glyph-name="eight.old" horiz-adv-x="612" 
d="M306 -10c-139 0 -263 73 -263 210c0 91 60 152 139 179c-66 26 -111 78 -111 152c0 123 113 194 236 194c125 0 235 -72 235 -192c0 -76 -47 -126 -112 -153c83 -29 139 -89 139 -176c0 -139 -120 -214 -263 -214zM307 87c76 0 134 46 134 124c0 77 -58 121 -133 121
c-74 0 -136 -44 -136 -122s62 -123 135 -123zM309 419c65 0 111 41 111 108c0 62 -49 104 -113 104c-63 0 -114 -40 -114 -106s53 -106 116 -106z" />
    <glyph glyph-name="nine.old" horiz-adv-x="627" 
d="M292 -105c-140 0 -225 74 -241 194h121c12 -53 47 -95 125 -95c109 0 149 81 153 261c-32 -52 -92 -91 -174 -91c-135 0 -231 91 -231 226c0 144 100 239 260 239c202 0 272 -142 272 -330v-30c0 -241 -98 -374 -285 -374zM305 253c81 0 138 56 138 134
c0 93 -57 147 -138 147c-79 0 -133 -56 -133 -139c0 -85 52 -142 133 -142z" />
    <glyph glyph-name="dollar.tab" 
d="M269 -135v126c-167 11 -234 108 -244 230h120c8 -66 30 -122 124 -133v226c-145 25 -221 80 -221 207c0 110 88 192 221 202v90h66v-91c127 -11 204 -81 216 -203h-115c-11 61 -41 97 -101 107v-206c145 -25 229 -74 229 -210c0 -115 -83 -208 -229 -219v-126h-66z
M444 199c0 57 -24 86 -109 104v-215c67 10 109 52 109 111zM164 531c0 -52 19 -82 105 -100v197c-69 -8 -105 -47 -105 -97z" />
    <glyph glyph-name="Euro.tab" 
d="M14 389v64h56c9 169 104 272 253 272c131 0 215 -76 227 -226h-115c-10 84 -44 126 -112 126c-83 0 -125 -58 -131 -172h191l-12 -64h-179v-67h167l-12 -63h-155c6 -114 46 -167 133 -167c71 0 109 42 121 137h113c-12 -158 -99 -239 -237 -239c-148 0 -243 95 -252 269
h-56v63h56v67h-56z" />
    <glyph glyph-name="sterling.tab" 
d="M43 306v80h57c-9 37 -16 77 -16 123c0 134 102 215 233 215c143 0 219 -78 227 -208h-116c-12 71 -40 105 -108 105c-65 0 -109 -44 -109 -117c0 -43 5 -81 13 -118h192v-80h-176c5 -33 10 -67 10 -105c0 -23 -4 -43 -12 -61c53 -15 102 -41 137 -41c46 0 76 19 79 74
h109c-5 -108 -64 -182 -167 -182c-90 0 -156 59 -209 59c-37 0 -54 -24 -56 -50h-100c4 58 33 123 99 143c6 17 9 36 9 59c0 35 -8 69 -17 104h-79z" />
    <glyph glyph-name="yen.tab" 
d="M80 286v63h150l-192 366h138l135 -280l129 280h122l-182 -366h152v-63h-162v-67h162v-64h-162v-155h-130v155h-160v64h160v67h-160z" />
    <glyph glyph-name="zero.tab" 
d="M304 95c90 0 124 55 124 194v140c0 130 -39 192 -126 192c-89 0 -130 -60 -130 -197v-136c0 -140 45 -193 132 -193zM301 -10c-156 0 -257 101 -257 297v136c0 199 103 301 257 301c155 0 255 -98 255 -294v-140c0 -196 -95 -300 -255 -300z" />
    <glyph glyph-name="one.tab" 
d="M290 0v582l-192 -145v116l199 162h126v-715h-133z" />
    <glyph glyph-name="two.tab" 
d="M35 0v24l259 285c67 76 107 138 107 207c0 66 -37 106 -102 106c-68 0 -110 -40 -120 -143h-123c9 150 90 245 246 245c148 0 232 -80 232 -205c0 -93 -59 -176 -144 -262l-153 -152h299v-105h-501z" />
    <glyph glyph-name="three.tab" 
d="M294 -10c-164 0 -254 92 -259 231h119c6 -76 43 -130 137 -130c91 0 130 45 130 115c0 78 -40 117 -125 117h-55v95h52c79 0 117 38 117 104c0 58 -34 101 -106 101c-74 0 -122 -45 -129 -118h-115c5 126 98 219 245 219c145 0 228 -84 228 -191
c0 -81 -47 -131 -115 -156c81 -20 135 -78 135 -172c0 -133 -100 -215 -259 -215z" />
    <glyph glyph-name="four.tab" 
d="M362 0v145h-330v44l293 526h160v-474h79v-96h-79v-145h-123zM162 241h202v370z" />
    <glyph glyph-name="five.tab" 
d="M290 -10c-163 0 -239 85 -247 216h119c10 -68 37 -112 127 -112c80 0 126 56 126 146c0 84 -49 139 -127 139c-71 0 -113 -25 -144 -63h-66l5 399h422v-105h-322l-2 -195c28 32 77 60 149 60c129 0 215 -90 215 -235c0 -155 -104 -250 -255 -250z" />
    <glyph glyph-name="six.tab" 
d="M310 -10c-196 0 -267 138 -267 324v36c0 245 118 374 286 374c123 0 207 -60 221 -188h-118c-12 56 -40 88 -107 88c-93 0 -154 -83 -157 -251c31 52 89 91 170 91c132 0 224 -91 224 -230c0 -147 -96 -244 -252 -244zM308 90c78 0 131 56 131 140c0 86 -52 141 -132 141
c-79 0 -135 -53 -135 -133c0 -95 57 -148 136 -148z" />
    <glyph glyph-name="seven.tab" 
d="M144 0l241 609h-327v106h494v-16l-273 -699h-135z" />
    <glyph glyph-name="eight.tab" 
d="M301 -10c-136 0 -258 72 -258 213c0 90 53 152 129 181c-63 26 -102 78 -102 148c0 122 112 192 231 192c123 0 230 -72 230 -190c0 -72 -41 -121 -103 -149c81 -30 130 -92 130 -179c0 -141 -118 -216 -257 -216zM301 92c74 0 131 43 131 122s-57 121 -129 121
s-133 -42 -133 -122c0 -79 61 -121 131 -121zM304 423c63 0 108 39 108 103c0 61 -48 102 -111 102c-61 0 -110 -39 -110 -102c0 -65 51 -103 113 -103z" />
    <glyph glyph-name="nine.tab" 
d="M281 -9c-140 0 -223 69 -238 196h118c12 -59 45 -96 120 -96c99 0 151 81 153 250c-31 -53 -91 -90 -171 -90c-130 0 -225 88 -225 230c0 146 96 244 252 244c177 0 267 -115 267 -320v-56c0 -230 -101 -358 -276 -358zM293 345c79 0 135 51 135 130
c0 96 -57 151 -136 151c-78 0 -131 -55 -131 -140c0 -86 52 -141 132 -141z" />
    <glyph glyph-name="cent.tab" 
d="M282 -135v127c-135 13 -233 109 -233 264v8c0 152 101 253 233 268v97h66v-97c105 -9 196 -67 209 -194h-115c-9 59 -45 91 -94 100v-356c53 10 97 48 103 113h109c-9 -111 -90 -192 -212 -203v-127h-66zM171 256c0 -99 42 -157 111 -172v353c-66 -16 -111 -77 -111 -173
v-8z" />
    <glyph glyph-name="percent.tab" horiz-adv-x="800" 
d="M208 461c47 0 75 34 75 92c0 56 -28 92 -75 92c-45 0 -74 -34 -74 -92c0 -60 29 -92 74 -92zM208 383c-95 0 -170 72 -170 169c0 98 77 170 170 170c94 0 170 -71 170 -168c0 -99 -75 -171 -170 -171zM131 0l455 715h84l-455 -715h-84zM592 69c46 0 74 33 74 91
c0 57 -28 92 -74 92c-45 0 -75 -33 -75 -92c0 -60 30 -91 75 -91zM592 -10c-95 0 -170 72 -170 169c0 98 77 170 170 170c94 0 170 -70 170 -167c0 -99 -75 -172 -170 -172z" />
    <glyph glyph-name="perthousand.tab" horiz-adv-x="1000" 
d="M179 467c34 0 52 31 52 90s-18 91 -52 91s-53 -30 -53 -91s19 -90 53 -90zM178 392c-79 0 -142 62 -142 164c0 104 65 166 143 166s142 -60 142 -163c0 -104 -63 -167 -143 -167zM74 0l455 715h83l-455 -715h-83zM503 65c35 0 53 31 53 91c0 58 -18 90 -53 90
c-34 0 -52 -30 -52 -90c0 -61 18 -91 52 -91zM503 -10c-80 0 -142 63 -142 165c0 104 65 165 142 165c79 0 143 -59 143 -163s-63 -167 -143 -167zM822 65c34 0 52 31 52 91c0 58 -18 90 -52 90s-53 -30 -53 -90c0 -61 19 -91 53 -91zM821 -10c-80 0 -142 63 -142 165
c0 104 65 165 143 165s142 -59 142 -163s-63 -167 -143 -167z" />
    <glyph glyph-name="plus.tab" 
d="M250 99v195h-180v94h180v195h101v-195h180v-94h-180v-195h-101z" />
    <glyph glyph-name="minus.tab" 
d="M69 293v96h462v-96h-462z" />
    <glyph glyph-name="multiply.tab" 
d="M147 115l-66 66l154 153l-155 154l66 67l154 -155l153 154l67 -66l-154 -154l155 -154l-67 -66l-154 155z" />
    <glyph glyph-name="divide.tab" 
d="M300 71c-42 0 -76 33 -76 75s34 75 76 75s76 -33 76 -75s-34 -75 -76 -75zM67 296v91h467v-91h-467zM300 461c-42 0 -76 33 -76 75c0 43 34 76 76 76s76 -33 76 -76c0 -42 -34 -75 -76 -75z" />
    <glyph glyph-name="equal.tab" 
d="M86 185v91h428v-91h-428zM86 371v92h428v-92h-428z" />
    <glyph glyph-name="less.tab" 
d="M499 81l-407 228v26l407 228v-112l-240 -128l240 -131v-111z" />
    <glyph glyph-name="greater.tab" 
d="M101 81v113l240 128l-240 131v111l407 -229v-25z" />
    <glyph glyph-name="florin.tab" 
d="M101 324v90h112l21 141c17 115 83 169 189 169c31 0 51 -3 73 -11v-95c-15 6 -34 10 -61 10c-50 0 -74 -33 -82 -82l-20 -132h135v-90h-148l-75 -506h-120l75 506h-99z" />
    <glyph glyph-name="plusminus.tab" 
d="M250 157v175h-183v94h183v176h101v-176h182v-94h-182v-175h-101zM67 0v89h467v-89h-467z" />
    <glyph glyph-name="notequal.tab" 
d="M83 371v92h227l39 100h91l-39 -100h116v-92h-152l-36 -95h188v-91h-223l-39 -101h-91l39 101h-120v91h155l36 95h-191z" />
    <glyph glyph-name="approxequal.tab" 
d="M78 148c7 99 61 142 122 142c77 0 147 -42 199 -42c22 0 41 15 45 45h78c-5 -97 -60 -142 -119 -142c-80 0 -150 43 -201 43c-23 0 -41 -16 -46 -46h-78zM78 342c7 99 61 142 122 142c77 0 147 -42 199 -42c22 0 41 15 45 45h78c-5 -97 -60 -142 -119 -142
c-80 0 -150 43 -201 43c-23 0 -41 -16 -46 -46h-78z" />
    <glyph glyph-name="lessequal.tab" 
d="M494 128l-399 213v26l399 213v-111l-223 -114l223 -115v-112zM95 0v89h399v-89h-399z" />
    <glyph glyph-name="greaterequal.tab" 
d="M106 128v112l223 115l-223 114v111l399 -213v-26zM106 0v89h399v-89h-399z" />
    <glyph glyph-name="parenleft.tab" horiz-adv-x="300" 
d="M184 -148c-69 102 -139 252 -139 461c0 208 70 359 139 461h100c-64 -108 -124 -257 -124 -461c0 -205 60 -353 124 -461h-100z" />
    <glyph glyph-name="parenright.tab" horiz-adv-x="300" 
d="M16 -148c64 108 124 256 124 461c0 204 -60 353 -124 461h100c69 -102 139 -253 139 -461c0 -209 -70 -359 -139 -461h-100z" />
    <glyph glyph-name="bracketleft.tab" horiz-adv-x="300" 
d="M60 -148v924h212v-86h-98v-752h98v-86h-212z" />
    <glyph glyph-name="bracketright.tab" horiz-adv-x="300" 
d="M28 -148v86h98v752h-98v86h212v-924h-212z" />
    <glyph glyph-name="braceleft.tab" horiz-adv-x="300" 
d="M272 -147c-152 0 -219 63 -189 218l19 98c10 54 -5 91 -80 106v82c75 14 90 51 80 105l-19 98c-31 157 37 218 189 218v-84c-72 -2 -97 -30 -81 -127l18 -108c13 -76 -25 -115 -98 -143c74 -27 111 -67 98 -142l-18 -109c-16 -97 9 -126 81 -128v-84z" />
    <glyph glyph-name="braceright.tab" horiz-adv-x="300" 
d="M28 -147v84c72 2 97 31 81 128l-18 109c-13 75 24 115 98 142c-73 28 -111 67 -98 143l18 108c16 97 -9 125 -81 127v84c152 0 220 -61 189 -218l-19 -98c-10 -54 5 -91 80 -105v-82c-75 -15 -90 -52 -80 -106l19 -98c30 -155 -37 -218 -189 -218z" />
    <glyph glyph-name="period.tab" horiz-adv-x="300" 
d="M149 -7c-44 0 -79 34 -79 78s35 79 79 79c45 0 81 -35 81 -79s-36 -78 -81 -78z" />
    <glyph glyph-name="comma.tab" horiz-adv-x="300" 
d="M106 -123l-75 33l91 237l115 -46z" />
    <glyph glyph-name="colon.tab" horiz-adv-x="300" 
d="M149 -7c-44 0 -79 34 -79 78s35 79 79 79c45 0 81 -35 81 -79s-36 -78 -81 -78zM149 285c-44 0 -79 35 -79 79s35 78 79 78c45 0 81 -34 81 -78s-36 -79 -81 -79z" />
    <glyph glyph-name="semicolon.tab" horiz-adv-x="300" 
d="M87 -123l-74 33l91 237l114 -46zM156 285c-44 0 -79 35 -79 79s35 78 79 78c45 0 80 -34 80 -78s-35 -79 -80 -79z" />
    <glyph glyph-name="space.tab" horiz-adv-x="300" 
 />
    <glyph glyph-name="dollar.oldtab" 
d="M269 -131v123c-163 12 -228 104 -237 222h117c8 -63 30 -117 120 -128v220c-141 24 -214 76 -214 199c0 107 85 187 214 196v88h65v-89c124 -11 200 -77 212 -196h-112c-12 59 -41 93 -100 103v-200c142 -23 225 -71 225 -202c0 -113 -84 -204 -225 -214v-122h-65z
M441 193c0 56 -23 83 -107 101v-208c65 9 107 50 107 107zM167 515c0 -50 18 -79 102 -97v190c-65 -7 -102 -45 -102 -93z" />
    <glyph glyph-name="Euro.oldtab" 
d="M31 378v61h54c9 165 101 264 245 264c128 0 208 -73 221 -219h-112c-10 81 -43 122 -109 122c-80 0 -122 -56 -127 -167h186l-11 -61h-175v-66h162l-11 -61h-151c6 -110 46 -162 129 -162c70 0 106 42 118 133h109c-11 -153 -96 -232 -229 -232c-144 0 -236 93 -245 261
h-54v61h54v66h-54z" />
    <glyph glyph-name="sterling.oldtab" 
d="M45 295v83h55c-9 35 -15 73 -15 115c0 130 104 209 232 209c138 0 215 -76 223 -202h-119c-11 69 -36 101 -102 101c-63 0 -104 -41 -104 -112c0 -41 5 -76 11 -111h185v-83h-169c5 -31 9 -63 9 -99c0 -23 -4 -43 -11 -61c51 -15 96 -40 130 -40c45 0 74 19 77 73h111
c-5 -105 -67 -177 -167 -177c-87 0 -150 57 -200 57c-37 0 -52 -23 -55 -48h-103c5 54 37 115 97 137c6 16 10 35 10 59c0 33 -8 65 -17 99h-78z" />
    <glyph glyph-name="yen.oldtab" 
d="M87 283v61h145l-187 350h134l132 -271l126 271h118l-177 -350h148v-61h-158v-66h158v-61h-158v-156h-126v156h-155v61h155v66h-155z" />
    <glyph glyph-name="zero.oldtab" 
d="M302 93c88 0 127 63 127 171v94c0 105 -42 171 -128 171c-87 0 -130 -64 -130 -171v-95c0 -108 45 -170 131 -170zM300 -10c-156 0 -254 110 -254 273v94c0 164 102 272 254 272c153 0 254 -105 254 -269v-95c0 -165 -96 -275 -254 -275z" />
    <glyph glyph-name="one.oldtab" 
d="M297 0v493l-193 -135v112l206 149h113v-619h-126z" />
    <glyph glyph-name="two.oldtab" 
d="M42 0v23l241 227c70 66 115 117 115 183c0 59 -37 98 -103 98c-67 0 -109 -41 -121 -134h-114c10 140 97 232 240 232c140 0 226 -77 226 -190c0 -89 -65 -154 -152 -234l-116 -108h274v-97h-490z" />
    <glyph glyph-name="three.oldtab" 
d="M294 -105c-166 0 -253 96 -258 230h116c7 -78 47 -133 141 -133c92 0 133 48 133 121c0 79 -43 117 -129 117h-52v91h49c80 0 116 42 116 109c0 60 -34 102 -107 102c-75 0 -122 -45 -130 -120h-113c6 121 98 217 245 217c144 0 224 -83 224 -190
c0 -81 -43 -132 -110 -157c81 -20 134 -76 134 -171c0 -132 -101 -216 -259 -216z" />
    <glyph glyph-name="four.oldtab" 
d="M358 -95v146h-330v41l290 526h161v-477h86v-90h-86v-146h-121zM154 141h205v377z" />
    <glyph glyph-name="five.oldtab" 
d="M295 -105c-159 0 -236 85 -243 209h115c10 -67 39 -111 127 -111c79 0 126 56 126 145c0 84 -49 139 -125 139c-69 0 -113 -23 -144 -62h-63l5 404h413v-102h-316l-2 -205c27 31 76 58 147 58c124 0 210 -89 210 -229c0 -151 -103 -246 -250 -246z" />
    <glyph glyph-name="six.oldtab" 
d="M312 -10c-181 0 -259 130 -259 313v60c0 233 110 362 274 362c120 0 204 -60 219 -186h-115c-12 56 -43 88 -108 88c-91 0 -145 -85 -148 -262c31 50 85 90 165 90c131 0 217 -88 217 -225c0 -144 -95 -240 -245 -240zM312 86c73 0 127 54 127 138c0 87 -53 142 -128 142
s-132 -53 -132 -133c0 -95 58 -147 133 -147z" />
    <glyph glyph-name="seven.oldtab" 
d="M131 -95l251 610h-326v103h492v-15l-284 -698h-133z" />
    <glyph glyph-name="eight.oldtab" 
d="M301 -10c-132 0 -250 73 -250 210c0 91 54 152 131 179c-65 26 -104 78 -104 152c0 123 106 194 224 194c119 0 222 -72 222 -192c0 -76 -42 -126 -106 -153c82 -29 132 -89 132 -176c0 -139 -114 -214 -249 -214zM301 87c73 0 126 45 126 123s-53 122 -125 122
c-70 0 -128 -44 -128 -123c0 -77 57 -122 127 -122zM303 419c62 0 104 41 104 108c0 62 -46 105 -105 105c-60 0 -107 -41 -107 -106c0 -67 50 -107 108 -107z" />
    <glyph glyph-name="nine.oldtab" 
d="M280 -106c-136 0 -216 72 -230 195h114c12 -55 43 -97 120 -97c98 0 139 84 141 259c-30 -51 -84 -87 -161 -87c-128 0 -220 87 -220 225c0 143 99 240 247 240c181 0 256 -127 256 -310v-65c0 -231 -88 -360 -267 -360zM292 253c75 0 130 54 130 134
c0 95 -56 147 -131 147c-73 0 -128 -55 -128 -139c0 -86 54 -142 129 -142z" />
    <glyph glyph-name="zero.num" horiz-adv-x="378" 
d="M190 426c46 0 68 36 68 107v11c0 69 -23 105 -69 105s-68 -35 -68 -106v-11c0 -71 23 -106 69 -106zM188 354c-101 0 -161 68 -161 177v11c0 111 66 178 162 178c95 0 162 -63 162 -175v-11c0 -110 -61 -180 -163 -180z" />
    <glyph glyph-name="one.num" horiz-adv-x="253" 
d="M104 360v265l-82 -51v78l94 63h82v-355h-94z" />
    <glyph glyph-name="two.num" horiz-adv-x="313" 
d="M7 360v13l128 135c36 37 59 68 59 99c0 26 -14 43 -42 43c-29 0 -47 -18 -52 -61h-85c4 84 57 131 141 131c85 0 129 -45 129 -109c0 -48 -28 -86 -70 -126l-58 -57h131v-68h-281z" />
    <glyph glyph-name="three.num" horiz-adv-x="336" 
d="M166 354c-98 0 -144 49 -146 120h83c3 -31 20 -54 58 -54c36 0 54 18 54 47c0 30 -18 45 -54 45h-28v58h27c36 0 52 16 52 43c0 24 -15 40 -45 40s-50 -18 -54 -48h-83c5 66 54 115 139 115c83 0 131 -40 131 -97c0 -40 -24 -65 -61 -77c41 -8 70 -37 70 -82
c0 -67 -52 -110 -143 -110z" />
    <glyph glyph-name="four.num" horiz-adv-x="347" 
d="M193 360v69h-178v34l154 252h113v-222h46v-64h-46v-69h-89zM104 493h91v157z" />
    <glyph glyph-name="five.num" horiz-adv-x="327" 
d="M159 354c-93 0 -136 48 -139 113h86c4 -26 15 -44 51 -44c32 0 50 23 50 57s-19 55 -51 55c-30 0 -47 -11 -59 -27h-62l7 207h238v-68h-171l-2 -87c15 19 39 37 84 37c65 0 110 -43 110 -116c0 -79 -56 -127 -142 -127z" />
    <glyph glyph-name="six.num" horiz-adv-x="348" 
d="M181 354c-112 0 -154 72 -154 172v9c0 118 67 185 161 185c75 0 121 -35 128 -102h-85c-4 20 -15 34 -43 34c-43 0 -66 -38 -68 -104c16 25 42 43 86 43c66 0 118 -40 118 -113c0 -74 -54 -124 -143 -124zM180 418c32 0 54 24 54 58s-21 57 -54 57s-55 -23 -55 -55
c0 -37 22 -60 55 -60z" />
    <glyph glyph-name="seven.num" horiz-adv-x="298" 
d="M65 360l106 281h-153v74h270v-10l-129 -345h-94z" />
    <glyph glyph-name="eight.num" horiz-adv-x="340" 
d="M170 354c-86 0 -146 36 -146 105c0 43 24 75 65 89c-31 13 -51 37 -51 73c0 63 61 99 133 99c73 0 131 -36 131 -98c0 -37 -20 -60 -52 -73c43 -15 66 -46 66 -87c0 -69 -60 -108 -146 -108zM170 419c31 0 54 18 54 51c0 30 -23 49 -54 49c-30 0 -54 -18 -54 -50
s24 -50 54 -50zM171 572c26 0 46 17 46 43s-21 42 -46 42c-26 0 -47 -16 -47 -43c0 -26 22 -42 47 -42z" />
    <glyph glyph-name="nine.num" horiz-adv-x="348" 
d="M165 354c-80 0 -128 38 -136 104h86c5 -21 17 -36 49 -36c44 0 64 37 65 102c-16 -24 -40 -41 -83 -41c-69 0 -121 39 -121 113c0 75 55 124 143 124c104 0 154 -68 154 -171v-14c0 -115 -55 -181 -157 -181zM168 541c33 0 55 23 55 54c0 37 -22 61 -55 61
c-32 0 -53 -24 -53 -58s20 -57 53 -57z" />
    <glyph glyph-name="zero.den" horiz-adv-x="378" 
d="M190 67c46 0 68 36 68 106v11c0 69 -23 105 -69 105s-68 -35 -68 -106v-11c0 -70 23 -105 69 -105zM188 -6c-101 0 -161 68 -161 177v12c0 110 66 177 162 177c95 0 162 -63 162 -175v-11c0 -109 -61 -180 -163 -180z" />
    <glyph glyph-name="one.den" horiz-adv-x="254" 
d="M104 0v265l-82 -51v78l94 63h82v-355h-94z" />
    <glyph glyph-name="two.den" horiz-adv-x="313" 
d="M7 0v13l128 135c36 37 59 68 59 99c0 27 -14 43 -42 43c-29 0 -47 -18 -52 -61h-85c4 85 57 131 141 131c85 0 129 -45 129 -109c0 -47 -28 -86 -70 -126l-58 -57h131v-68h-281z" />
    <glyph glyph-name="three.den" horiz-adv-x="336" 
d="M166 -6c-98 0 -144 49 -146 120h83c3 -31 20 -53 58 -53c36 0 54 17 54 46c0 30 -18 46 -54 46h-28v57h27c36 0 52 16 52 43c0 24 -15 41 -45 41s-50 -18 -54 -49h-83c5 67 54 115 139 115c83 0 131 -40 131 -97c0 -40 -24 -65 -61 -77c41 -8 70 -37 70 -82
c0 -67 -52 -110 -143 -110z" />
    <glyph glyph-name="four.den" horiz-adv-x="348" 
d="M193 0v69h-178v34l154 252h113v-222h46v-64h-46v-69h-89zM104 133h91v157z" />
    <glyph glyph-name="five.den" horiz-adv-x="328" 
d="M159 -6c-93 0 -136 48 -139 113h86c4 -26 15 -43 51 -43c32 0 50 22 50 57c0 34 -19 55 -51 55c-30 0 -47 -11 -59 -27h-62l7 206h238v-68h-171l-2 -87c15 19 39 37 84 37c65 0 110 -42 110 -116c0 -78 -56 -127 -142 -127z" />
    <glyph glyph-name="six.den" horiz-adv-x="349" 
d="M181 -6c-112 0 -154 72 -154 172v10c0 117 67 184 161 184c75 0 121 -35 128 -102h-85c-4 20 -15 34 -43 34c-43 0 -66 -38 -68 -104c16 25 42 43 86 43c66 0 118 -40 118 -113c0 -74 -54 -124 -143 -124zM180 59c32 0 54 23 54 57s-21 58 -54 58s-55 -24 -55 -56
c0 -37 22 -59 55 -59z" />
    <glyph glyph-name="seven.den" horiz-adv-x="298" 
d="M65 0l106 281h-153v74h270v-10l-129 -345h-94z" />
    <glyph glyph-name="eight.den" horiz-adv-x="340" 
d="M170 -6c-86 0 -146 36 -146 106c0 42 24 74 65 88c-31 13 -51 37 -51 74c0 62 61 98 133 98c73 0 131 -36 131 -98c0 -37 -20 -60 -52 -73c43 -15 66 -45 66 -87c0 -69 -60 -108 -146 -108zM170 59c31 0 54 18 54 51c0 31 -23 49 -54 49c-30 0 -54 -18 -54 -50
s24 -50 54 -50zM171 212c26 0 46 17 46 43s-21 42 -46 42c-26 0 -47 -16 -47 -43c0 -26 22 -42 47 -42z" />
    <glyph glyph-name="nine.den" horiz-adv-x="349" 
d="M165 -6c-80 0 -128 39 -136 105h86c5 -22 17 -36 49 -36c44 0 64 36 65 102c-16 -24 -40 -42 -83 -42c-69 0 -121 39 -121 113c0 75 55 125 143 125c104 0 154 -68 154 -171v-15c0 -115 -55 -181 -157 -181zM168 181c33 0 55 23 55 54c0 37 -22 61 -55 61
c-32 0 -53 -23 -53 -58c0 -33 20 -57 53 -57z" />
    <glyph glyph-name="zero.sub" horiz-adv-x="378" 
d="M190 -33c46 0 68 36 68 107v11c0 69 -23 105 -69 105s-68 -35 -68 -106v-11c0 -71 23 -106 69 -106zM188 -105c-101 0 -161 68 -161 177v11c0 111 66 178 162 178c95 0 162 -63 162 -175v-11c0 -110 -61 -180 -163 -180z" />
    <glyph glyph-name="one.sub" horiz-adv-x="254" 
d="M104 -100v265l-82 -51v78l94 63h82v-355h-94z" />
    <glyph glyph-name="two.sub" horiz-adv-x="313" 
d="M7 -99v13l128 135c36 37 59 68 59 99c0 26 -14 43 -42 43c-29 0 -47 -18 -52 -61h-85c4 84 57 131 141 131c85 0 129 -45 129 -109c0 -48 -28 -86 -70 -126l-58 -57h131v-68h-281z" />
    <glyph glyph-name="three.sub" horiz-adv-x="336" 
d="M166 -105c-98 0 -144 49 -146 120h83c3 -31 20 -54 58 -54c36 0 54 18 54 47c0 30 -18 45 -54 45h-28v58h27c36 0 52 16 52 43c0 24 -15 40 -45 40s-50 -18 -54 -48h-83c5 66 54 115 139 115c83 0 131 -40 131 -97c0 -40 -24 -65 -61 -77c41 -8 70 -37 70 -82
c0 -67 -52 -110 -143 -110z" />
    <glyph glyph-name="four.sub" horiz-adv-x="348" 
d="M193 -99v69h-178v34l154 252h113v-222h46v-64h-46v-69h-89zM104 34h91v157z" />
    <glyph glyph-name="five.sub" horiz-adv-x="328" 
d="M159 -105c-93 0 -136 48 -139 113h86c4 -26 15 -44 51 -44c32 0 50 23 50 57s-19 55 -51 55c-30 0 -47 -11 -59 -27h-62l7 207h238v-68h-171l-2 -87c15 19 39 37 84 37c65 0 110 -43 110 -116c0 -79 -56 -127 -142 -127z" />
    <glyph glyph-name="six.sub" horiz-adv-x="349" 
d="M181 -105c-112 0 -154 72 -154 172v9c0 118 67 185 161 185c75 0 121 -35 128 -102h-85c-4 20 -15 34 -43 34c-43 0 -66 -38 -68 -104c16 25 42 43 86 43c66 0 118 -40 118 -113c0 -74 -54 -124 -143 -124zM180 -41c32 0 54 24 54 58s-21 57 -54 57s-55 -23 -55 -55
c0 -37 22 -60 55 -60z" />
    <glyph glyph-name="seven.sub" horiz-adv-x="298" 
d="M65 -99l106 281h-153v74h270v-10l-129 -345h-94z" />
    <glyph glyph-name="eight.sub" horiz-adv-x="340" 
d="M170 -105c-86 0 -146 36 -146 105c0 43 24 75 65 89c-31 13 -51 37 -51 73c0 63 61 99 133 99c73 0 131 -36 131 -98c0 -37 -20 -60 -52 -73c43 -15 66 -46 66 -87c0 -69 -60 -108 -146 -108zM170 -40c31 0 54 18 54 51c0 30 -23 49 -54 49c-30 0 -54 -18 -54 -50
s24 -50 54 -50zM171 113c26 0 46 17 46 43s-21 42 -46 42c-26 0 -47 -16 -47 -43c0 -26 22 -42 47 -42z" />
    <glyph glyph-name="nine.sub" horiz-adv-x="349" 
d="M165 -105c-80 0 -128 38 -136 104h86c5 -21 17 -36 49 -36c44 0 64 37 65 102c-16 -24 -40 -41 -83 -41c-69 0 -121 39 -121 113c0 75 55 124 143 124c104 0 154 -68 154 -171v-14c0 -115 -55 -181 -157 -181zM168 82c33 0 55 23 55 54c0 37 -22 61 -55 61
c-32 0 -53 -24 -53 -58s20 -57 53 -57z" />
    <glyph glyph-name="plus.sub" horiz-adv-x="346" 
d="M138 -58v103h-99v68h99v104h70v-104h100v-68h-100v-103h-70z" />
    <glyph glyph-name="minus.sub" horiz-adv-x="346" 
d="M39 45v68h269v-68h-269z" />
    <glyph glyph-name="zero.sup" horiz-adv-x="378" 
d="M190 484c46 0 68 36 68 107v11c0 69 -23 105 -69 105s-68 -35 -68 -106v-11c0 -71 23 -106 69 -106zM188 412c-101 0 -161 68 -161 177v11c0 111 66 178 162 178c95 0 162 -63 162 -175v-11c0 -110 -61 -180 -163 -180z" />
    <glyph glyph-name="one.sup" horiz-adv-x="254" 
d="M104 418v265l-82 -51v78l94 63h82v-355h-94z" />
    <glyph glyph-name="two.sup" horiz-adv-x="313" 
d="M7 418v13l128 135c36 37 59 68 59 99c0 26 -14 43 -42 43c-29 0 -47 -18 -52 -61h-85c4 84 57 131 141 131c85 0 129 -45 129 -109c0 -48 -28 -86 -70 -126l-58 -57h131v-68h-281z" />
    <glyph glyph-name="three.sup" horiz-adv-x="336" 
d="M166 412c-98 0 -144 49 -146 120h83c3 -31 20 -54 58 -54c36 0 54 18 54 47c0 30 -18 45 -54 45h-28v58h27c36 0 52 16 52 43c0 24 -15 40 -45 40s-50 -18 -54 -48h-83c5 66 54 115 139 115c83 0 131 -40 131 -97c0 -40 -24 -65 -61 -77c41 -8 70 -37 70 -82
c0 -67 -52 -110 -143 -110z" />
    <glyph glyph-name="four.sup" horiz-adv-x="348" 
d="M193 418v69h-178v34l154 252h113v-222h46v-64h-46v-69h-89zM104 551h91v157z" />
    <glyph glyph-name="five.sup" horiz-adv-x="328" 
d="M159 412c-93 0 -136 48 -139 113h86c4 -26 15 -44 51 -44c32 0 50 23 50 57s-19 55 -51 55c-30 0 -47 -11 -59 -27h-62l7 207h238v-68h-171l-2 -87c15 19 39 37 84 37c65 0 110 -43 110 -116c0 -79 -56 -127 -142 -127z" />
    <glyph glyph-name="six.sup" horiz-adv-x="349" 
d="M181 412c-112 0 -154 72 -154 172v9c0 118 67 185 161 185c75 0 121 -35 128 -102h-85c-4 20 -15 34 -43 34c-43 0 -66 -38 -68 -104c16 25 42 43 86 43c66 0 118 -40 118 -113c0 -74 -54 -124 -143 -124zM180 476c32 0 54 24 54 58s-21 57 -54 57s-55 -23 -55 -55
c0 -37 22 -60 55 -60z" />
    <glyph glyph-name="seven.sup" horiz-adv-x="298" 
d="M65 418l106 281h-153v74h270v-10l-129 -345h-94z" />
    <glyph glyph-name="eight.sup" horiz-adv-x="340" 
d="M170 412c-86 0 -146 36 -146 105c0 43 24 75 65 89c-31 13 -51 37 -51 73c0 63 61 99 133 99c73 0 131 -36 131 -98c0 -37 -20 -60 -52 -73c43 -15 66 -46 66 -87c0 -69 -60 -108 -146 -108zM170 477c31 0 54 18 54 51c0 30 -23 49 -54 49c-30 0 -54 -18 -54 -50
s24 -50 54 -50zM171 630c26 0 46 17 46 43s-21 42 -46 42c-26 0 -47 -16 -47 -43c0 -26 22 -42 47 -42z" />
    <glyph glyph-name="nine.sup" horiz-adv-x="349" 
d="M165 412c-80 0 -128 38 -136 104h86c5 -21 17 -36 49 -36c44 0 64 37 65 102c-16 -24 -40 -41 -83 -41c-69 0 -121 39 -121 113c0 75 55 124 143 124c104 0 154 -68 154 -171v-14c0 -115 -55 -181 -157 -181zM168 599c33 0 55 23 55 54c0 37 -22 61 -55 61
c-32 0 -53 -24 -53 -58s20 -57 53 -57z" />
    <glyph glyph-name="plus.sup" horiz-adv-x="346" 
d="M138 460v102h-99v69h99v103h70v-103h100v-69h-100v-102h-70z" />
    <glyph glyph-name="minus.sup" horiz-adv-x="346" 
d="M39 562v69h269v-69h-269z" />
    <glyph glyph-name="uni2033" unicode="&#x2033;" horiz-adv-x="409" 
d="M42 458l23 257h121l-58 -257h-86zM224 458l23 257h121l-58 -257h-86z" />
    <glyph glyph-name="uni2032" unicode="&#x2032;" horiz-adv-x="227" 
d="M42 458l23 257h121l-58 -257h-86z" />
    <glyph glyph-name="a.alt" horiz-adv-x="623" 
d="M264 -10c-122 0 -226 93 -226 263v8c0 167 105 273 231 273c80 0 131 -38 161 -90v79h121v-523h-121v86c-29 -51 -94 -96 -166 -96zM293 86c78 0 141 56 141 173v8c0 116 -54 172 -135 172c-83 0 -137 -62 -137 -175v-8c0 -115 58 -170 131 -170z" />
    <glyph glyph-name="t.alt" horiz-adv-x="354" 
d="M100 0v432h-78v91h78v115h121v-115h107v-91h-107v-432h-121z" />
    <glyph glyph-name="germandbls.alt" horiz-adv-x="645" 
d="M431 -9c-112 0 -182 60 -185 157h109c3 -42 27 -69 72 -69c41 0 68 20 68 70c0 45 -41 66 -93 94c-58 31 -121 68 -121 142c0 96 132 141 132 215c0 50 -33 77 -96 77c-77 0 -124 -45 -124 -134v-543h-121v540c0 143 104 231 246 231c122 0 213 -58 213 -159
c0 -117 -136 -151 -136 -212c0 -25 30 -36 102 -79c59 -35 117 -82 117 -163c0 -109 -76 -167 -183 -167z" />
    <glyph glyph-name="aacute.alt" horiz-adv-x="623" 
d="M257 601l59 155h134l-104 -155h-89zM264 -10c-122 0 -226 93 -226 263v8c0 167 105 273 231 273c80 0 131 -38 161 -90v79h121v-523h-121v86c-29 -51 -94 -96 -166 -96zM293 86c78 0 141 56 141 173v8c0 116 -54 172 -135 172c-83 0 -137 -62 -137 -175v-8
c0 -115 58 -170 131 -170z" />
    <glyph glyph-name="abreve.alt" horiz-adv-x="623" 
d="M264 -10c-122 0 -226 93 -226 263v8c0 167 105 273 231 273c80 0 131 -38 161 -90v79h121v-523h-121v86c-29 -51 -94 -96 -166 -96zM293 86c78 0 141 56 141 173v8c0 116 -54 172 -135 172c-83 0 -137 -62 -137 -175v-8c0 -115 58 -170 131 -170zM307 606
c-82 0 -140 57 -145 143h84c5 -36 24 -58 61 -58s58 22 65 58h82c-5 -86 -67 -143 -147 -143z" />
    <glyph glyph-name="acircumflex.alt" horiz-adv-x="623" 
d="M147 602l114 151h96l111 -151h-86l-75 68l-76 -68h-84zM264 -10c-122 0 -226 93 -226 263v8c0 167 105 273 231 273c80 0 131 -38 161 -90v79h121v-523h-121v86c-29 -51 -94 -96 -166 -96zM293 86c78 0 141 56 141 173v8c0 116 -54 172 -135 172
c-83 0 -137 -62 -137 -175v-8c0 -115 58 -170 131 -170z" />
    <glyph glyph-name="adieresis.alt" horiz-adv-x="623" 
d="M211 613c-36 0 -66 29 -66 65c0 35 30 65 66 65s66 -30 66 -65c0 -36 -30 -65 -66 -65zM409 613c-37 0 -66 29 -66 65c0 35 29 65 66 65c36 0 66 -30 66 -65c0 -36 -30 -65 -66 -65zM264 -10c-122 0 -226 93 -226 263v8c0 167 105 273 231 273c80 0 131 -38 161 -90v79
h121v-523h-121v86c-29 -51 -94 -96 -166 -96zM293 86c78 0 141 56 141 173v8c0 116 -54 172 -135 172c-83 0 -137 -62 -137 -175v-8c0 -115 58 -170 131 -170z" />
    <glyph glyph-name="agrave.alt" horiz-adv-x="623" 
d="M264 -10c-122 0 -226 93 -226 263v8c0 167 105 273 231 273c80 0 131 -38 161 -90v79h121v-523h-121v86c-29 -51 -94 -96 -166 -96zM293 86c78 0 141 56 141 173v8c0 116 -54 172 -135 172c-83 0 -137 -62 -137 -175v-8c0 -115 58 -170 131 -170zM270 601l-104 155h134
l59 -155h-89z" />
    <glyph glyph-name="amacron.alt" horiz-adv-x="623" 
d="M264 -10c-122 0 -226 93 -226 263v8c0 167 105 273 231 273c80 0 131 -38 161 -90v79h121v-523h-121v86c-29 -51 -94 -96 -166 -96zM293 86c78 0 141 56 141 173v8c0 116 -54 172 -135 172c-83 0 -137 -62 -137 -175v-8c0 -115 58 -170 131 -170zM168 634v78h280v-78
h-280z" />
    <glyph glyph-name="aogonek.alt" horiz-adv-x="623" 
d="M486 -182c-66 0 -109 30 -109 81c0 45 38 80 81 101h-28v86c-29 -51 -94 -96 -166 -96c-122 0 -226 93 -226 263v8c0 167 105 273 231 273c80 0 131 -38 161 -90v79h121v-515c-49 -32 -69 -58 -69 -85c0 -22 13 -33 35 -33c15 0 31 3 43 9v-67c-17 -8 -40 -14 -74 -14z
M293 86c78 0 141 56 141 173v8c0 116 -54 172 -135 172c-83 0 -137 -62 -137 -175v-8c0 -115 58 -170 131 -170z" />
    <glyph glyph-name="aring.alt" horiz-adv-x="623" 
d="M304 643c29 0 50 24 50 55c0 32 -21 55 -50 55s-50 -23 -50 -55c0 -31 21 -55 50 -55zM304 590c-61 0 -111 49 -111 108s50 108 111 108s111 -49 111 -108s-50 -108 -111 -108zM264 -10c-122 0 -226 93 -226 263v8c0 167 105 273 231 273c80 0 131 -38 161 -90v79h121
v-523h-121v86c-29 -51 -94 -96 -166 -96zM293 86c78 0 141 56 141 173v8c0 116 -54 172 -135 172c-83 0 -137 -62 -137 -175v-8c0 -115 58 -170 131 -170z" />
    <glyph glyph-name="aringacute.alt" horiz-adv-x="623" 
d="M304 629c29 0 50 24 50 55c0 32 -21 55 -50 55s-50 -23 -50 -55c0 -31 21 -55 50 -55zM304 576c-61 0 -111 49 -111 108s50 108 111 108s111 -49 111 -108s-50 -108 -111 -108zM264 -10c-122 0 -226 93 -226 263v8c0 167 105 273 231 273c80 0 131 -38 161 -90v79h121
v-523h-121v86c-29 -51 -94 -96 -166 -96zM293 86c78 0 141 56 141 173v8c0 116 -54 172 -135 172c-83 0 -137 -62 -137 -175v-8c0 -115 58 -170 131 -170zM264 828l54 135h136l-99 -135h-91z" />
    <glyph glyph-name="atilde.alt" horiz-adv-x="623" 
d="M264 -10c-122 0 -226 93 -226 263v8c0 167 105 273 231 273c80 0 131 -38 161 -90v79h121v-523h-121v86c-29 -51 -94 -96 -166 -96zM293 86c78 0 141 56 141 173v8c0 116 -54 172 -135 172c-83 0 -137 -62 -137 -175v-8c0 -115 58 -170 131 -170zM365 606
c-48 0 -82 40 -111 40c-18 0 -33 -17 -37 -40h-75c8 84 51 131 107 131c46 0 81 -39 112 -39c18 0 32 16 36 40h75c-8 -84 -52 -132 -107 -132z" />
    <glyph glyph-name="tbar.alt" horiz-adv-x="354" 
d="M22 261v75h78v96h-78v91h78v115h121v-115h107v-91h-107v-96h107v-75h-107v-261h-121v261h-78z" />
    <glyph glyph-name="tcaron.alt" horiz-adv-x="354" 
d="M100 0v432h-78v91h78v115h121v-115h107v-91h-107v-432h-121zM276 590l10 175h110l-49 -175h-71z" />
    <glyph glyph-name="tcommaaccent.alt" horiz-adv-x="354" 
d="M134 -225l-71 27l52 165l111 -22zM100 0v432h-78v91h78v115h121v-115h107v-91h-107v-432h-121z" />
    <glyph glyph-name="f.short" horiz-adv-x="349" 
d="M93 0v432h-71v91h71v70c0 115 63 177 174 177c30 0 47 -3 66 -9v-94c-14 6 -29 8 -51 8c-48 0 -68 -32 -68 -77v-75h119v-91h-119v-432h-121z" />
    <glyph glyph-name="f_f.short" horiz-adv-x="654" 
d="M93 0v432h-71v91h71v63c0 116 63 177 175 177c29 0 47 -3 69 -10v-94c-14 5 -32 10 -54 10c-49 0 -69 -32 -69 -77v-69h184v70c0 115 63 177 174 177c29 0 47 -3 66 -9v-94c-15 6 -30 8 -51 8c-49 0 -68 -32 -68 -77v-75h119v-91h-119v-432h-121v432h-184v-432h-121z" />
    <glyph glyph-name="questiondown.uc" horiz-adv-x="516" 
d="M340 500v-38c0 -79 -52 -128 -100 -175c-38 -37 -70 -70 -70 -113c0 -51 27 -84 88 -84c63 0 105 44 112 113h116c-6 -131 -99 -213 -234 -213c-143 0 -210 78 -210 175c0 71 43 117 88 161c47 45 95 86 99 142v32h111zM286 722c45 0 81 -34 81 -77
c0 -44 -36 -78 -81 -78c-44 0 -81 34 -81 78c0 43 37 77 81 77z" />
    <glyph glyph-name="exclamdown.uc" horiz-adv-x="306" 
d="M85 0l19 500h97l19 -500h-135zM153 567c-44 0 -81 34 -81 78c0 43 37 77 81 77s81 -34 81 -77c0 -44 -37 -78 -81 -78z" />
    <glyph glyph-name="hyphen.uc" horiz-adv-x="380" 
d="M56 275v103h268v-103h-268z" />
    <glyph glyph-name="endash.uc" horiz-adv-x="532" 
d="M45 285v84h441v-84h-441z" />
    <glyph glyph-name="emdash.uc" horiz-adv-x="909" 
d="M45 285v84h819v-84h-819z" />
    <glyph glyph-name="guilsinglleft.uc" horiz-adv-x="316" 
d="M176 110l-128 191l128 191h97l-123 -191l123 -191h-97z" />
    <glyph glyph-name="guilsinglright.uc" horiz-adv-x="316" 
d="M43 110l123 191l-123 191h97l128 -191l-128 -191h-97z" />
    <glyph glyph-name="guillemotleft.uc" horiz-adv-x="492" 
d="M176 110l-128 191l128 191h95l-123 -191l123 -191h-95zM355 110l-128 191l128 191h95l-123 -191l123 -191h-95z" />
    <glyph glyph-name="guillemotright.uc" horiz-adv-x="492" 
d="M43 110l123 191l-123 191h95l128 -191l-128 -191h-95zM221 110l123 191l-123 191h95l128 -191l-128 -191h-95z" />
    <glyph glyph-name="parenleft.uc" horiz-adv-x="335" 
d="M214 -98c-82 97 -164 250 -164 441c0 190 82 344 164 441h105c-77 -104 -149 -260 -149 -441c0 -182 72 -337 149 -441h-105z" />
    <glyph glyph-name="parenright.uc" horiz-adv-x="335" 
d="M17 -98c76 104 148 260 148 441c0 182 -72 337 -148 441h104c82 -97 164 -250 164 -441c0 -190 -82 -344 -164 -441h-104z" />
    <glyph glyph-name="bracketleft.uc" horiz-adv-x="377" 
d="M79 -88v868h256v-91h-134v-685h134v-92h-256z" />
    <glyph glyph-name="bracketright.uc" horiz-adv-x="377" 
d="M42 -88v92h134v685h-134v91h256v-868h-256z" />
    <glyph glyph-name="braceleft.uc" horiz-adv-x="396" 
d="M354 -90c-168 0 -247 56 -224 205l12 84c9 55 -13 103 -106 103v87c93 0 115 49 106 103l-12 84c-23 151 56 205 224 205v-90c-88 -2 -119 -24 -107 -114l12 -98c9 -72 -30 -116 -100 -133c70 -16 109 -61 100 -133l-12 -98c-12 -90 19 -113 107 -115v-90z" />
    <glyph glyph-name="braceright.uc" horiz-adv-x="396" 
d="M42 -90v90c88 2 118 25 106 115l-12 98c-9 72 31 117 100 133c-69 17 -109 61 -100 133l12 98c12 90 -18 112 -106 114v90c167 0 247 -54 224 -205l-13 -84c-8 -54 14 -103 106 -103v-87c-92 0 -114 -48 -106 -103l13 -84c22 -149 -57 -205 -224 -205z" />
    <glyph glyph-name="slash.uc" horiz-adv-x="415" 
d="M13 -84l282 861h103l-283 -861h-102z" />
    <glyph glyph-name="backslash.uc" horiz-adv-x="415" 
d="M299 -84l-281 861h102l281 -861h-102z" />
    <glyph glyph-name="bar.uc" horiz-adv-x="259" 
d="M84 -84v861h90v-861h-90z" />
    <glyph glyph-name="at.uc" horiz-adv-x="917" 
d="M460 -67c-263 0 -413 185 -413 399c0 247 198 422 426 422c233 0 397 -150 397 -357c0 -188 -106 -256 -196 -256c-81 0 -114 31 -124 82c-27 -51 -79 -87 -140 -87c-96 0 -158 66 -158 174c0 134 85 228 192 228c67 0 100 -30 114 -63l7 55h108l-31 -254
c-6 -47 7 -72 44 -72c55 0 108 56 108 193c0 173 -121 289 -320 289s-346 -140 -346 -354c0 -181 111 -331 333 -331c109 0 181 30 237 80h83c-56 -88 -177 -148 -321 -148zM439 219c54 0 107 52 107 142c0 61 -32 93 -87 93c-54 0 -97 -53 -97 -140c0 -58 30 -95 77 -95z
" />
    <glyph glyph-name="uni2009" unicode="&#x2009;" horiz-adv-x="101" 
 />
    </font>
</defs>
</svg>
