<?xml version="1.0" standalone="no"?>
<!DOCTYPE svg PUBLIC "-//W3C//DTD SVG 1.1//EN" "http://www.w3.org/Graphics/SVG/1.1/DTD/svg11.dtd" >
<svg xmlns="http://www.w3.org/2000/svg" xmlns:xlink="http://www.w3.org/1999/xlink" version="1.1">
<metadata>
Created by FontForge 20190801 at Wed Oct 14 07:53:46 2009
 By root
(c)2009 Commercial Type.
</metadata>
<defs>
<font id="Graphik-MediumItalic" horiz-adv-x="600" >
  <font-face 
    font-family="Graphik Medium"
    font-weight="500"
    font-style="italic"
    font-stretch="normal"
    units-per-em="1000"
    panose-1="2 11 6 3 3 2 2 13 2 3"
    ascent="821"
    descent="-179"
    x-height="523"
    cap-height="715"
    bbox="-261 -225 1120 1123"
    underline-thickness="50"
    underline-position="-100"
    slope="-8"
    stemh="106"
    stemv="124"
    unicode-range="U+0020-FB02"
  />
<missing-glyph horiz-adv-x="508" 
 />
    <glyph glyph-name="f_f" unicode="ff" horiz-adv-x="657" 
d="M349 0l68 432h-182l-68 -432h-120l67 432h-70l14 91h71l12 78c18 109 93 160 189 160c38 0 59 -5 77 -13l-14 -92c-13 6 -29 9 -51 9c-48 0 -73 -26 -81 -73l-11 -69h182l14 88c17 109 93 160 189 160c40 0 60 -5 79 -13l-14 -92c-14 6 -30 10 -53 10
c-49 0 -74 -28 -81 -73l-13 -80h119l-14 -91h-119l-69 -432h-121z" />
    <glyph glyph-name=".notdef" horiz-adv-x="508" 
 />
    <glyph glyph-name="Eth" unicode="&#xd0;" horiz-adv-x="737" 
d="M39 311l15 95h69l49 309h197c238 0 345 -124 345 -305c0 -240 -152 -410 -414 -410h-241l49 311h-69zM208 105h91c176 0 278 112 278 301c0 122 -61 205 -212 205h-77l-33 -205h173l-15 -95h-173z" />
    <glyph glyph-name="eth" unicode="&#xf0;" horiz-adv-x="603" 
d="M204 567l-24 52l113 51c-35 34 -74 65 -115 95h148c22 -13 45 -30 67 -50l101 45l24 -53l-81 -36c72 -82 131 -199 131 -337c0 -193 -101 -344 -291 -344c-142 0 -245 88 -245 238c0 156 103 303 263 303c59 0 104 -20 137 -68c-24 62 -57 115 -97 162zM155 222
c0 -73 34 -138 124 -138c108 0 165 104 165 216c0 73 -35 139 -127 139c-106 0 -162 -101 -162 -217z" />
    <glyph glyph-name="Lslash" unicode="&#x141;" horiz-adv-x="570" 
d="M31 240l13 87l70 23l58 365h134l-51 -317l203 68l-14 -87l-203 -68l-32 -205h305l-16 -106h-439l41 263z" />
    <glyph glyph-name="lslash" unicode="&#x142;" horiz-adv-x="299" 
d="M23 291l14 91l75 36l55 347h122l-45 -283l80 38l-15 -91l-79 -38l-62 -391h-121l51 327z" />
    <glyph glyph-name="Scaron" unicode="&#x160;" horiz-adv-x="635" 
d="M541 901l-127 -135h-105l-91 135h84l67 -55l82 55h90zM306 -10c-186 0 -280 101 -280 232h128c3 -68 45 -132 157 -132c89 -1 138 43 138 114c0 53 -30 79 -133 107c-150 38 -219 86 -219 200c0 118 98 213 258 213c151 0 246 -70 247 -207h-122c-7 79 -57 107 -132 107
c-84 0 -123 -43 -123 -101c0 -47 28 -70 134 -99c149 -40 221 -89 221 -203c0 -134 -101 -231 -274 -231z" />
    <glyph glyph-name="scaron" unicode="&#x161;" horiz-adv-x="493" 
d="M460 753l-135 -151h-96l-90 151h82l66 -67l85 67h88zM230 -11c-141 0 -215 72 -216 174h114c4 -48 28 -84 106 -84c60 0 88 24 88 68c0 38 -23 54 -99 71c-117 27 -164 70 -164 153c0 108 94 163 203 163c112 0 193 -46 200 -158h-112c-3 42 -36 70 -91 70
s-86 -23 -86 -63c0 -34 25 -50 97 -67c115 -26 171 -61 171 -159c0 -106 -85 -168 -211 -168z" />
    <glyph glyph-name="Yacute" unicode="&#xdd;" horiz-adv-x="626" 
d="M209 0l49 310l-172 405h140l118 -295l202 295h135l-290 -414l-48 -301h-134zM337 766l67 135h138l-111 -135h-94z" />
    <glyph glyph-name="yacute" unicode="&#xfd;" horiz-adv-x="533" 
d="M45 -179l135 238l-125 464h124l81 -338l176 338h124l-391 -702h-124zM266 601l77 155h136l-122 -155h-91z" />
    <glyph glyph-name="Thorn" unicode="&#xde;" horiz-adv-x="609" 
d="M286 715l-20 -128h91c146 0 238 -66 237 -190c0 -168 -128 -244 -280 -244h-117l-24 -153h-133l113 715h133zM342 488h-92l-38 -238h102c98 0 151 51 151 141c1 66 -40 97 -123 97z" />
    <glyph glyph-name="thorn" unicode="&#xfe;" horiz-adv-x="636" 
d="M1 -179l149 944h121l-52 -330c35 57 102 99 180 99c115 0 200 -85 200 -229c0 -180 -100 -315 -257 -315c-98 0 -155 50 -176 104l-44 -273h-121zM319 84c97 0 154 90 154 213c0 92 -44 143 -117 143c-97 0 -171 -84 -171 -215c0 -88 50 -141 134 -141z" />
    <glyph glyph-name="Zcaron" unicode="&#x17d;" horiz-adv-x="607" 
d="M558 901l-127 -135h-105l-91 135h84l67 -55l82 55h90zM-20 0l2 18l456 594h-325l16 103h517l-2 -17l-450 -593h344l-16 -105h-542z" />
    <glyph glyph-name="zcaron" unicode="&#x17e;" horiz-adv-x="487" 
d="M472 753l-135 -151h-96l-90 151h82l66 -67l85 67h88zM-25 0l2 14l332 414h-241l14 95h423l-3 -17l-329 -409h260l-16 -97h-442z" />
    <glyph glyph-name="onehalf" unicode="&#xbd;" horiz-adv-x="743" 
d="M19 0l603 715h79l-602 -715h-80zM122 360l41 263l-89 -51l12 80l104 63h82l-57 -355h-93zM391 0l3 14l148 132c44 38 77 69 77 105c0 26 -17 39 -39 39c-28 0 -49 -17 -59 -61h-85c13 85 73 131 150 131c65 0 125 -29 125 -103c0 -54 -36 -87 -100 -142l-54 -47h127
l-11 -68h-282z" />
    <glyph glyph-name="onequarter" unicode="&#xbc;" horiz-adv-x="730" 
d="M122 360l41 263l-89 -51l12 80l104 63h82l-57 -355h-93zM32 0l603 715h79l-602 -715h-80zM529 0l11 69h-178l6 34l194 252h113l-35 -222h47l-11 -64h-46l-11 -69h-90zM464 133h89l23 153z" />
    <glyph glyph-name="onesuperior" unicode="&#xb9;" horiz-adv-x="253" 
d="M119 360l41 263l-89 -51l12 80l104 63h82l-57 -355h-93z" />
    <glyph glyph-name="threequarters" unicode="&#xbe;" horiz-adv-x="762" 
d="M198 354c-78 0 -142 32 -143 120h85c1 -32 18 -54 56 -54c27 0 56 15 56 51c0 28 -18 41 -51 41h-25l8 58h30c33 0 54 15 54 44c0 24 -12 39 -43 39c-30 0 -52 -17 -59 -48h-82c9 72 68 115 147 115c64 0 125 -24 125 -95c0 -41 -27 -71 -70 -84c33 -7 59 -31 59 -76
c0 -73 -69 -111 -147 -111zM78 0l603 715h79l-602 -715h-80zM561 0l11 69h-178l6 34l194 252h113l-35 -222h47l-11 -64h-46l-11 -69h-90zM496 133h89l23 153z" />
    <glyph glyph-name="threesuperior" unicode="&#xb3;" horiz-adv-x="336" 
d="M195 354c-78 0 -142 32 -143 120h85c1 -32 18 -54 56 -54c27 0 56 15 56 51c0 28 -18 41 -51 41h-25l8 58h30c33 0 54 15 54 44c0 24 -12 39 -43 39c-30 0 -52 -17 -59 -48h-82c9 72 68 115 147 115c64 0 125 -24 125 -95c0 -41 -27 -71 -70 -84c33 -7 59 -31 59 -76
c0 -73 -69 -111 -147 -111z" />
    <glyph glyph-name="twosuperior" unicode="&#xb2;" horiz-adv-x="313" 
d="M21 360l2 14l149 131c44 39 77 70 77 106c0 26 -17 39 -39 39c-28 0 -49 -18 -59 -61h-86c13 85 73 131 151 131c65 0 125 -29 125 -103c0 -54 -36 -88 -100 -142l-54 -47h126l-10 -68h-282z" />
    <glyph glyph-name="brokenbar" unicode="&#xa6;" horiz-adv-x="259" 
d="M99 -148v447h90v-447h-90zM99 369v407h90v-407h-90z" />
    <glyph glyph-name="minus" unicode="&#x2212;" horiz-adv-x="540" 
d="M40 293l16 96h467l-16 -96h-467z" />
    <glyph glyph-name="multiply" unicode="&#xd7;" horiz-adv-x="509" 
d="M84 115l-59 68l173 153l-132 153l72 66l133 -154l173 153l60 -68l-174 -154l133 -153l-73 -65l-133 153z" />
    <glyph glyph-name="space" unicode=" " horiz-adv-x="238" 
 />
    <glyph glyph-name="exclam" unicode="!" horiz-adv-x="305" 
d="M96 215l61 500h135l-99 -500h-97zM124 -7c-45 0 -79 34 -79 77c0 44 34 78 79 78c44 0 80 -34 80 -77c0 -44 -36 -78 -80 -78z" />
    <glyph glyph-name="quotedbl" unicode="&#x22;" horiz-adv-x="409" 
d="M102 458l21 257h121l-56 -257h-86zM284 458l22 257h121l-57 -257h-86z" />
    <glyph glyph-name="numbersign" unicode="#" horiz-adv-x="529" 
d="M253 99l39 167h-83l-39 -167h-89l39 167h-83l16 98h90l26 110h-84l14 95h93l35 146h88l-34 -146h83l35 146h89l-35 -146h84l-14 -95h-93l-26 -110h87l-16 -98h-94l-39 -167h-89zM258 474l-26 -110h83l26 110h-83z" />
    <glyph glyph-name="dollar" unicode="$" horiz-adv-x="627" 
d="M307 -10h-3l-20 -125h-66l20 130c-132 21 -212 106 -213 226h123c2 -60 34 -112 106 -129l36 226c-129 36 -195 87 -195 194c0 122 109 210 259 212l14 89h66l-15 -94c110 -16 187 -80 192 -200h-119c-5 61 -39 92 -88 104l-33 -210c132 -38 205 -86 205 -195
c0 -139 -107 -228 -269 -228zM453 202c0 47 -23 73 -100 98l-34 -214c87 3 134 46 134 116zM215 525c0 -43 19 -68 93 -93l31 197c-79 -3 -124 -46 -124 -104z" />
    <glyph glyph-name="percent" unicode="%" horiz-adv-x="801" 
d="M165 532c0 -39 16 -77 70 -77c52 1 82 49 82 109c0 39 -17 79 -68 79c-57 0 -84 -51 -84 -111zM232 375c-95 0 -165 64 -165 158c0 102 79 189 186 189c95 0 162 -66 162 -160c0 -100 -78 -187 -183 -187zM96 0l558 715h87l-558 -715h-87zM518 147c0 -39 16 -77 70 -77
c52 1 82 49 82 109c0 38 -17 79 -68 79c-57 0 -84 -51 -84 -111zM585 -10c-95 0 -165 64 -165 158c0 101 79 189 186 189c95 0 162 -66 162 -160c0 -100 -78 -187 -183 -187z" />
    <glyph glyph-name="ampersand" unicode="&#x26;" horiz-adv-x="712" 
d="M638 0h-144l-49 73c-45 -43 -113 -80 -197 -81c-107 0 -218 49 -218 189c0 121 90 187 196 228c-25 41 -39 86 -39 125c0 117 91 187 202 187c91 0 175 -51 175 -151c0 -104 -83 -153 -173 -191l100 -153l93 144h112l-150 -229zM159 193c0 -65 42 -103 109 -103
c45 0 92 22 127 59l-124 187c-58 -24 -112 -61 -112 -143zM386 632c-47 0 -81 -34 -81 -91c0 -29 14 -60 38 -97c54 23 111 50 111 119c0 36 -22 69 -68 69z" />
    <glyph glyph-name="quotesingle" unicode="'" horiz-adv-x="229" 
d="M102 458l21 257h124l-56 -257h-89z" />
    <glyph glyph-name="parenleft" unicode="(" horiz-adv-x="335" 
d="M149 -148c-60 89 -105 205 -105 353c0 232 99 423 248 569h113c-147 -163 -242 -340 -242 -574c0 -135 34 -251 89 -348h-103z" />
    <glyph glyph-name="parenright" unicode=")" horiz-adv-x="335" 
d="M200 776c60 -89 105 -205 105 -353c0 -232 -98 -423 -248 -569h-113c147 163 242 340 242 574c0 135 -34 251 -89 348h103z" />
    <glyph glyph-name="asterisk" unicode="*" horiz-adv-x="429" 
d="M170 400l-68 59l100 96l-117 30l42 87l106 -56l7 127h100l-34 -131l122 42l13 -90l-125 -15l70 -107l-85 -50l-49 121z" />
    <glyph glyph-name="plus" unicode="+" horiz-adv-x="539" 
d="M192 96l31 198h-183l15 94h183l31 198h101l-31 -198h182l-15 -94h-182l-31 -198h-101z" />
    <glyph glyph-name="comma" unicode="," horiz-adv-x="292" 
d="M55 -123l-69 34l113 236l108 -46z" />
    <glyph glyph-name="hyphen" unicode="-" horiz-adv-x="353" 
d="M50 229l16 100h240l-16 -100h-240z" />
    <glyph glyph-name="period" unicode="." horiz-adv-x="289" 
d="M113 -7c-45 0 -79 34 -79 78s33 79 78 79s81 -35 81 -79s-35 -78 -80 -78z" />
    <glyph glyph-name="slash" unicode="/" horiz-adv-x="415" 
d="M-69 -148l440 924h105l-441 -924h-104z" />
    <glyph glyph-name="zero" unicode="0" horiz-adv-x="701" 
d="M330 -10c-180 0 -271 117 -272 281c0 28 2 58 7 86l5 34c34 209 160 334 334 334c176 0 267 -119 267 -285c0 -26 -2 -56 -7 -84l-5 -34c-33 -207 -152 -332 -329 -332zM336 96c104 0 166 82 191 237l5 33c4 25 7 53 7 78c0 90 -31 177 -140 177
c-102 0 -171 -84 -196 -237l-5 -34c-4 -26 -8 -55 -8 -82c0 -87 31 -172 146 -172z" />
    <glyph glyph-name="one" unicode="1" horiz-adv-x="419" 
d="M141 0l92 582l-167 -104l19 120l184 117h119l-113 -715h-134z" />
    <glyph glyph-name="two" unicode="2" horiz-adv-x="578" 
d="M-35 0l4 24l323 283c71 62 137 131 137 216c0 53 -32 98 -96 98c-67 1 -120 -34 -145 -142h-123c24 167 134 246 278 246c123 0 220 -69 220 -195c0 -116 -81 -196 -177 -277l-178 -150h297l-15 -103h-525z" />
    <glyph glyph-name="three" unicode="3" horiz-adv-x="623" 
d="M288 -10c-159 0 -262 83 -262 231h123c1 -73 39 -131 138 -131c87 0 141 43 141 132c0 61 -36 101 -118 101h-47l15 95h63c67 0 119 32 119 111c1 61 -39 95 -102 95c-74 0 -127 -40 -145 -118h-118c19 131 125 219 271 219c112 0 223 -54 223 -184
c0 -82 -50 -147 -137 -171c70 -21 111 -75 111 -150c0 -148 -122 -230 -275 -230z" />
    <glyph glyph-name="four" unicode="4" horiz-adv-x="641" 
d="M343 0l22 145h-353l8 47l398 523h167l-75 -471h97l-17 -99h-96l-22 -145h-129zM172 244h211l57 363z" />
    <glyph glyph-name="five" unicode="5" horiz-adv-x="604" 
d="M271 -10c-135 0 -242 68 -245 215h126c4 -68 39 -112 120 -112c91 0 145 64 146 165c0 72 -41 121 -123 121c-68 0 -113 -27 -148 -62h-66l68 398h433l-17 -105h-331l-31 -190c32 30 82 56 150 56c120 0 201 -79 200 -208c0 -163 -112 -278 -282 -278z" />
    <glyph glyph-name="six" unicode="6" horiz-adv-x="641" 
d="M313 -10c-165 0 -259 90 -258 259c0 30 3 62 8 95l5 29c29 181 130 352 332 352c129 0 215 -64 221 -189h-125c-5 52 -31 86 -101 86c-119 0 -172 -117 -195 -242c40 52 99 86 178 86c117 0 213 -78 213 -207c0 -158 -117 -269 -278 -269zM186 216
c0 -69 40 -128 128 -128c87 0 144 72 144 164c0 65 -38 122 -124 122c-85 0 -148 -69 -148 -158z" />
    <glyph glyph-name="seven" unicode="7" horiz-adv-x="545" 
d="M78 0l330 607h-328l17 108h500l-3 -16l-378 -699h-138z" />
    <glyph glyph-name="eight" unicode="8" horiz-adv-x="627" 
d="M296 -10c-130 0 -258 64 -258 197c0 105 67 174 163 203c-53 25 -86 75 -86 132c0 126 116 203 251 203c110 0 228 -61 228 -183c0 -86 -52 -137 -130 -163c69 -28 110 -89 110 -160c0 -150 -124 -229 -278 -229zM173 205c0 -71 55 -115 129 -115c82 0 140 48 140 134
c0 69 -53 112 -123 112c-82 0 -146 -45 -146 -131zM241 519c0 -54 43 -96 110 -96c59 0 116 32 116 108c0 56 -43 98 -107 98c-63 0 -119 -36 -119 -110z" />
    <glyph glyph-name="nine" unicode="9" horiz-adv-x="642" 
d="M273 -9c-125 0 -228 56 -237 195h126c10 -69 51 -92 118 -92c97 0 160 80 187 237c-38 -50 -98 -82 -177 -82c-112 0 -213 69 -213 205c0 160 119 272 283 272c161 0 251 -94 252 -259c0 -30 -2 -62 -8 -96l-5 -36c-38 -232 -149 -344 -326 -344zM209 463
c0 -71 39 -121 113 -121c88 0 159 53 159 157c0 67 -36 128 -124 128c-87 0 -148 -68 -148 -164z" />
    <glyph glyph-name="colon" unicode=":" horiz-adv-x="297" 
d="M116 -7c-44 0 -79 34 -79 78s34 79 78 79c45 0 81 -35 81 -79s-35 -78 -80 -78zM163 285c-44 0 -79 35 -79 79s34 78 78 78c45 0 82 -34 82 -78s-36 -79 -81 -79z" />
    <glyph glyph-name="semicolon" unicode=";" horiz-adv-x="303" 
d="M44 -123l-69 34l113 236l108 -46zM177 285c-44 0 -79 35 -79 79s34 78 78 78c45 0 81 -34 81 -78s-35 -79 -80 -79z" />
    <glyph glyph-name="less" unicode="&#x3c;" horiz-adv-x="507" 
d="M418 81l-363 233l4 26l435 223l-18 -115l-255 -125l214 -134z" />
    <glyph glyph-name="equal" unicode="=" horiz-adv-x="513" 
d="M27 185l14 91h433l-14 -91h-433zM56 371l14 92h433l-14 -92h-433z" />
    <glyph glyph-name="greater" unicode="&#x3e;" horiz-adv-x="507" 
d="M106 564l363 -233l-4 -26l-434 -224l17 117l256 125l-215 134z" />
    <glyph glyph-name="question" unicode="?" horiz-adv-x="515" 
d="M166 215l6 39c14 90 78 136 132 177c49 36 85 64 85 120c0 46 -31 74 -86 74c-59 0 -105 -38 -118 -113h-117c18 139 115 213 242 212c137 0 206 -76 206 -167c0 -93 -57 -139 -119 -184c-50 -37 -106 -68 -116 -132l-4 -26h-111zM203 -7c-45 0 -79 34 -79 77
c0 44 34 79 79 79c44 0 80 -35 80 -78c0 -44 -36 -78 -80 -78z" />
    <glyph glyph-name="at" unicode="@" horiz-adv-x="916" 
d="M685 460l-41 -260c-7 -50 8 -74 45 -74c56 0 118 57 118 197c0 178 -123 299 -328 299c-203 0 -357 -147 -357 -365c0 -185 116 -341 343 -341c111 0 186 33 244 84h82c-56 -90 -180 -151 -328 -151c-268 0 -421 189 -421 408c0 252 203 432 437 432
c238 0 403 -154 403 -365c0 -192 -113 -263 -205 -263c-79 0 -116 34 -127 84c-27 -52 -74 -89 -144 -89c-95 0 -158 64 -158 173c0 139 89 239 204 239c68 0 102 -31 115 -65l9 57h109zM437 141c58 0 113 61 113 152c0 58 -33 89 -82 89c-61 0 -110 -56 -109 -151
c0 -58 32 -90 78 -90z" />
    <glyph glyph-name="A" unicode="A" horiz-adv-x="685" 
d="M490 0l-29 177h-273l-84 -177h-128l352 715h174l123 -715h-135zM393 606l-159 -332h212z" />
    <glyph glyph-name="B" unicode="B" horiz-adv-x="645" 
d="M40 0l113 715h237c145 0 218 -59 217 -170c0 -91 -48 -149 -137 -174c77 -18 122 -68 123 -154c0 -132 -103 -217 -261 -217h-292zM184 95h136c96 0 143 53 143 128c0 66 -37 101 -130 101h-112zM235 414h111c92 0 136 41 136 118c0 61 -33 88 -109 88h-105z" />
    <glyph glyph-name="C" unicode="C" horiz-adv-x="741" 
d="M389 -10c-203 0 -330 117 -330 313c0 239 154 423 387 423c161 0 276 -84 285 -250h-130c-14 94 -61 145 -159 145c-156 0 -244 -141 -244 -314c-1 -130 61 -211 192 -211c98 0 164 59 192 153h130c-34 -164 -163 -259 -323 -259z" />
    <glyph glyph-name="D" unicode="D" horiz-adv-x="718" 
d="M40 0l113 715h196c239 0 345 -124 346 -305c0 -240 -153 -410 -414 -410h-241zM190 105h89c177 0 278 112 278 301c0 122 -61 205 -212 205h-75z" />
    <glyph glyph-name="E" unicode="E" horiz-adv-x="588" 
d="M40 0l113 715h444l-17 -105h-311l-31 -196h252l-15 -100h-252l-34 -209h332l-17 -105h-464z" />
    <glyph glyph-name="F" unicode="F" horiz-adv-x="566" 
d="M40 0l113 715h443l-17 -106h-310l-33 -213h243l-16 -103h-244l-46 -293h-133z" />
    <glyph glyph-name="G" unicode="G" horiz-adv-x="777" 
d="M397 -10c-212 0 -337 129 -337 321c0 230 161 414 386 413c154 0 285 -73 295 -239h-133c-8 91 -72 134 -167 134c-153 0 -243 -140 -243 -307c0 -133 67 -218 202 -218c122 0 184 76 202 180h-180l16 100h311c-19 -263 -141 -384 -352 -384z" />
    <glyph glyph-name="H" unicode="H" horiz-adv-x="751" 
d="M40 0l113 715h133l-48 -304h320l49 304h134l-113 -715h-134l48 304h-321l-48 -304h-133z" />
    <glyph glyph-name="I" unicode="I" horiz-adv-x="308" 
d="M44 0l113 715h134l-113 -715h-134z" />
    <glyph glyph-name="J" unicode="J" horiz-adv-x="443" 
d="M126 -9c-73 0 -108 16 -130 28l16 102c25 -11 54 -23 98 -23c64 0 104 32 116 111l80 506h134l-82 -514c-23 -146 -111 -210 -232 -210z" />
    <glyph glyph-name="K" unicode="K" horiz-adv-x="659" 
d="M40 0l113 715h133l-51 -320l325 320h148l-354 -344l249 -371h-146l-230 344l-54 -344h-133z" />
    <glyph glyph-name="L" unicode="L" horiz-adv-x="551" 
d="M40 0l113 715h133l-96 -609h305l-17 -106h-438z" />
    <glyph glyph-name="M" unicode="M" horiz-adv-x="889" 
d="M40 0l113 715h173l111 -487l261 487h181l-113 -715h-133l85 541l-298 -541h-43l-131 541l-86 -541h-120z" />
    <glyph glyph-name="N" unicode="N" horiz-adv-x="745" 
d="M40 0l113 715h159l218 -517l82 517h122l-113 -715h-138l-235 548l-86 -548h-122z" />
    <glyph glyph-name="O" unicode="O" horiz-adv-x="814" 
d="M785 405c0 -242 -167 -415 -392 -415c-195 0 -334 127 -334 318c0 236 167 417 393 417c203 0 333 -134 333 -320zM647 402c0 120 -67 216 -198 217c-158 0 -252 -144 -252 -308c0 -132 80 -215 202 -215c152 0 248 136 248 306z" />
    <glyph glyph-name="P" unicode="P" horiz-adv-x="609" 
d="M40 0l113 715h222c146 0 237 -68 237 -193c0 -176 -128 -250 -283 -250h-113l-43 -272h-133zM231 368h98c102 0 154 52 154 144c0 69 -40 101 -123 101h-90z" />
    <glyph glyph-name="Q" unicode="Q" horiz-adv-x="814" 
d="M393 -11c-195 0 -334 127 -334 318c0 236 167 416 393 416c203 0 333 -133 333 -319c0 -140 -56 -257 -147 -330l75 -88l-87 -76l-89 105c-44 -17 -93 -26 -144 -26zM399 93c23 0 44 3 64 9l-61 73l87 76l74 -88c53 56 84 141 84 238c0 119 -67 217 -198 217
c-158 0 -252 -144 -252 -308c0 -131 80 -217 202 -217z" />
    <glyph glyph-name="R" unicode="R" horiz-adv-x="655" 
d="M40 0l113 715h235c144 0 237 -67 235 -190c0 -126 -82 -197 -189 -216l160 -309h-139l-149 289h-88l-45 -289h-133zM233 384h110c98 0 149 42 149 131c1 67 -41 97 -118 97h-104z" />
    <glyph glyph-name="S" unicode="S" horiz-adv-x="635" 
d="M306 -10c-186 0 -280 101 -280 232h128c3 -68 45 -132 157 -132c89 -1 138 43 138 114c0 53 -30 79 -133 107c-150 38 -219 86 -219 200c0 118 98 213 258 213c151 0 246 -70 247 -207h-122c-7 79 -57 107 -132 107c-84 0 -123 -43 -123 -101c0 -47 28 -70 134 -99
c149 -40 221 -89 221 -203c0 -134 -101 -231 -274 -231z" />
    <glyph glyph-name="T" unicode="T" horiz-adv-x="583" 
d="M182 0l96 610h-199l17 105h532l-18 -105h-198l-96 -610h-134z" />
    <glyph glyph-name="U" unicode="U" horiz-adv-x="723" 
d="M342 -10c-194 0 -295 102 -262 303l67 422h134l-68 -425c-22 -137 23 -193 133 -193c97 0 147 51 167 175l71 443h134l-73 -457c-27 -171 -121 -268 -303 -268z" />
    <glyph glyph-name="V" unicode="V" horiz-adv-x="669" 
d="M214 0l-127 715h135l95 -580l278 580h129l-355 -715h-155z" />
    <glyph glyph-name="W" unicode="W" horiz-adv-x="928" 
d="M155 0l-68 715h135l41 -532l221 532h102l63 -535l209 535h124l-291 -715h-128l-60 512l-219 -512h-129z" />
    <glyph glyph-name="X" unicode="X" horiz-adv-x="653" 
d="M-22 0l286 374l-157 341h141l115 -257l188 257h138l-263 -352l168 -363h-144l-125 281l-208 -281h-139z" />
    <glyph glyph-name="Y" unicode="Y" horiz-adv-x="626" 
d="M209 0l49 310l-172 405h140l118 -295l202 295h135l-290 -414l-48 -301h-134z" />
    <glyph glyph-name="Z" unicode="Z" horiz-adv-x="607" 
d="M-20 0l2 18l456 594h-325l16 103h517l-2 -17l-450 -593h344l-16 -105h-542z" />
    <glyph glyph-name="bracketleft" unicode="[" horiz-adv-x="377" 
d="M13 -148l146 924h256l-14 -91h-135l-116 -742h134l-15 -91h-256z" />
    <glyph glyph-name="backslash" unicode="\" horiz-adv-x="415" 
d="M259 -148l-164 924h99l164 -924h-99z" />
    <glyph glyph-name="bracketright" unicode="]" horiz-adv-x="419" 
d="M-24 -148l15 91h134l117 742h-134l14 91h256l-146 -924h-256z" />
    <glyph glyph-name="asciicircum" unicode="^" horiz-adv-x="516" 
d="M57 402l213 313h113l119 -313h-108l-82 213l-143 -213h-112z" />
    <glyph glyph-name="underscore" unicode="_" horiz-adv-x="410" 
d="M-68 -159l12 74h411l-12 -74h-411z" />
    <glyph glyph-name="grave" unicode="`" horiz-adv-x="400" 
d="M218 601l-89 155h132l44 -155h-87z" />
    <glyph glyph-name="a" unicode="a" horiz-adv-x="554" 
d="M188 -10c-103 0 -168 57 -168 147c0 132 112 174 262 174h92l4 28c11 68 -10 104 -83 104c-60 0 -94 -29 -106 -82h-116c25 126 124 173 227 173c137 0 219 -61 196 -208l-26 -167c-11 -68 -14 -115 -9 -159h-115c-4 26 -4 54 -2 76c-35 -53 -88 -86 -156 -86zM222 77
c67 0 121 38 132 111l7 47h-76c-99 0 -145 -23 -145 -88c0 -39 26 -70 82 -70z" />
    <glyph glyph-name="b" unicode="b" horiz-adv-x="633" 
d="M342 -10c-98 0 -154 50 -177 102l-14 -92h-122l122 765h120l-51 -326c35 56 100 95 178 95c116 0 201 -85 201 -228c0 -181 -101 -316 -257 -316zM319 84c97 0 154 90 154 213c0 92 -44 143 -117 143c-97 0 -171 -84 -171 -215c0 -88 50 -141 134 -141z" />
    <glyph glyph-name="c" unicode="c" horiz-adv-x="564" 
d="M286 -9c-156 0 -253 92 -253 238c0 191 126 304 280 304c123 0 219 -60 225 -196h-114c-8 76 -51 100 -115 100c-93 0 -154 -80 -154 -208c0 -93 44 -146 134 -146c64 0 117 39 130 111h110c-20 -130 -114 -203 -243 -203z" />
    <glyph glyph-name="d" unicode="d" horiz-adv-x="629" 
d="M243 -10c-123 0 -210 85 -210 230c0 180 106 314 267 314c92 0 143 -45 167 -97l52 328h121l-95 -606c-11 -70 -14 -116 -11 -159h-118c-2 27 -1 59 2 89c-38 -62 -97 -99 -175 -99zM280 84c95 0 167 77 167 217c0 87 -52 139 -128 139c-100 0 -160 -89 -160 -213
c0 -89 44 -143 121 -143z" />
    <glyph glyph-name="e" unicode="e" horiz-adv-x="570" 
d="M153 213c0 -81 37 -133 126 -133c65 0 107 28 124 80h117c-30 -113 -126 -170 -245 -170c-146 0 -243 86 -243 229c0 186 122 314 283 314c153 0 248 -96 220 -276l-4 -22h-378v-22zM312 446c-63 0 -123 -37 -147 -130h257c7 86 -28 130 -110 130z" />
    <glyph glyph-name="f" unicode="f" horiz-adv-x="354" 
d="M44 432l14 91h71l14 88c18 109 93 160 190 160c40 0 60 -5 78 -13l-14 -92c-14 6 -30 10 -52 10c-49 0 -74 -28 -82 -73l-13 -80h120l-15 -91h-119l-69 -432h-120l68 432h-71z" />
    <glyph glyph-name="g" unicode="g" horiz-adv-x="630" 
d="M281 114c92 0 166 76 166 196c0 81 -53 130 -129 130c-98 0 -155 -90 -155 -189c0 -81 40 -137 118 -137zM601 523l-78 -495c-23 -147 -110 -220 -270 -220c-178 0 -241 87 -249 174h121c8 -45 44 -82 125 -82c98 0 139 49 153 133l12 74c-38 -55 -92 -85 -167 -85
c-123 0 -210 85 -210 222c0 162 109 290 260 290c92 0 144 -45 169 -97l14 86h120z" />
    <glyph glyph-name="h" unicode="h" horiz-adv-x="604" 
d="M30 0l121 765h120l-52 -331c33 53 90 100 175 100c105 0 176 -62 151 -220l-50 -314h-121l50 320c13 77 -14 114 -77 114c-75 0 -136 -49 -149 -136l-47 -298h-121z" />
    <glyph glyph-name="i" unicode="i" horiz-adv-x="271" 
d="M198 609c-40 0 -71 30 -71 69s32 70 72 70s71 -30 71 -69s-32 -70 -72 -70zM33 0l83 523h121l-83 -523h-121z" />
    <glyph glyph-name="j" unicode="j" horiz-adv-x="271" 
d="M-68 -187l14 92c54 3 76 27 83 72l87 546h120l-88 -556c-14 -94 -70 -158 -216 -154zM198 609c-40 0 -71 30 -71 69s32 70 72 70s71 -30 71 -69s-32 -70 -72 -70z" />
    <glyph glyph-name="k" unicode="k" horiz-adv-x="536" 
d="M30 0l120 765h121l-73 -466l220 224h139l-245 -241l173 -282h-134l-159 265l-41 -265h-121z" />
    <glyph glyph-name="l" unicode="l" horiz-adv-x="271" 
d="M33 0l121 765h121l-121 -765h-121z" />
    <glyph glyph-name="m" unicode="m" horiz-adv-x="909" 
d="M30 0l57 361c11 73 14 117 16 162h116c0 -28 -1 -60 -5 -94c36 61 97 105 169 105s124 -33 140 -107c48 78 117 107 180 107c100 0 172 -61 147 -216l-50 -318h-121l50 317c13 80 -12 117 -73 117c-59 0 -119 -41 -133 -128l-48 -306h-120l50 321c12 75 -14 113 -74 113
c-62 0 -119 -45 -132 -128l-48 -306h-121z" />
    <glyph glyph-name="n" unicode="n" horiz-adv-x="604" 
d="M30 0l57 361c11 73 14 117 16 162h116c0 -28 -2 -65 -6 -98c37 61 96 109 181 109c105 0 176 -62 151 -220l-50 -314h-121l50 320c13 77 -14 114 -77 114c-75 0 -136 -49 -149 -136l-47 -298h-121z" />
    <glyph glyph-name="o" unicode="o" horiz-adv-x="599" 
d="M279 -10c-144 0 -246 91 -246 235c-1 176 122 308 287 308c144 0 247 -88 247 -234c0 -180 -119 -309 -288 -309zM282 84c103 0 161 93 161 216c0 83 -43 139 -127 139c-99 0 -161 -92 -161 -214c0 -82 39 -141 127 -141z" />
    <glyph glyph-name="p" unicode="p" horiz-adv-x="633" 
d="M398 534c116 0 201 -85 201 -228c0 -181 -100 -316 -257 -316c-98 0 -154 50 -177 102l-43 -271h-121l86 540c11 73 14 117 16 162h116c0 -27 -2 -62 -5 -94c38 65 105 105 184 105zM319 84c97 0 154 90 154 213c0 92 -44 143 -117 143c-97 0 -171 -84 -171 -215
c0 -88 50 -141 134 -141z" />
    <glyph glyph-name="q" unicode="q" horiz-adv-x="633" 
d="M370 -179l41 256c-37 -54 -90 -87 -168 -87c-123 0 -210 85 -210 230c0 180 106 314 267 314c92 0 143 -45 167 -97l14 86h121l-111 -702h-121zM280 84c95 0 167 77 167 217c0 87 -52 139 -128 139c-100 0 -160 -89 -160 -213c0 -89 44 -143 121 -143z" />
    <glyph glyph-name="r" unicode="r" horiz-adv-x="396" 
d="M30 0l57 361c11 73 14 117 15 162h116c0 -28 -2 -68 -6 -109c43 75 94 116 192 117l-18 -113c-107 -1 -176 -41 -195 -162l-40 -256h-121z" />
    <glyph glyph-name="s" unicode="s" horiz-adv-x="493" 
d="M230 -11c-141 0 -215 72 -216 174h114c4 -48 28 -84 106 -84c60 0 88 24 88 68c0 38 -23 54 -99 71c-117 27 -164 70 -164 153c0 108 94 163 203 163c112 0 193 -46 200 -158h-112c-3 42 -36 70 -91 70s-86 -23 -86 -63c0 -34 25 -50 97 -67c115 -26 171 -61 171 -159
c0 -106 -85 -168 -211 -168z" />
    <glyph glyph-name="t" unicode="t" horiz-adv-x="360" 
d="M212 -9c-110 0 -158 63 -141 168l43 273h-70l14 91h70l19 115h121l-19 -115h113l-14 -91h-113l-43 -272c-8 -53 10 -70 53 -70c18 0 39 3 57 10l-15 -96c-19 -8 -45 -13 -75 -13z" />
    <glyph glyph-name="u" unicode="u" horiz-adv-x="601" 
d="M569 523l-57 -364c-11 -70 -14 -116 -12 -159h-117c-2 28 -1 61 4 94c-38 -59 -93 -104 -176 -104c-109 0 -178 66 -153 219l50 314h121l-52 -324c-11 -73 14 -114 76 -114c75 0 134 49 148 136l47 302h121z" />
    <glyph glyph-name="v" unicode="v" horiz-adv-x="540" 
d="M157 0l-102 523h126l68 -402l195 402h123l-269 -523h-141z" />
    <glyph glyph-name="w" unicode="w" horiz-adv-x="792" 
d="M129 0l-71 523h125l39 -382l168 382h101l42 -382l162 382h121l-242 -523h-123l-39 356l-159 -356h-124z" />
    <glyph glyph-name="x" unicode="x" horiz-adv-x="529" 
d="M-32 0l222 274l-128 249h134l83 -167l132 167h131l-207 -253l141 -270h-135l-91 188l-151 -188h-131z" />
    <glyph glyph-name="y" unicode="y" horiz-adv-x="533" 
d="M45 -179l135 238l-125 464h124l81 -338l176 338h124l-391 -702h-124z" />
    <glyph glyph-name="z" unicode="z" horiz-adv-x="487" 
d="M-25 0l2 14l332 414h-241l14 95h423l-3 -17l-329 -409h260l-16 -97h-442z" />
    <glyph glyph-name="braceleft" unicode="{" horiz-adv-x="396" 
d="M288 -147c-166 6 -237 85 -187 230l31 86c21 61 0 105 -93 109l13 86c93 -2 127 33 125 102l-2 97c-3 162 82 217 260 215l-15 -89c-98 -2 -129 -32 -129 -130v-99c0 -86 -47 -129 -119 -145c71 -19 99 -73 72 -155l-28 -84c-32 -95 -6 -128 86 -134z" />
    <glyph glyph-name="bar" unicode="|" horiz-adv-x="259" 
d="M99 -148v924h90v-924h-90z" />
    <glyph glyph-name="braceright" unicode="}" horiz-adv-x="396" 
d="M122 778c167 -6 236 -85 187 -230l-30 -87c-21 -60 0 -105 92 -113l-12 -86c-94 6 -126 -26 -125 -96l2 -98c2 -162 -83 -217 -260 -215l14 89c99 2 130 32 129 130v104c0 88 49 126 120 138c-72 21 -100 78 -74 152l29 89c32 95 7 128 -86 134z" />
    <glyph glyph-name="asciitilde" unicode="~" horiz-adv-x="474" 
d="M33 220c18 109 74 155 133 155c68 0 112 -48 146 -48c23 0 45 17 51 50h86c-16 -107 -75 -156 -132 -156c-71 0 -114 49 -148 49c-24 0 -43 -18 -50 -50h-86z" />
    <glyph glyph-name="Adieresis" unicode="&#xc4;" horiz-adv-x="685" 
d="M490 0l-29 177h-273l-84 -177h-128l352 715h174l123 -715h-135zM393 606l-159 -332h212zM528 777c-36 0 -66 28 -66 64s30 66 67 66c36 0 65 -29 65 -65c0 -35 -30 -65 -66 -65zM317 777c-36 0 -66 28 -66 64s31 66 67 66s65 -29 65 -65c0 -35 -30 -65 -66 -65z" />
    <glyph glyph-name="Aring" unicode="&#xc5;" horiz-adv-x="685" 
d="M490 0l-29 177h-273l-84 -177h-128l352 715h174l123 -715h-135zM421 753c-62 0 -111 48 -111 107c0 62 52 111 113 111c62 0 111 -48 111 -108c0 -61 -52 -110 -113 -110zM393 606l-159 -332h212zM421 807c29 0 51 23 51 56c0 32 -19 54 -49 54c-29 0 -51 -23 -51 -57
c0 -31 19 -53 49 -53z" />
    <glyph glyph-name="Ccedilla" unicode="&#xc7;" horiz-adv-x="741" 
d="M306 -219c-56 0 -104 28 -109 88h67c2 -18 15 -33 39 -33c19 0 38 10 38 36c0 19 -14 30 -34 30c-13 0 -21 -4 -27 -8l-30 33l55 71c-154 28 -246 137 -246 305c0 239 154 423 387 423c161 0 276 -84 285 -250h-130c-14 94 -61 145 -159 145c-156 0 -244 -141 -244 -314
c-1 -130 61 -211 192 -211c98 0 164 59 192 153h130c-34 -164 -163 -259 -323 -259c-10 0 -14 0 -28 1l-32 -41c45 4 88 -22 88 -75c0 -62 -47 -94 -111 -94z" />
    <glyph glyph-name="Eacute" unicode="&#xc9;" horiz-adv-x="588" 
d="M322 766l67 135h138l-111 -135h-94zM40 0l113 715h444l-17 -105h-311l-31 -196h252l-15 -100h-252l-34 -209h332l-17 -105h-464z" />
    <glyph glyph-name="Ntilde" unicode="&#xd1;" horiz-adv-x="745" 
d="M526 768c-51 0 -85 39 -114 39c-18 0 -36 -15 -42 -40h-77c16 86 62 131 118 131c50 0 84 -40 115 -40c18 0 34 15 41 40h76c-16 -85 -63 -130 -117 -130zM40 0l113 715h159l218 -517l82 517h122l-113 -715h-138l-235 548l-86 -548h-122z" />
    <glyph glyph-name="Odieresis" unicode="&#xd6;" horiz-adv-x="814" 
d="M373 777c-36 0 -66 28 -66 64s31 66 67 66s65 -29 65 -65c0 -35 -30 -65 -66 -65zM584 777c-36 0 -66 28 -66 64s30 66 67 66c36 0 65 -29 65 -65c0 -35 -30 -65 -66 -65zM785 405c0 -242 -167 -415 -392 -415c-195 0 -334 127 -334 318c0 236 167 417 393 417
c203 0 333 -134 333 -320zM647 402c0 120 -67 216 -198 217c-158 0 -252 -144 -252 -308c0 -132 80 -215 202 -215c152 0 248 136 248 306z" />
    <glyph glyph-name="Udieresis" unicode="&#xdc;" horiz-adv-x="723" 
d="M342 -10c-194 0 -295 102 -262 303l67 422h134l-68 -425c-22 -137 23 -193 133 -193c97 0 147 51 167 175l71 443h134l-73 -457c-27 -171 -121 -268 -303 -268zM338 777c-36 0 -66 28 -66 64s31 66 67 66s65 -29 65 -65c0 -35 -30 -65 -66 -65zM549 777
c-36 0 -66 28 -66 64s30 66 67 66c36 0 65 -29 65 -65c0 -35 -30 -65 -66 -65z" />
    <glyph glyph-name="aacute" unicode="&#xe1;" horiz-adv-x="554" 
d="M188 -10c-103 0 -168 57 -168 147c0 132 112 174 262 174h92l4 28c11 68 -10 104 -83 104c-60 0 -94 -29 -106 -82h-116c25 126 124 173 227 173c137 0 219 -61 196 -208l-26 -167c-11 -68 -14 -115 -9 -159h-115c-4 26 -4 54 -2 76c-35 -53 -88 -86 -156 -86zM222 77
c67 0 121 38 132 111l7 47h-76c-99 0 -145 -23 -145 -88c0 -39 26 -70 82 -70zM265 601l77 155h136l-122 -155h-91z" />
    <glyph glyph-name="agrave" unicode="&#xe0;" horiz-adv-x="554" 
d="M188 -10c-103 0 -168 57 -168 147c0 132 112 174 262 174h92l4 28c11 68 -10 104 -83 104c-60 0 -94 -29 -106 -82h-116c25 126 124 173 227 173c137 0 219 -61 196 -208l-26 -167c-11 -68 -14 -115 -9 -159h-115c-4 26 -4 54 -2 76c-35 -53 -88 -86 -156 -86zM222 77
c67 0 121 38 132 111l7 47h-76c-99 0 -145 -23 -145 -88c0 -39 26 -70 82 -70zM272 601l-89 155h132l44 -155h-87z" />
    <glyph glyph-name="acircumflex" unicode="&#xe2;" horiz-adv-x="554" 
d="M188 -10c-103 0 -168 57 -168 147c0 132 112 174 262 174h92l4 28c11 68 -10 104 -83 104c-60 0 -94 -29 -106 -82h-116c25 126 124 173 227 173c137 0 219 -61 196 -208l-26 -167c-11 -68 -14 -115 -9 -159h-115c-4 26 -4 54 -2 76c-35 -53 -88 -86 -156 -86zM222 77
c67 0 121 38 132 111l7 47h-76c-99 0 -145 -23 -145 -88c0 -39 26 -70 82 -70zM149 602l135 151h95l91 -151h-83l-66 68l-85 -68h-87z" />
    <glyph glyph-name="adieresis" unicode="&#xe4;" horiz-adv-x="554" 
d="M188 -10c-103 0 -168 57 -168 147c0 132 112 174 262 174h92l4 28c11 68 -10 104 -83 104c-60 0 -94 -29 -106 -82h-116c25 126 124 173 227 173c137 0 219 -61 196 -208l-26 -167c-11 -68 -14 -115 -9 -159h-115c-4 26 -4 54 -2 76c-35 -53 -88 -86 -156 -86zM222 77
c67 0 121 38 132 111l7 47h-76c-99 0 -145 -23 -145 -88c0 -39 26 -70 82 -70zM223 613c-37 0 -66 28 -66 64s30 66 67 66c36 0 65 -29 65 -65c0 -35 -30 -65 -66 -65zM420 613c-36 0 -65 28 -65 64s30 66 66 66c37 0 65 -29 65 -65c0 -35 -29 -65 -66 -65z" />
    <glyph glyph-name="atilde" unicode="&#xe3;" horiz-adv-x="554" 
d="M188 -10c-103 0 -168 57 -168 147c0 132 112 174 262 174h92l4 28c11 68 -10 104 -83 104c-60 0 -94 -29 -106 -82h-116c25 126 124 173 227 173c137 0 219 -61 196 -208l-26 -167c-11 -68 -14 -115 -9 -159h-115c-4 26 -4 54 -2 76c-35 -53 -88 -86 -156 -86zM222 77
c67 0 121 38 132 111l7 47h-76c-99 0 -145 -23 -145 -88c0 -39 26 -70 82 -70zM382 606c-51 0 -84 40 -113 40c-18 0 -36 -16 -42 -40h-74c15 85 59 131 115 131c49 0 83 -39 114 -39c18 0 34 15 40 40h75c-15 -86 -60 -132 -115 -132z" />
    <glyph glyph-name="aring" unicode="&#xe5;" horiz-adv-x="554" 
d="M188 -10c-103 0 -168 57 -168 147c0 132 112 174 262 174h92l4 28c11 68 -10 104 -83 104c-60 0 -94 -29 -106 -82h-116c25 126 124 173 227 173c137 0 219 -61 196 -208l-26 -167c-11 -68 -14 -115 -9 -159h-115c-4 26 -4 54 -2 76c-35 -53 -88 -86 -156 -86zM222 77
c67 0 121 38 132 111l7 47h-76c-99 0 -145 -23 -145 -88c0 -39 26 -70 82 -70zM326 643c29 0 51 24 51 57c0 31 -19 53 -48 53c-30 0 -52 -23 -52 -56c0 -32 19 -54 49 -54zM326 590c-62 0 -110 47 -110 107s51 109 113 109c61 0 110 -47 110 -106c0 -61 -52 -110 -113 -110
z" />
    <glyph glyph-name="ccedilla" unicode="&#xe7;" horiz-adv-x="564" 
d="M215 -219c-56 0 -104 28 -109 88h67c2 -18 15 -33 39 -33c19 0 38 10 38 36c0 19 -14 30 -34 30c-13 0 -21 -4 -27 -8l-30 33l55 71c-113 24 -181 109 -181 231c0 191 126 304 280 304c123 0 219 -60 225 -196h-114c-8 76 -51 100 -115 100c-93 0 -154 -80 -154 -208
c0 -93 44 -146 134 -146c64 0 117 39 130 111h110c-20 -130 -114 -203 -243 -203h-16l-32 -41c45 4 88 -22 88 -75c0 -62 -47 -94 -111 -94z" />
    <glyph glyph-name="eacute" unicode="&#xe9;" horiz-adv-x="570" 
d="M153 213c0 -81 37 -133 126 -133c65 0 107 28 124 80h117c-30 -113 -126 -170 -245 -170c-146 0 -243 86 -243 229c0 186 122 314 283 314c153 0 248 -96 220 -276l-4 -22h-378v-22zM312 446c-63 0 -123 -37 -147 -130h257c7 86 -28 130 -110 130zM275 601l77 155h136
l-122 -155h-91z" />
    <glyph glyph-name="egrave" unicode="&#xe8;" horiz-adv-x="570" 
d="M153 213c0 -81 37 -133 126 -133c65 0 107 28 124 80h117c-30 -113 -126 -170 -245 -170c-146 0 -243 86 -243 229c0 186 122 314 283 314c153 0 248 -96 220 -276l-4 -22h-378v-22zM312 446c-63 0 -123 -37 -147 -130h257c7 86 -28 130 -110 130zM286 601l-89 155h132
l44 -155h-87z" />
    <glyph glyph-name="ecircumflex" unicode="&#xea;" horiz-adv-x="570" 
d="M153 213c0 -81 37 -133 126 -133c65 0 107 28 124 80h117c-30 -113 -126 -170 -245 -170c-146 0 -243 86 -243 229c0 186 122 314 283 314c153 0 248 -96 220 -276l-4 -22h-378v-22zM312 446c-63 0 -123 -37 -147 -130h257c7 86 -28 130 -110 130zM160 602l135 151h95
l91 -151h-83l-66 68l-85 -68h-87z" />
    <glyph glyph-name="edieresis" unicode="&#xeb;" horiz-adv-x="570" 
d="M153 213c0 -81 37 -133 126 -133c65 0 107 28 124 80h117c-30 -113 -126 -170 -245 -170c-146 0 -243 86 -243 229c0 186 122 314 283 314c153 0 248 -96 220 -276l-4 -22h-378v-22zM312 446c-63 0 -123 -37 -147 -130h257c7 86 -28 130 -110 130zM239 613
c-37 0 -66 28 -66 64s30 66 67 66c36 0 65 -29 65 -65c0 -35 -30 -65 -66 -65zM436 613c-36 0 -65 28 -65 64s30 66 66 66c37 0 65 -29 65 -65c0 -35 -29 -65 -66 -65z" />
    <glyph glyph-name="iacute" unicode="&#xed;" horiz-adv-x="271" 
d="M135 601l77 155h136l-122 -155h-91zM33 0l83 523h121l-83 -523h-121z" />
    <glyph glyph-name="igrave" unicode="&#xec;" horiz-adv-x="271" 
d="M33 0l83 523h121l-83 -523h-121zM148 601l-89 155h132l44 -155h-87z" />
    <glyph glyph-name="icircumflex" unicode="&#xee;" horiz-adv-x="271" 
d="M22 602l135 151h95l91 -151h-83l-66 68l-85 -68h-87zM33 0l83 523h121l-83 -523h-121z" />
    <glyph glyph-name="idieresis" unicode="&#xef;" horiz-adv-x="271" 
d="M106 613c-36 0 -66 28 -66 64s30 66 67 66c36 0 65 -29 65 -65c0 -35 -30 -65 -66 -65zM296 613c-36 0 -65 28 -65 64s29 66 66 66c36 0 65 -29 65 -65c0 -35 -29 -65 -66 -65zM33 0l83 523h121l-83 -523h-121z" />
    <glyph glyph-name="ntilde" unicode="&#xf1;" horiz-adv-x="604" 
d="M30 0l57 361c11 73 14 117 16 162h116c0 -28 -2 -65 -6 -98c37 61 96 109 181 109c105 0 176 -62 151 -220l-50 -314h-121l50 320c13 77 -14 114 -77 114c-75 0 -136 -49 -149 -136l-47 -298h-121zM413 606c-51 0 -84 40 -113 40c-18 0 -36 -16 -42 -40h-74
c15 85 59 131 115 131c49 0 83 -39 114 -39c18 0 34 15 40 40h75c-15 -86 -60 -132 -115 -132z" />
    <glyph glyph-name="oacute" unicode="&#xf3;" horiz-adv-x="599" 
d="M282 601l77 155h136l-122 -155h-91zM279 -10c-144 0 -246 91 -246 235c-1 176 122 308 287 308c144 0 247 -88 247 -234c0 -180 -119 -309 -288 -309zM282 84c103 0 161 93 161 216c0 83 -43 139 -127 139c-99 0 -161 -92 -161 -214c0 -82 39 -141 127 -141z" />
    <glyph glyph-name="ograve" unicode="&#xf2;" horiz-adv-x="599" 
d="M279 -10c-144 0 -246 91 -246 235c-1 176 122 308 287 308c144 0 247 -88 247 -234c0 -180 -119 -309 -288 -309zM282 84c103 0 161 93 161 216c0 83 -43 139 -127 139c-99 0 -161 -92 -161 -214c0 -82 39 -141 127 -141zM295 601l-89 155h132l44 -155h-87z" />
    <glyph glyph-name="ocircumflex" unicode="&#xf4;" horiz-adv-x="599" 
d="M170 602l135 151h95l91 -151h-83l-66 68l-85 -68h-87zM279 -10c-144 0 -246 91 -246 235c-1 176 122 308 287 308c144 0 247 -88 247 -234c0 -180 -119 -309 -288 -309zM282 84c103 0 161 93 161 216c0 83 -43 139 -127 139c-99 0 -161 -92 -161 -214
c0 -82 39 -141 127 -141z" />
    <glyph glyph-name="odieresis" unicode="&#xf6;" horiz-adv-x="599" 
d="M245 613c-37 0 -66 28 -66 64s30 66 67 66c36 0 65 -29 65 -65c0 -35 -30 -65 -66 -65zM442 613c-36 0 -65 28 -65 64s30 66 66 66c37 0 65 -29 65 -65c0 -35 -29 -65 -66 -65zM279 -10c-144 0 -246 91 -246 235c-1 176 122 308 287 308c144 0 247 -88 247 -234
c0 -180 -119 -309 -288 -309zM282 84c103 0 161 93 161 216c0 83 -43 139 -127 139c-99 0 -161 -92 -161 -214c0 -82 39 -141 127 -141z" />
    <glyph glyph-name="otilde" unicode="&#xf5;" horiz-adv-x="599" 
d="M279 -10c-144 0 -246 91 -246 235c-1 176 122 308 287 308c144 0 247 -88 247 -234c0 -180 -119 -309 -288 -309zM282 84c103 0 161 93 161 216c0 83 -43 139 -127 139c-99 0 -161 -92 -161 -214c0 -82 39 -141 127 -141zM400 606c-51 0 -84 40 -113 40
c-18 0 -36 -16 -42 -40h-74c15 85 59 131 115 131c49 0 83 -39 114 -39c18 0 34 15 40 40h75c-15 -86 -60 -132 -115 -132z" />
    <glyph glyph-name="uacute" unicode="&#xfa;" horiz-adv-x="601" 
d="M294 601l77 155h136l-122 -155h-91zM569 523l-57 -364c-11 -70 -14 -116 -12 -159h-117c-2 28 -1 61 4 94c-38 -59 -93 -104 -176 -104c-109 0 -178 66 -153 219l50 314h121l-52 -324c-11 -73 14 -114 76 -114c75 0 134 49 148 136l47 302h121z" />
    <glyph glyph-name="ugrave" unicode="&#xf9;" horiz-adv-x="601" 
d="M569 523l-57 -364c-11 -70 -14 -116 -12 -159h-117c-2 28 -1 61 4 94c-38 -59 -93 -104 -176 -104c-109 0 -178 66 -153 219l50 314h121l-52 -324c-11 -73 14 -114 76 -114c75 0 134 49 148 136l47 302h121zM307 601l-89 155h132l44 -155h-87z" />
    <glyph glyph-name="ucircumflex" unicode="&#xfb;" horiz-adv-x="601" 
d="M182 602l135 151h95l91 -151h-83l-66 68l-85 -68h-87zM569 523l-57 -364c-11 -70 -14 -116 -12 -159h-117c-2 28 -1 61 4 94c-38 -59 -93 -104 -176 -104c-109 0 -178 66 -153 219l50 314h121l-52 -324c-11 -73 14 -114 76 -114c75 0 134 49 148 136l47 302h121z" />
    <glyph glyph-name="udieresis" unicode="&#xfc;" horiz-adv-x="601" 
d="M254 613c-37 0 -66 28 -66 64s30 66 67 66c36 0 65 -29 65 -65c0 -35 -30 -65 -66 -65zM451 613c-36 0 -65 28 -65 64s30 66 66 66c37 0 65 -29 65 -65c0 -35 -29 -65 -66 -65zM569 523l-57 -364c-11 -70 -14 -116 -12 -159h-117c-2 28 -1 61 4 94
c-38 -59 -93 -104 -176 -104c-109 0 -178 66 -153 219l50 314h121l-52 -324c-11 -73 14 -114 76 -114c75 0 134 49 148 136l47 302h121z" />
    <glyph glyph-name="dagger" unicode="&#x2020;" horiz-adv-x="386" 
d="M133 213l46 288h-112l14 90h112l20 124h103l-20 -124h111l-14 -90h-111l-46 -288h-103z" />
    <glyph glyph-name="degree" unicode="&#xb0;" horiz-adv-x="437" 
d="M262 459c53 0 91 41 91 103c0 56 -36 99 -88 99c-54 0 -94 -42 -94 -104c0 -55 38 -98 91 -98zM261 396c-93 0 -167 72 -167 159c0 95 75 169 173 169c92 0 165 -71 165 -161c0 -92 -75 -167 -171 -167z" />
    <glyph glyph-name="cent" unicode="&#xa2;" horiz-adv-x="575" 
d="M204 -135l20 131c-117 22 -192 106 -192 230c0 185 125 301 278 307l15 96h67l-16 -100c98 -16 167 -78 174 -192h-112c-4 58 -33 87 -77 98l-56 -355c60 4 111 35 127 113h108c-20 -135 -124 -202 -249 -203l-20 -125h-67zM152 226c0 -76 30 -122 87 -139l56 352
c-82 -11 -143 -85 -143 -213z" />
    <glyph glyph-name="sterling" unicode="&#xa3;" horiz-adv-x="620" 
d="M50 304l13 85h62c-2 26 -4 54 -4 82c0 145 93 253 259 253c134 0 226 -62 226 -209h-126c-3 64 -28 106 -103 106c-97 0 -127 -75 -127 -161c0 -25 0 -48 1 -71h201l-14 -85h-183c1 -14 1 -29 1 -45c0 -45 -8 -84 -29 -121c55 -16 107 -40 145 -40c43 0 74 20 83 75h117
c-15 -107 -77 -182 -194 -182c-90 0 -167 59 -221 59c-36 0 -55 -24 -60 -50h-103c9 62 49 127 118 145c17 30 25 64 25 106c0 16 -1 34 -3 53h-84z" />
    <glyph glyph-name="section" unicode="&#xa7;" horiz-adv-x="565" 
d="M234 -137c-107 0 -202 51 -199 171h116c1 -51 27 -81 90 -81c47 0 87 27 87 77c0 37 -27 60 -118 92c-105 36 -174 80 -174 172c0 83 60 129 135 148c-25 26 -38 55 -38 99c0 117 97 183 213 183c106 0 186 -48 189 -167h-117c-1 51 -25 76 -80 77c-49 0 -88 -23 -88 -77
c0 -38 25 -60 109 -90c105 -35 178 -80 178 -177c0 -82 -56 -122 -132 -144c25 -24 41 -61 41 -100c0 -121 -97 -183 -212 -183zM334 196c39 8 82 26 82 76c0 39 -34 63 -95 87l-82 31c-37 -5 -81 -28 -81 -77c0 -37 28 -59 93 -84z" />
    <glyph glyph-name="bullet" unicode="&#x2022;" horiz-adv-x="348" 
d="M175 177c-71 0 -123 55 -123 121c0 77 57 135 133 135c71 0 123 -56 123 -123c0 -75 -55 -133 -133 -133z" />
    <glyph glyph-name="paragraph" unicode="&#xb6;" horiz-adv-x="573" 
d="M210 -100l69 439h-3c-116 0 -199 57 -199 166c0 139 107 210 240 210h243l-129 -815h-72l120 755h-79l-119 -755h-71z" />
    <glyph glyph-name="germandbls" unicode="&#xdf;" horiz-adv-x="609" 
d="M329 -9c-48 0 -83 9 -111 22l16 92c23 -12 49 -19 81 -19c86 0 130 65 130 154c0 91 -56 144 -152 143l15 95c78 0 145 32 145 118c0 57 -37 90 -97 90c-64 0 -104 -43 -115 -117l-90 -569h-121l90 570c21 134 117 203 240 203c113 0 207 -59 207 -175
c0 -84 -57 -143 -142 -168c87 -27 143 -99 143 -198c0 -146 -90 -241 -239 -241z" />
    <glyph glyph-name="registered" unicode="&#xae;" horiz-adv-x="515" 
d="M213 396v219h82c54 0 86 -22 86 -68v-1c0 -32 -17 -50 -41 -59l54 -91h-58l-48 81h-19v-81h-56zM269 515h23c23 0 34 9 34 28v1c0 21 -12 28 -34 28h-23v-57zM292 319c104 0 184 75 184 184s-77 184 -184 184c-106 0 -183 -76 -183 -185c0 -110 81 -183 183 -183z
M292 281c-124 0 -225 96 -225 221c0 123 100 223 225 223c128 0 225 -99 225 -222c0 -125 -99 -222 -225 -222z" />
    <glyph glyph-name="copyright" unicode="&#xa9;" horiz-adv-x="843" 
d="M437 153c-130 0 -200 79 -200 200v8c0 121 84 201 198 201c96 0 168 -47 177 -146h-97c-6 46 -32 70 -80 70c-61 0 -99 -44 -99 -125v-7c0 -80 36 -124 100 -124c47 0 81 23 88 74h92c-9 -100 -81 -151 -179 -151zM432 32c173 0 321 133 321 327c0 191 -143 324 -319 324
c-177 0 -321 -134 -321 -326c0 -194 149 -325 319 -325zM432 -13c-206 0 -372 160 -372 370c0 207 165 371 374 371c212 0 373 -163 373 -369c0 -211 -165 -372 -375 -372z" />
    <glyph glyph-name="trademark" unicode="&#x2122;" horiz-adv-x="733" 
d="M354 393l51 322h95l46 -199l108 199h102l-51 -322h-77l35 224l-126 -224h-24l-56 224l-35 -224h-68zM137 393l41 262h-92l10 60h259l-9 -60h-92l-41 -262h-76z" />
    <glyph glyph-name="acute" unicode="&#xb4;" horiz-adv-x="400" 
d="M200 601l77 155h136l-122 -155h-91z" />
    <glyph glyph-name="dieresis" unicode="&#xa8;" horiz-adv-x="400" 
d="M166 613c-37 0 -66 28 -66 64s30 66 67 66c36 0 65 -29 65 -65c0 -35 -30 -65 -66 -65zM363 613c-36 0 -65 28 -65 64s30 66 66 66c37 0 65 -29 65 -65c0 -35 -29 -65 -66 -65z" />
    <glyph glyph-name="notequal" unicode="&#x2260;" horiz-adv-x="513" 
d="M56 371l14 92h221l51 100h91l-51 -100h121l-14 -92h-153l-48 -95h186l-14 -91h-217l-51 -101h-91l51 101h-125l14 91h156l48 95h-189z" />
    <glyph glyph-name="AE" unicode="&#xc6;" horiz-adv-x="971" 
d="M-20 0l450 715h554l-17 -105h-309l-31 -196h250l-16 -100h-249l-34 -209h329l-16 -105h-462l29 183h-231l-113 -183h-134zM491 610l-206 -332h188l52 332h-34z" />
    <glyph glyph-name="Oslash" unicode="&#xd8;" horiz-adv-x="814" 
d="M80 -33l-48 51l91 93c-41 52 -64 119 -64 197c0 236 167 416 393 416c84 0 155 -23 210 -63l79 80l48 -50l-76 -78c46 -54 72 -126 72 -208c0 -242 -167 -415 -392 -415c-88 0 -163 26 -221 71zM649 402c0 46 -9 86 -26 120l-367 -376c35 -33 84 -50 143 -50
c152 0 250 134 250 306zM195 311c0 -41 7 -77 20 -106l365 371c-33 27 -77 43 -131 43c-158 0 -254 -142 -254 -308z" />
    <glyph glyph-name="plusminus" unicode="&#xb1;" horiz-adv-x="539" 
d="M201 157l28 175h-182l14 94h183l28 176h101l-28 -176h182l-14 -94h-183l-28 -175h-101zM-5 0l13 89h467l-13 -89h-467z" />
    <glyph glyph-name="lessequal" unicode="&#x2264;" horiz-adv-x="507" 
d="M425 128l-365 217l4 26l432 209l-18 -115l-240 -111l204 -117zM7 0l13 89h399l-14 -89h-398z" />
    <glyph glyph-name="greaterequal" unicode="&#x2265;" horiz-adv-x="507" 
d="M18 0l14 89h399l-14 -89h-399zM109 580l365 -217l-4 -25l-432 -210l17 115l241 112l-204 116z" />
    <glyph glyph-name="yen" unicode="&#xa5;" horiz-adv-x="604" 
d="M79 286l9 63h149l-145 366h141l101 -288l188 288h131l-251 -366h150l-10 -63h-166l-10 -67h164l-9 -64h-165l-25 -155h-132l24 155h-166l10 64h166l11 67h-165z" />
    <glyph glyph-name="ordfeminine" unicode="&#xaa;" horiz-adv-x="444" 
d="M183 289c-78 0 -130 45 -130 115c0 106 91 141 218 141h62l4 21c7 50 -7 77 -61 77c-44 0 -68 -21 -77 -59h-105c19 101 101 140 189 140c116 0 179 -50 159 -173l-19 -125c-9 -54 -10 -93 -6 -128h-105c-3 20 -3 37 -2 54c-29 -40 -71 -63 -127 -63zM219 367
c52 0 90 24 99 78l6 36h-57c-73 0 -106 -19 -106 -65c0 -29 20 -49 58 -49z" />
    <glyph glyph-name="ordmasculine" unicode="&#xba;" horiz-adv-x="504" 
d="M268 289c-122 0 -197 75 -197 186c0 145 106 249 237 249c125 0 197 -77 197 -188c0 -146 -104 -247 -237 -247zM275 373c76 0 119 72 119 163c0 64 -30 103 -93 103c-73 0 -119 -70 -119 -164c0 -63 30 -102 93 -102z" />
    <glyph glyph-name="ae" unicode="&#xe6;" horiz-adv-x="887" 
d="M480 213c0 -81 33 -133 122 -133c65 0 103 28 120 80h115c-29 -113 -119 -170 -239 -170c-99 0 -169 39 -203 110c-36 -65 -99 -110 -197 -110c-111 0 -178 54 -178 145c0 132 116 179 266 179h89l4 26c11 67 -11 103 -84 103c-61 0 -96 -29 -107 -82h-117
c24 127 128 173 229 173c80 0 137 -23 163 -74c47 46 109 73 177 73c152 0 241 -94 213 -276l-4 -20h-369v-24zM221 77c68 0 122 37 134 112l7 47h-77c-98 0 -145 -25 -145 -91c0 -39 26 -68 81 -68zM635 446c-63 0 -121 -38 -144 -132h249c7 86 -24 132 -105 132z" />
    <glyph glyph-name="oslash" unicode="&#xf8;" horiz-adv-x="599" 
d="M55 -38l-44 42l70 73c-31 39 -49 90 -49 149c0 176 123 307 288 307c59 0 111 -15 153 -44l66 70l44 -42l-66 -69c32 -38 50 -90 50 -150c0 -179 -119 -308 -289 -308c-59 0 -112 16 -153 45zM282 83c104 0 163 93 163 216c0 23 -3 45 -9 63l-241 -253
c20 -17 49 -26 87 -26zM153 226c0 -24 3 -45 9 -64l239 252c-20 17 -49 26 -85 26c-100 0 -163 -91 -163 -214z" />
    <glyph glyph-name="questiondown" unicode="&#xbf;" horiz-adv-x="515" 
d="M357 383l-6 -39c-14 -90 -78 -136 -132 -177c-49 -36 -85 -64 -85 -120c0 -46 31 -74 86 -74c59 0 105 38 118 113h117c-18 -139 -115 -213 -242 -212c-137 0 -206 76 -206 167c0 93 57 139 119 184c50 37 106 68 116 132l4 26h111zM320 605c45 0 79 -34 79 -77
c0 -44 -34 -79 -79 -79c-44 0 -80 35 -80 78c0 44 36 78 80 78z" />
    <glyph glyph-name="exclamdown" unicode="&#xa1;" horiz-adv-x="306" 
d="M220 383l-61 -500h-135l99 500h97zM191 605c45 0 79 -34 79 -77c0 -44 -34 -79 -79 -79c-44 0 -80 35 -80 78c0 44 36 78 80 78z" />
    <glyph glyph-name="florin" unicode="&#x192;" horiz-adv-x="417" 
d="M36 324l14 90h92l27 141c21 115 95 169 195 169c40 0 61 -6 79 -14l-14 -92c-16 6 -31 10 -59 10c-46 0 -73 -29 -83 -83l-25 -131h126l-14 -90h-129l-94 -506h-120l94 506h-89z" />
    <glyph glyph-name="approxequal" unicode="&#x2248;" horiz-adv-x="530" 
d="M59 342c15 100 71 143 132 143c75 0 147 -43 199 -43c22 0 44 15 49 45h79c-13 -97 -70 -142 -130 -142c-76 0 -149 43 -200 43c-23 0 -43 -16 -50 -46h-79zM27 148c15 100 71 142 133 142c74 0 147 -42 198 -42c23 0 44 15 50 45h79c-14 -97 -71 -142 -130 -142
c-77 0 -149 43 -200 43c-24 0 -43 -16 -51 -46h-79z" />
    <glyph glyph-name="guillemotleft" unicode="&#xab;" horiz-adv-x="492" 
d="M147 78l-100 185l153 181h98l-151 -184l93 -182h-93zM325 78l-99 185l153 181h98l-151 -185l92 -181h-93z" />
    <glyph glyph-name="guillemotright" unicode="&#xbb;" horiz-adv-x="492" 
d="M343 444l101 -185l-153 -181h-98l151 184l-94 182h93zM165 444l99 -185l-152 -181h-99l151 185l-92 181h93z" />
    <glyph glyph-name="ellipsis" unicode="&#x2026;" horiz-adv-x="840" 
d="M113 -7c-45 0 -79 34 -79 78s33 79 78 79s81 -35 81 -79s-35 -78 -80 -78zM388 -7c-44 0 -79 34 -79 78s34 79 78 79c45 0 82 -35 82 -79s-36 -78 -81 -78zM664 -7c-44 0 -79 34 -79 78s34 79 78 79c45 0 81 -35 81 -79s-35 -78 -80 -78z" />
    <glyph glyph-name="uni00A0" unicode="&#xa0;" horiz-adv-x="271" 
 />
    <glyph glyph-name="Agrave" unicode="&#xc0;" horiz-adv-x="685" 
d="M490 0l-29 177h-273l-84 -177h-128l352 715h174l123 -715h-135zM393 606l-159 -332h212zM382 766l-83 135h134l37 -135h-88z" />
    <glyph glyph-name="Atilde" unicode="&#xc3;" horiz-adv-x="685" 
d="M490 0l-29 177h-273l-84 -177h-128l352 715h174l123 -715h-135zM393 606l-159 -332h212zM483 768c-51 0 -85 39 -114 39c-18 0 -36 -15 -42 -40h-77c16 86 62 131 118 131c50 0 84 -40 115 -40c18 0 34 15 41 40h76c-16 -85 -63 -130 -117 -130z" />
    <glyph glyph-name="Otilde" unicode="&#xd5;" horiz-adv-x="814" 
d="M533 768c-51 0 -85 39 -114 39c-18 0 -36 -15 -42 -40h-77c16 86 62 131 118 131c50 0 84 -40 115 -40c18 0 34 15 41 40h76c-16 -85 -63 -130 -117 -130zM785 405c0 -242 -167 -415 -392 -415c-195 0 -334 127 -334 318c0 236 167 417 393 417c203 0 333 -134 333 -320z
M647 402c0 120 -67 216 -198 217c-158 0 -252 -144 -252 -308c0 -132 80 -215 202 -215c152 0 248 136 248 306z" />
    <glyph glyph-name="OE" unicode="&#x152;" horiz-adv-x="969" 
d="M890 0h-485c-237 0 -346 123 -346 304c0 240 154 411 415 411h509l-18 -105h-295l-31 -196h236l-15 -100h-236l-34 -209h316zM537 610h-61c-177 0 -280 -113 -280 -302c0 -122 64 -204 216 -204h46z" />
    <glyph glyph-name="oe" unicode="&#x153;" horiz-adv-x="976" 
d="M559 213c0 -81 37 -133 126 -133c65 0 107 28 124 80h117c-30 -113 -125 -170 -245 -170c-92 0 -160 36 -196 100c-48 -63 -120 -100 -207 -100c-143 0 -245 92 -246 236c0 176 123 307 288 307c89 0 159 -38 197 -104c48 65 119 104 204 104c154 0 249 -96 220 -276
l-3 -22h-379v-22zM282 84c103 0 161 93 161 216c0 83 -43 139 -127 139c-99 0 -161 -92 -161 -215c0 -81 38 -140 127 -140zM718 446c-62 0 -122 -37 -147 -130h257c7 86 -27 130 -110 130z" />
    <glyph glyph-name="endash" unicode="&#x2013;" horiz-adv-x="532" 
d="M41 240l13 84h442l-14 -84h-441z" />
    <glyph glyph-name="emdash" unicode="&#x2014;" horiz-adv-x="909" 
d="M41 240l13 84h819l-13 -84h-819z" />
    <glyph glyph-name="quotedblleft" unicode="&#x201c;" horiz-adv-x="460" 
d="M180 464l-107 43l141 220l69 -31zM377 464l-107 43l141 220l68 -31z" />
    <glyph glyph-name="quotedblright" unicode="&#x201d;" horiz-adv-x="460" 
d="M151 464l-69 31l102 232l108 -43zM347 464l-68 31l102 232l107 -43z" />
    <glyph glyph-name="quoteleft" unicode="&#x2018;" horiz-adv-x="263" 
d="M180 464l-107 43l141 220l69 -31z" />
    <glyph glyph-name="quoteright" unicode="&#x2019;" horiz-adv-x="263" 
d="M151 464l-69 31l102 232l108 -43z" />
    <glyph glyph-name="divide" unicode="&#xf7;" horiz-adv-x="540" 
d="M41 296l14 91h467l-14 -91h-467zM257 71c-42 0 -76 33 -76 75s34 75 76 75c43 0 77 -33 77 -75s-34 -75 -77 -75zM305 461c-42 0 -76 33 -76 75s34 76 76 76c43 0 77 -34 77 -76s-34 -75 -77 -75z" />
    <glyph glyph-name="ydieresis" unicode="&#xff;" horiz-adv-x="533" 
d="M45 -179l135 238l-125 464h124l81 -338l176 338h124l-391 -702h-124zM231 613c-37 0 -66 28 -66 64s30 66 67 66c36 0 65 -29 65 -65c0 -35 -30 -65 -66 -65zM428 613c-36 0 -65 28 -65 64s30 66 66 66c37 0 65 -29 65 -65c0 -35 -29 -65 -66 -65z" />
    <glyph glyph-name="Ydieresis" unicode="&#x178;" horiz-adv-x="626" 
d="M209 0l49 310l-172 405h140l118 -295l202 295h135l-290 -414l-48 -301h-134zM293 777c-36 0 -66 28 -66 64s31 66 67 66s65 -29 65 -65c0 -35 -30 -65 -66 -65zM504 777c-36 0 -66 28 -66 64s30 66 67 66c36 0 65 -29 65 -65c0 -35 -30 -65 -66 -65z" />
    <glyph glyph-name="fraction" unicode="&#x2044;" horiz-adv-x="135" 
d="M-261 0l603 715h79l-602 -715h-80z" />
    <glyph glyph-name="Euro" unicode="&#x20ac;" horiz-adv-x="688" 
d="M48 389l10 63h68c36 159 138 273 306 273c149 0 241 -81 243 -235h-125c-2 71 -35 132 -123 132c-96 0 -146 -66 -170 -170h200l-19 -63h-193l-11 -68h183l-20 -63h-170c-2 -81 23 -163 138 -163c76 0 135 39 161 145h123c-33 -170 -144 -250 -290 -250
c-178 0 -263 115 -261 268h-70l10 63h66v1l10 67h-66z" />
    <glyph glyph-name="guilsinglleft" unicode="&#x2039;" horiz-adv-x="316" 
d="M146 78l-99 186l155 180h101l-153 -183l91 -183h-95z" />
    <glyph glyph-name="guilsinglright" unicode="&#x203a;" horiz-adv-x="316" 
d="M167 444l100 -186l-156 -180h-101l154 183l-92 183h95z" />
    <glyph glyph-name="daggerdbl" unicode="&#x2021;" horiz-adv-x="386" 
d="M166 416l15 96h-112l13 85h112l19 118h103l-19 -118h111l-13 -85h-112l-15 -96h112l-13 -85h-112l-19 -118h-103l19 118h-112l13 85h113z" />
    <glyph glyph-name="periodcentered" unicode="&#xb7;" horiz-adv-x="289" 
d="M153 248c-44 0 -79 35 -79 79s34 78 78 78c45 0 81 -34 81 -78s-35 -79 -80 -79z" />
    <glyph glyph-name="quotesinglbase" unicode="&#x201a;" horiz-adv-x="263" 
d="M46 -111l-67 31l102 232l106 -43z" />
    <glyph glyph-name="quotedblbase" unicode="&#x201e;" horiz-adv-x="460" 
d="M46 -111l-67 31l102 232l106 -43zM243 -111l-68 31l102 232l107 -43z" />
    <glyph glyph-name="perthousand" unicode="&#x2030;" horiz-adv-x="1156" 
d="M166 537c0 -37 17 -74 68 -74c51 1 80 48 80 104c0 38 -18 76 -66 76c-54 0 -82 -48 -82 -106zM231 384c-92 0 -162 62 -162 153c0 100 78 185 182 185c93 0 160 -65 160 -156c0 -98 -77 -182 -180 -182zM85 0l558 715h87l-559 -715h-86zM493 143c0 -36 17 -73 68 -73
c50 1 80 48 80 104c0 38 -18 76 -66 76c-54 0 -82 -49 -82 -107zM558 -10c-92 0 -162 63 -162 154c0 100 78 185 182 185c93 0 160 -65 160 -156c0 -98 -77 -183 -180 -183zM874 143c0 -36 17 -73 68 -73c51 1 81 48 81 104c0 38 -18 76 -67 76c-54 0 -82 -49 -82 -107z
M939 -10c-92 0 -162 63 -162 154c0 100 78 185 182 185c93 0 161 -65 161 -156c0 -98 -78 -183 -181 -183z" />
    <glyph glyph-name="Acircumflex" unicode="&#xc2;" horiz-adv-x="685" 
d="M490 0l-29 177h-273l-84 -177h-128l352 715h174l123 -715h-135zM393 606l-159 -332h212zM250 766l126 135h105l92 -135h-85l-67 55l-82 -55h-89z" />
    <glyph glyph-name="Ecircumflex" unicode="&#xca;" horiz-adv-x="588" 
d="M213 766l126 135h105l92 -135h-85l-67 55l-82 -55h-89zM40 0l113 715h444l-17 -105h-311l-31 -196h252l-15 -100h-252l-34 -209h332l-17 -105h-464z" />
    <glyph glyph-name="Aacute" unicode="&#xc1;" horiz-adv-x="685" 
d="M490 0l-29 177h-273l-84 -177h-128l352 715h174l123 -715h-135zM393 606l-159 -332h212zM365 766l67 135h138l-111 -135h-94z" />
    <glyph glyph-name="Edieresis" unicode="&#xcb;" horiz-adv-x="588" 
d="M40 0l113 715h444l-17 -105h-311l-31 -196h252l-15 -100h-252l-34 -209h332l-17 -105h-464zM281 777c-36 0 -66 28 -66 64s31 66 67 66s65 -29 65 -65c0 -35 -30 -65 -66 -65zM492 777c-36 0 -66 28 -66 64s30 66 67 66c36 0 65 -29 65 -65c0 -35 -30 -65 -66 -65z" />
    <glyph glyph-name="Egrave" unicode="&#xc8;" horiz-adv-x="588" 
d="M350 766l-83 135h134l37 -135h-88zM40 0l113 715h444l-17 -105h-311l-31 -196h252l-15 -100h-252l-34 -209h332l-17 -105h-464z" />
    <glyph glyph-name="Iacute" unicode="&#xcd;" horiz-adv-x="308" 
d="M44 0l113 715h134l-113 -715h-134zM176 766l67 135h138l-111 -135h-94z" />
    <glyph glyph-name="Icircumflex" unicode="&#xce;" horiz-adv-x="308" 
d="M44 0l113 715h134l-113 -715h-134zM67 766l126 135h105l92 -135h-85l-67 55l-82 -55h-89z" />
    <glyph glyph-name="Idieresis" unicode="&#xcf;" horiz-adv-x="308" 
d="M44 0l113 715h134l-113 -715h-134zM138 777c-36 0 -66 28 -66 64s31 66 67 66s65 -29 65 -65c0 -35 -30 -65 -66 -65zM349 777c-36 0 -66 28 -66 64s30 66 67 66c36 0 65 -29 65 -65c0 -35 -30 -65 -66 -65z" />
    <glyph glyph-name="Igrave" unicode="&#xcc;" horiz-adv-x="308" 
d="M44 0l113 715h134l-113 -715h-134zM195 766l-83 135h134l37 -135h-88z" />
    <glyph glyph-name="Oacute" unicode="&#xd3;" horiz-adv-x="814" 
d="M414 766l67 135h138l-111 -135h-94zM785 405c0 -242 -167 -415 -392 -415c-195 0 -334 127 -334 318c0 236 167 417 393 417c203 0 333 -134 333 -320zM647 402c0 120 -67 216 -198 217c-158 0 -252 -144 -252 -308c0 -132 80 -215 202 -215c152 0 248 136 248 306z" />
    <glyph glyph-name="Ocircumflex" unicode="&#xd4;" horiz-adv-x="814" 
d="M309 766l126 135h105l92 -135h-85l-67 55l-82 -55h-89zM785 405c0 -242 -167 -415 -392 -415c-195 0 -334 127 -334 318c0 236 167 417 393 417c203 0 333 -134 333 -320zM647 402c0 120 -67 216 -198 217c-158 0 -252 -144 -252 -308c0 -132 80 -215 202 -215
c152 0 248 136 248 306z" />
    <glyph glyph-name="Ograve" unicode="&#xd2;" horiz-adv-x="814" 
d="M431 766l-83 135h134l37 -135h-88zM785 405c0 -242 -167 -415 -392 -415c-195 0 -334 127 -334 318c0 236 167 417 393 417c203 0 333 -134 333 -320zM647 402c0 120 -67 216 -198 217c-158 0 -252 -144 -252 -308c0 -132 80 -215 202 -215c152 0 248 136 248 306z" />
    <glyph glyph-name="Uacute" unicode="&#xda;" horiz-adv-x="723" 
d="M382 766l67 135h138l-111 -135h-94zM342 -10c-194 0 -295 102 -262 303l67 422h134l-68 -425c-22 -137 23 -193 133 -193c97 0 147 51 167 175l71 443h134l-73 -457c-27 -171 -121 -268 -303 -268z" />
    <glyph glyph-name="Ucircumflex" unicode="&#xdb;" horiz-adv-x="723" 
d="M268 766l126 135h105l92 -135h-85l-67 55l-82 -55h-89zM342 -10c-194 0 -295 102 -262 303l67 422h134l-68 -425c-22 -137 23 -193 133 -193c97 0 147 51 167 175l71 443h134l-73 -457c-27 -171 -121 -268 -303 -268z" />
    <glyph glyph-name="Ugrave" unicode="&#xd9;" horiz-adv-x="723" 
d="M395 766l-83 135h134l37 -135h-88zM342 -10c-194 0 -295 102 -262 303l67 422h134l-68 -425c-22 -137 23 -193 133 -193c97 0 147 51 167 175l71 443h134l-73 -457c-27 -171 -121 -268 -303 -268z" />
    <glyph glyph-name="dotlessi" unicode="&#x131;" horiz-adv-x="271" 
d="M33 0l83 523h121l-83 -523h-121z" />
    <glyph glyph-name="circumflex" unicode="&#x2c6;" horiz-adv-x="400" 
d="M93 602l135 151h95l91 -151h-83l-66 68l-85 -68h-87z" />
    <glyph glyph-name="tilde" unicode="&#x2dc;" horiz-adv-x="400" 
d="M320 606c-51 0 -84 40 -113 40c-18 0 -36 -16 -42 -40h-74c15 85 59 131 115 131c49 0 83 -39 114 -39c18 0 34 15 40 40h75c-15 -86 -60 -132 -115 -132z" />
    <glyph glyph-name="macron" unicode="&#xaf;" horiz-adv-x="400" 
d="M118 634l12 78h280l-12 -78h-280z" />
    <glyph glyph-name="breve" unicode="&#x2d8;" horiz-adv-x="400" 
d="M267 606c-84 0 -143 56 -141 143h83c4 -38 22 -58 59 -58c38 0 60 20 66 58h83c-9 -88 -72 -143 -150 -143z" />
    <glyph glyph-name="dotaccent" unicode="&#x2d9;" horiz-adv-x="400" 
d="M265 611c-40 0 -71 29 -71 67c0 39 32 70 72 70c39 0 70 -30 70 -68s-32 -69 -71 -69z" />
    <glyph glyph-name="ring" unicode="&#x2da;" horiz-adv-x="400" 
d="M267 643c29 0 51 24 51 57c0 31 -19 53 -48 53c-30 0 -52 -23 -52 -56c0 -32 19 -54 49 -54zM267 590c-62 0 -110 47 -110 107s51 109 113 109c61 0 110 -47 110 -106c0 -61 -52 -110 -113 -110z" />
    <glyph glyph-name="cedilla" unicode="&#xb8;" horiz-adv-x="400" 
d="M141 -219c-56 0 -104 28 -109 88h67c2 -18 15 -33 39 -33c19 0 38 10 38 36c0 19 -14 30 -34 30c-13 0 -21 -4 -27 -8l-30 33l57 73h61l-39 -50c45 4 88 -22 88 -75c0 -62 -47 -94 -111 -94z" />
    <glyph glyph-name="hungarumlaut" unicode="&#x2dd;" horiz-adv-x="400" 
d="M129 601l57 155h113l-91 -155h-79zM292 601l57 155h113l-91 -155h-79z" />
    <glyph glyph-name="ogonek" unicode="&#x2db;" horiz-adv-x="400" 
d="M153 -182c-55 0 -105 21 -104 80c0 50 48 84 90 102h88c-27 -17 -72 -42 -72 -82c0 -19 12 -28 34 -28c14 0 29 3 40 8l-10 -68c-15 -5 -35 -12 -66 -12z" />
    <glyph glyph-name="caron" unicode="&#x2c7;" horiz-adv-x="400" 
d="M437 753l-135 -151h-96l-90 151h82l66 -67l85 67h88z" />
    <glyph glyph-name="space_uni0326" horiz-adv-x="400" 
d="M119 -225l-68 27l63 165l110 -22z" />
    <glyph glyph-name="caron.alt" horiz-adv-x="400" 
d="M222 590l37 175h107l-72 -175h-72z" />
    <glyph glyph-name="space_uni0326.alt" horiz-adv-x="400" 
d="M299 779l69 -26l-64 -165l-109 22z" />
    <glyph glyph-name="grave.uc" horiz-adv-x="400" 
d="M246 766l-83 135h134l37 -135h-88z" />
    <glyph glyph-name="dieresis.uc" horiz-adv-x="400" 
d="M185 777c-36 0 -66 28 -66 64s31 66 67 66s65 -29 65 -65c0 -35 -30 -65 -66 -65zM396 777c-36 0 -66 28 -66 64s30 66 67 66c36 0 65 -29 65 -65c0 -35 -30 -65 -66 -65z" />
    <glyph glyph-name="macron.uc" horiz-adv-x="400" 
d="M137 780l13 81h288l-13 -81h-288z" />
    <glyph glyph-name="acute.uc" horiz-adv-x="400" 
d="M224 766l67 135h138l-111 -135h-94z" />
    <glyph glyph-name="circumflex.uc" horiz-adv-x="400" 
d="M118 766l126 135h105l92 -135h-85l-67 55l-82 -55h-89z" />
    <glyph glyph-name="caron.uc" horiz-adv-x="400" 
d="M461 901l-127 -135h-105l-91 135h84l67 -55l82 55h90z" />
    <glyph glyph-name="breve.uc" horiz-adv-x="400" 
d="M293 761c-85 0 -142 56 -142 140h85c4 -36 22 -56 59 -56s58 19 65 56h84c-9 -85 -73 -140 -151 -140z" />
    <glyph glyph-name="dotaccent.uc" horiz-adv-x="400" 
d="M291 775c-40 0 -71 30 -71 68s32 69 71 69c40 0 71 -29 71 -68c0 -38 -32 -69 -71 -69z" />
    <glyph glyph-name="ring.uc" horiz-adv-x="400" 
d="M293 807c29 0 51 23 51 56c0 32 -19 54 -49 54c-29 0 -51 -23 -51 -57c0 -31 19 -53 49 -53zM293 753c-62 0 -111 48 -111 107c0 62 52 111 113 111c62 0 111 -48 111 -108c0 -61 -52 -110 -113 -110z" />
    <glyph glyph-name="tilde.uc" horiz-adv-x="400" 
d="M347 768c-51 0 -85 39 -114 39c-18 0 -36 -15 -42 -40h-77c16 86 62 131 118 131c50 0 84 -40 115 -40c18 0 34 15 41 40h76c-16 -85 -63 -130 -117 -130z" />
    <glyph glyph-name="hungarumlaut.uc" horiz-adv-x="400" 
d="M154 766l49 135h119l-84 -135h-84zM323 766l50 135h119l-84 -135h-85z" />
    <glyph glyph-name="Dcroat" unicode="&#x110;" horiz-adv-x="737" 
d="M39 311l15 95h69l49 309h197c238 0 345 -124 345 -305c0 -240 -152 -410 -414 -410h-241l49 311h-69zM208 105h91c176 0 278 112 278 301c0 122 -61 205 -212 205h-77l-33 -205h173l-15 -95h-173z" />
    <glyph glyph-name="Eng" unicode="&#x14a;" horiz-adv-x="745" 
d="M375 -89c60 0 97 26 113 89l-238 551l-87 -551h-123l113 715h161l217 -506l80 506h123l-111 -702c-23 -143 -103 -206 -229 -206c-65 0 -100 13 -120 25l16 99c23 -11 45 -20 85 -20z" />
    <glyph glyph-name="IJ" unicode="&#x132;" horiz-adv-x="715" 
d="M13 0l113 715h134l-113 -715h-134zM366 -9c-73 0 -108 16 -130 28l16 102c25 -11 54 -23 98 -23c64 0 104 32 116 111l80 506h134l-82 -514c-23 -146 -111 -210 -232 -210z" />
    <glyph glyph-name="uni0237" unicode="&#x237;" horiz-adv-x="271" 
d="M-68 -187l14 92c54 3 76 27 83 72l87 546h120l-88 -556c-14 -94 -70 -158 -216 -154z" />
    <glyph glyph-name="dcroat" unicode="&#x111;" horiz-adv-x="629" 
d="M325 604l12 75h168l14 86h121l-14 -86h68l-12 -75h-67l-70 -445c-11 -70 -14 -116 -11 -159h-118c-2 27 -1 59 2 89c-38 -62 -97 -99 -175 -99c-123 0 -210 85 -210 230c0 180 106 314 267 314c92 0 143 -45 167 -97l26 167h-168zM319 440c-100 0 -160 -89 -160 -213
c0 -91 42 -143 121 -143c95 0 167 77 167 219c0 88 -50 137 -128 137z" />
    <glyph glyph-name="eng" unicode="&#x14b;" horiz-adv-x="604" 
d="M30 0l57 361c11 73 14 117 16 162h116c0 -28 -2 -65 -6 -98c37 61 96 109 181 109c105 0 176 -62 151 -220l-55 -347c-15 -92 -66 -156 -217 -155l14 93c54 4 76 26 84 73l53 342c13 77 -14 114 -77 114c-75 0 -136 -49 -149 -136l-47 -298h-121z" />
    <glyph glyph-name="ij" unicode="&#x133;" horiz-adv-x="542" 
d="M198 609c-40 0 -71 30 -71 69s32 70 72 70s71 -30 71 -69s-32 -70 -72 -70zM33 0l83 523h121l-83 -523h-121zM202 -187l14 92c54 3 76 27 83 72l87 546h120l-88 -556c-14 -94 -70 -158 -216 -154zM468 609c-40 0 -71 30 -71 69s32 70 72 70s71 -30 71 -69
s-32 -70 -72 -70z" />
    <glyph glyph-name="Abreve" unicode="&#x102;" horiz-adv-x="685" 
d="M490 0l-29 177h-273l-84 -177h-128l352 715h174l123 -715h-135zM393 606l-159 -332h212zM423 761c-85 0 -142 56 -142 140h85c4 -36 22 -56 59 -56s58 19 65 56h84c-9 -85 -73 -140 -151 -140z" />
    <glyph glyph-name="Amacron" unicode="&#x100;" horiz-adv-x="685" 
d="M490 0l-29 177h-273l-84 -177h-128l352 715h174l123 -715h-135zM393 606l-159 -332h212zM277 780l13 81h288l-13 -81h-288z" />
    <glyph glyph-name="Aogonek" unicode="&#x104;" horiz-adv-x="685" 
d="M490 0l-29 177h-273l-84 -177h-128l352 715h174l122 -711c-33 -21 -77 -46 -77 -86c0 -19 12 -28 34 -28c14 0 29 3 40 8l-10 -68c-15 -5 -35 -12 -66 -12c-55 0 -105 21 -104 80c0 50 47 84 90 102h-41zM393 606l-159 -332h212z" />
    <glyph glyph-name="Aringacute" unicode="&#x1fa;" horiz-adv-x="685" 
d="M490 0l-29 177h-273l-84 -177h-128l352 715h174l123 -715h-135zM424 746c-62 0 -111 48 -111 107c0 62 52 111 113 111c62 0 111 -48 111 -108c0 -61 -52 -110 -113 -110zM393 606l-159 -332h212zM390 988l67 135h138l-111 -135h-94zM424 800c29 0 51 23 51 56
c0 32 -19 54 -49 54c-29 0 -51 -23 -51 -57c0 -31 19 -53 49 -53z" />
    <glyph glyph-name="AEacute" unicode="&#x1fc;" horiz-adv-x="971" 
d="M-20 0l450 715h554l-17 -105h-309l-31 -196h250l-16 -100h-249l-34 -209h329l-16 -105h-462l29 183h-231l-113 -183h-134zM491 610l-206 -332h188l52 332h-34zM644 766l67 135h138l-111 -135h-94z" />
    <glyph glyph-name="Cacute" unicode="&#x106;" horiz-adv-x="741" 
d="M389 -10c-203 0 -330 117 -330 313c0 239 154 423 387 423c161 0 276 -84 285 -250h-130c-14 94 -61 145 -159 145c-156 0 -244 -141 -244 -314c-1 -130 61 -211 192 -211c98 0 164 59 192 153h130c-34 -164 -163 -259 -323 -259zM401 766l67 135h138l-111 -135h-94z" />
    <glyph glyph-name="Ccaron" unicode="&#x10c;" horiz-adv-x="741" 
d="M628 901l-127 -135h-105l-91 135h84l67 -55l82 55h90zM389 -10c-203 0 -330 117 -330 313c0 239 154 423 387 423c161 0 276 -84 285 -250h-130c-14 94 -61 145 -159 145c-156 0 -244 -141 -244 -314c-1 -130 61 -211 192 -211c98 0 164 59 192 153h130
c-34 -164 -163 -259 -323 -259z" />
    <glyph glyph-name="Ccircumflex" unicode="&#x108;" horiz-adv-x="741" 
d="M291 766l126 135h105l92 -135h-85l-67 55l-82 -55h-89zM389 -10c-203 0 -330 117 -330 313c0 239 154 423 387 423c161 0 276 -84 285 -250h-130c-14 94 -61 145 -159 145c-156 0 -244 -141 -244 -314c-1 -130 61 -211 192 -211c98 0 164 59 192 153h130
c-34 -164 -163 -259 -323 -259z" />
    <glyph glyph-name="Cdotaccent" unicode="&#x10a;" horiz-adv-x="741" 
d="M389 -10c-203 0 -330 117 -330 313c0 239 154 423 387 423c161 0 276 -84 285 -250h-130c-14 94 -61 145 -159 145c-156 0 -244 -141 -244 -314c-1 -130 61 -211 192 -211c98 0 164 59 192 153h130c-34 -164 -163 -259 -323 -259zM460 775c-40 0 -71 30 -71 68
s32 69 71 69c40 0 71 -29 71 -68c0 -38 -32 -69 -71 -69z" />
    <glyph glyph-name="Dcaron" unicode="&#x10e;" horiz-adv-x="718" 
d="M568 901l-127 -135h-105l-91 135h84l67 -55l82 55h90zM40 0l113 715h196c239 0 345 -124 346 -305c0 -240 -153 -410 -414 -410h-241zM190 105h89c177 0 278 112 278 301c0 122 -61 205 -212 205h-75z" />
    <glyph glyph-name="Ebreve" unicode="&#x114;" horiz-adv-x="588" 
d="M40 0l113 715h444l-17 -105h-311l-31 -196h252l-15 -100h-252l-34 -209h332l-17 -105h-464zM382 761c-85 0 -142 56 -142 140h85c4 -36 22 -56 59 -56s58 19 65 56h84c-9 -85 -73 -140 -151 -140z" />
    <glyph glyph-name="Ecaron" unicode="&#x11a;" horiz-adv-x="588" 
d="M550 901l-127 -135h-105l-91 135h84l67 -55l82 55h90zM40 0l113 715h444l-17 -105h-311l-31 -196h252l-15 -100h-252l-34 -209h332l-17 -105h-464z" />
    <glyph glyph-name="Edotaccent" unicode="&#x116;" horiz-adv-x="588" 
d="M385 775c-40 0 -71 30 -71 68s32 69 71 69c40 0 71 -29 71 -68c0 -38 -32 -69 -71 -69zM40 0l113 715h444l-17 -105h-311l-31 -196h252l-15 -100h-252l-34 -209h332l-17 -105h-464z" />
    <glyph glyph-name="Emacron" unicode="&#x112;" horiz-adv-x="588" 
d="M40 0l113 715h444l-17 -105h-311l-31 -196h252l-15 -100h-252l-34 -209h332l-17 -105h-464zM237 780l13 81h288l-13 -81h-288z" />
    <glyph glyph-name="Eogonek" unicode="&#x118;" horiz-adv-x="588" 
d="M40 0l113 715h444l-17 -105h-311l-31 -196h252l-15 -100h-252l-34 -209h332l-17 -105h-33c-27 -17 -72 -42 -72 -83c0 -18 12 -27 34 -27c14 0 29 3 40 8l-10 -68c-15 -5 -35 -12 -66 -12c-55 0 -105 21 -104 77c0 51 45 86 85 105h-338z" />
    <glyph glyph-name="Gbreve" unicode="&#x11e;" horiz-adv-x="777" 
d="M454 761c-85 0 -142 56 -142 140h85c4 -36 22 -56 59 -56s58 19 65 56h84c-9 -85 -73 -140 -151 -140zM397 -10c-212 0 -337 129 -337 321c0 230 161 414 386 413c154 0 285 -73 295 -239h-133c-8 91 -72 134 -167 134c-153 0 -243 -140 -243 -307
c0 -133 67 -218 202 -218c122 0 184 76 202 180h-180l16 100h311c-19 -263 -141 -384 -352 -384z" />
    <glyph glyph-name="Gcircumflex" unicode="&#x11c;" horiz-adv-x="777" 
d="M285 766l126 135h105l92 -135h-85l-67 55l-82 -55h-89zM397 -10c-212 0 -337 129 -337 321c0 230 161 414 386 413c154 0 285 -73 295 -239h-133c-8 91 -72 134 -167 134c-153 0 -243 -140 -243 -307c0 -133 67 -218 202 -218c122 0 184 76 202 180h-180l16 100h311
c-19 -263 -141 -384 -352 -384z" />
    <glyph glyph-name="Gcommaaccent" unicode="&#x122;" horiz-adv-x="777" 
d="M299 -225l-68 27l63 165l110 -22zM397 -10c-212 0 -337 129 -337 321c0 230 161 414 386 413c154 0 285 -73 295 -239h-133c-8 91 -72 134 -167 134c-153 0 -243 -140 -243 -307c0 -133 67 -218 202 -218c122 0 184 76 202 180h-180l16 100h311
c-19 -263 -141 -384 -352 -384z" />
    <glyph glyph-name="Gdotaccent" unicode="&#x120;" horiz-adv-x="777" 
d="M455 775c-40 0 -71 30 -71 68s32 69 71 69c40 0 71 -29 71 -68c0 -38 -32 -69 -71 -69zM397 -10c-212 0 -337 129 -337 321c0 230 161 414 386 413c154 0 285 -73 295 -239h-133c-8 91 -72 134 -167 134c-153 0 -243 -140 -243 -307c0 -133 67 -218 202 -218
c122 0 184 76 202 180h-180l16 100h311c-19 -263 -141 -384 -352 -384z" />
    <glyph glyph-name="Hbar" unicode="&#x126;" horiz-adv-x="751" 
d="M53 504l12 78h67l21 133h133l-21 -133h320l22 133h134l-21 -133h65l-12 -78h-66l-79 -504h-134l48 304h-321l-48 -304h-133l79 504h-66zM238 411h320l15 93h-321z" />
    <glyph glyph-name="Hcircumflex" unicode="&#x124;" horiz-adv-x="751" 
d="M40 0l113 715h133l-48 -304h320l49 304h134l-113 -715h-134l48 304h-321l-48 -304h-133zM288 766l126 135h105l92 -135h-85l-67 55l-82 -55h-89z" />
    <glyph glyph-name="Idotaccent" unicode="&#x130;" horiz-adv-x="308" 
d="M44 0l113 715h134l-113 -715h-134zM239 775c-40 0 -71 30 -71 68s32 69 71 69c40 0 71 -29 71 -68c0 -38 -32 -69 -71 -69z" />
    <glyph glyph-name="Ibreve" unicode="&#x12c;" horiz-adv-x="308" 
d="M44 0l113 715h134l-113 -715h-134zM237 761c-85 0 -142 56 -142 140h85c4 -36 22 -56 59 -56s58 19 65 56h84c-9 -85 -73 -140 -151 -140z" />
    <glyph glyph-name="Imacron" unicode="&#x12a;" horiz-adv-x="308" 
d="M44 0l113 715h134l-113 -715h-134zM90 780l13 81h288l-13 -81h-288z" />
    <glyph glyph-name="Iogonek" unicode="&#x12e;" horiz-adv-x="308" 
d="M98 -182c-55 0 -105 21 -105 80c0 50 49 84 91 102h-40l113 715h134l-111 -706c-36 -24 -80 -55 -80 -91c0 -19 11 -28 34 -28c13 0 28 3 40 8l-11 -68c-14 -5 -35 -12 -65 -12z" />
    <glyph glyph-name="Itilde" unicode="&#x128;" horiz-adv-x="308" 
d="M44 0l113 715h134l-113 -715h-134zM302 768c-51 0 -85 39 -114 39c-18 0 -36 -15 -42 -40h-77c16 86 62 131 118 131c50 0 84 -40 115 -40c18 0 34 15 41 40h76c-16 -85 -63 -130 -117 -130z" />
    <glyph glyph-name="Jcircumflex" unicode="&#x134;" horiz-adv-x="443" 
d="M216 766l126 135h105l92 -135h-85l-67 55l-82 -55h-89zM126 -9c-73 0 -108 16 -130 28l16 102c25 -11 54 -23 98 -23c64 0 104 32 116 111l80 506h134l-82 -514c-23 -146 -111 -210 -232 -210z" />
    <glyph glyph-name="Kcommaaccent" unicode="&#x136;" horiz-adv-x="659" 
d="M40 0l113 715h133l-51 -320l325 320h148l-354 -344l249 -371h-146l-230 344l-54 -344h-133zM253 -225l-68 27l63 165l110 -22z" />
    <glyph glyph-name="Lacute" unicode="&#x139;" horiz-adv-x="551" 
d="M173 766l67 135h138l-111 -135h-94zM40 0l113 715h133l-96 -609h305l-17 -106h-438z" />
    <glyph glyph-name="Lcaron" unicode="&#x13d;" horiz-adv-x="551" 
d="M392 550l43 165h116l-83 -165h-76zM40 0l113 715h133l-96 -609h305l-17 -106h-438z" />
    <glyph glyph-name="Lcommaaccent" unicode="&#x13b;" horiz-adv-x="551" 
d="M205 -225l-68 27l63 165l110 -22zM40 0l113 715h133l-96 -609h305l-17 -106h-438z" />
    <glyph glyph-name="Ldot" unicode="&#x13f;" horiz-adv-x="561" 
d="M40 0l113 715h133l-96 -609h305l-17 -106h-438zM470 312c-44 0 -79 35 -79 79s34 78 78 78c45 0 81 -34 81 -78s-35 -79 -80 -79z" />
    <glyph glyph-name="Nacute" unicode="&#x143;" horiz-adv-x="745" 
d="M407 766l67 135h138l-111 -135h-94zM40 0l113 715h159l218 -517l82 517h122l-113 -715h-138l-235 548l-86 -548h-122z" />
    <glyph glyph-name="Ncaron" unicode="&#x147;" horiz-adv-x="745" 
d="M635 901l-127 -135h-105l-91 135h84l67 -55l82 55h90zM40 0l113 715h159l218 -517l82 517h122l-113 -715h-138l-235 548l-86 -548h-122z" />
    <glyph glyph-name="Ncommaaccent" unicode="&#x145;" horiz-adv-x="745" 
d="M282 -225l-68 27l63 165l110 -22zM40 0l113 715h159l218 -517l82 517h122l-113 -715h-138l-235 548l-86 -548h-122z" />
    <glyph glyph-name="Obreve" unicode="&#x14e;" horiz-adv-x="814" 
d="M480 761c-85 0 -142 56 -142 140h85c4 -36 22 -56 59 -56s58 19 65 56h84c-9 -85 -73 -140 -151 -140zM785 405c0 -242 -167 -415 -392 -415c-195 0 -334 127 -334 318c0 236 167 417 393 417c203 0 333 -134 333 -320zM647 402c0 120 -67 216 -198 217
c-158 0 -252 -144 -252 -308c0 -132 80 -215 202 -215c152 0 248 136 248 306z" />
    <glyph glyph-name="Ohungarumlaut" unicode="&#x150;" horiz-adv-x="814" 
d="M341 766l49 135h119l-84 -135h-84zM510 766l50 135h119l-84 -135h-85zM785 405c0 -242 -167 -415 -392 -415c-195 0 -334 127 -334 318c0 236 167 417 393 417c203 0 333 -134 333 -320zM647 402c0 120 -67 216 -198 217c-158 0 -252 -144 -252 -308
c0 -132 80 -215 202 -215c152 0 248 136 248 306z" />
    <glyph glyph-name="Omacron" unicode="&#x14c;" horiz-adv-x="814" 
d="M333 780l13 81h288l-13 -81h-288zM785 405c0 -242 -167 -415 -392 -415c-195 0 -334 127 -334 318c0 236 167 417 393 417c203 0 333 -134 333 -320zM647 402c0 120 -67 216 -198 217c-158 0 -252 -144 -252 -308c0 -132 80 -215 202 -215c152 0 248 136 248 306z" />
    <glyph glyph-name="Oslashacute" unicode="&#x1fe;" horiz-adv-x="814" 
d="M80 -33l-48 51l91 93c-41 52 -64 119 -64 197c0 236 167 416 393 416c84 0 155 -23 210 -63l79 80l48 -50l-76 -78c46 -54 72 -126 72 -208c0 -242 -167 -415 -392 -415c-88 0 -163 26 -221 71zM649 402c0 46 -9 86 -26 120l-367 -376c35 -33 84 -50 143 -50
c152 0 250 134 250 306zM195 311c0 -41 7 -77 20 -106l365 371c-33 27 -77 43 -131 43c-158 0 -254 -142 -254 -308zM420 766l67 135h138l-111 -135h-94z" />
    <glyph glyph-name="Racute" unicode="&#x154;" horiz-adv-x="655" 
d="M325 766l67 135h138l-111 -135h-94zM40 0l113 715h235c144 0 237 -67 235 -190c0 -126 -82 -197 -189 -216l160 -309h-139l-149 289h-88l-45 -289h-133zM233 384h110c98 0 149 42 149 131c1 67 -41 97 -118 97h-104z" />
    <glyph glyph-name="Rcaron" unicode="&#x158;" horiz-adv-x="655" 
d="M548 901l-127 -135h-105l-91 135h84l67 -55l82 55h90zM40 0l113 715h235c144 0 237 -67 235 -190c0 -126 -82 -197 -189 -216l160 -309h-139l-149 289h-88l-45 -289h-133zM233 384h110c98 0 149 42 149 131c1 67 -41 97 -118 97h-104z" />
    <glyph glyph-name="Rcommaaccent" unicode="&#x156;" horiz-adv-x="655" 
d="M252 -225l-68 27l63 165l110 -22zM40 0l113 715h235c144 0 237 -67 235 -190c0 -126 -82 -197 -189 -216l160 -309h-139l-149 289h-88l-45 -289h-133zM233 384h110c98 0 149 42 149 131c1 67 -41 97 -118 97h-104z" />
    <glyph glyph-name="Sacute" unicode="&#x15a;" horiz-adv-x="635" 
d="M306 -10c-186 0 -280 101 -280 232h128c3 -68 45 -132 157 -132c89 -1 138 43 138 114c0 53 -30 79 -133 107c-150 38 -219 86 -219 200c0 118 98 213 258 213c151 0 246 -70 247 -207h-122c-7 79 -57 107 -132 107c-84 0 -123 -43 -123 -101c0 -47 28 -70 134 -99
c149 -40 221 -89 221 -203c0 -134 -101 -231 -274 -231zM325 766l67 135h138l-111 -135h-94z" />
    <glyph glyph-name="Scedilla" unicode="&#x15e;" horiz-adv-x="635" 
d="M240 -219c-56 0 -104 28 -109 88h67c2 -18 15 -33 39 -33c19 0 38 10 38 36c0 19 -14 30 -34 30c-13 0 -21 -4 -27 -8l-30 33l53 68c-141 22 -211 113 -211 227h128c3 -68 45 -132 157 -132c89 -1 138 43 138 114c0 53 -30 79 -133 107c-150 38 -219 86 -219 200
c0 118 98 213 258 213c151 0 246 -70 247 -207h-122c-7 79 -57 107 -132 107c-84 0 -123 -43 -123 -101c0 -47 28 -70 134 -99c149 -40 221 -89 221 -203c0 -134 -101 -231 -274 -231h-12l-31 -40c45 4 88 -22 88 -75c0 -62 -47 -94 -111 -94z" />
    <glyph glyph-name="Scircumflex" unicode="&#x15c;" horiz-adv-x="635" 
d="M215 766l126 135h105l92 -135h-85l-67 55l-82 -55h-89zM306 -10c-186 0 -280 101 -280 232h128c3 -68 45 -132 157 -132c89 -1 138 43 138 114c0 53 -30 79 -133 107c-150 38 -219 86 -219 200c0 118 98 213 258 213c151 0 246 -70 247 -207h-122c-7 79 -57 107 -132 107
c-84 0 -123 -43 -123 -101c0 -47 28 -70 134 -99c149 -40 221 -89 221 -203c0 -134 -101 -231 -274 -231z" />
    <glyph glyph-name="Scommaaccent" unicode="&#x218;" horiz-adv-x="635" 
d="M215 -225l-68 27l63 165l110 -22zM306 -10c-186 0 -280 101 -280 232h128c3 -68 45 -132 157 -132c89 -1 138 43 138 114c0 53 -30 79 -133 107c-150 38 -219 86 -219 200c0 118 98 213 258 213c151 0 246 -70 247 -207h-122c-7 79 -57 107 -132 107
c-84 0 -123 -43 -123 -101c0 -47 28 -70 134 -99c149 -40 221 -89 221 -203c0 -134 -101 -231 -274 -231z" />
    <glyph glyph-name="Tcaron" unicode="&#x164;" horiz-adv-x="583" 
d="M540 901l-127 -135h-105l-91 135h84l67 -55l82 55h90zM182 0l96 610h-199l17 105h532l-18 -105h-198l-96 -610h-134z" />
    <glyph glyph-name="Tcommaaccent" unicode="&#x162;" horiz-adv-x="584" 
d="M199 -225l-68 27l63 165l110 -22zM182 0l96 610h-199l17 105h532l-18 -105h-198l-96 -610h-134z" />
    <glyph glyph-name="Tbar" unicode="&#x166;" horiz-adv-x="583" 
d="M95 315l14 90h136l33 205h-199l17 105h532l-18 -105h-198l-33 -205h138l-14 -90h-138l-49 -315h-134l49 315h-136z" />
    <glyph glyph-name="Ubreve" unicode="&#x16c;" horiz-adv-x="723" 
d="M342 -10c-194 0 -295 102 -262 303l67 422h134l-68 -425c-22 -137 23 -193 133 -193c97 0 147 51 167 175l71 443h134l-73 -457c-27 -171 -121 -268 -303 -268zM439 761c-85 0 -142 56 -142 140h85c4 -36 22 -56 59 -56s58 19 65 56h84c-9 -85 -73 -140 -151 -140z" />
    <glyph glyph-name="Uhungarumlaut" unicode="&#x170;" horiz-adv-x="723" 
d="M307 766l49 135h119l-84 -135h-84zM476 766l50 135h119l-84 -135h-85zM342 -10c-194 0 -295 102 -262 303l67 422h134l-68 -425c-22 -137 23 -193 133 -193c97 0 147 51 167 175l71 443h134l-73 -457c-27 -171 -121 -268 -303 -268z" />
    <glyph glyph-name="Umacron" unicode="&#x16a;" horiz-adv-x="723" 
d="M342 -10c-194 0 -295 102 -262 303l67 422h134l-68 -425c-22 -137 23 -193 133 -193c97 0 147 51 167 175l71 443h134l-73 -457c-27 -171 -121 -268 -303 -268zM295 780l13 81h288l-13 -81h-288z" />
    <glyph glyph-name="Uogonek" unicode="&#x172;" horiz-adv-x="723" 
d="M354 -182c-55 0 -105 21 -104 80c0 44 35 74 73 93c-182 6 -276 107 -243 302l67 422h134l-68 -425c-22 -137 22 -193 132 -193c97 0 148 51 168 175l71 443h134l-73 -457c-17 -112 -62 -193 -161 -241c-42 -21 -128 -41 -128 -99c0 -19 12 -28 34 -28c14 0 29 3 40 8
l-10 -68c-15 -5 -35 -12 -66 -12z" />
    <glyph glyph-name="Uring" unicode="&#x16e;" horiz-adv-x="723" 
d="M342 -10c-194 0 -295 102 -262 303l67 422h134l-68 -425c-22 -137 23 -193 133 -193c97 0 147 51 167 175l71 443h134l-73 -457c-27 -171 -121 -268 -303 -268zM444 787c29 0 51 23 51 56c0 32 -19 54 -49 54c-29 0 -51 -23 -51 -57c0 -31 19 -53 49 -53zM444 733
c-62 0 -111 48 -111 107c0 62 52 111 113 111c62 0 111 -48 111 -108c0 -61 -52 -110 -113 -110z" />
    <glyph glyph-name="Utilde" unicode="&#x168;" horiz-adv-x="723" 
d="M342 -10c-194 0 -295 102 -262 303l67 422h134l-68 -425c-22 -137 23 -193 133 -193c97 0 147 51 167 175l71 443h134l-73 -457c-27 -171 -121 -268 -303 -268zM501 768c-51 0 -85 39 -114 39c-18 0 -36 -15 -42 -40h-77c16 86 62 131 118 131c50 0 84 -40 115 -40
c18 0 34 15 41 40h76c-16 -85 -63 -130 -117 -130z" />
    <glyph glyph-name="Wacute" unicode="&#x1e82;" horiz-adv-x="928" 
d="M489 766l67 135h138l-111 -135h-94zM155 0l-68 715h135l41 -532l221 532h102l63 -535l209 535h124l-291 -715h-128l-60 512l-219 -512h-129z" />
    <glyph glyph-name="Wcircumflex" unicode="&#x174;" horiz-adv-x="928" 
d="M373 766l126 135h105l92 -135h-85l-67 55l-82 -55h-89zM155 0l-68 715h135l41 -532l221 532h102l63 -535l209 535h124l-291 -715h-128l-60 512l-219 -512h-129z" />
    <glyph glyph-name="Wdieresis" unicode="&#x1e84;" horiz-adv-x="928" 
d="M440 777c-36 0 -66 28 -66 64s31 66 67 66s65 -29 65 -65c0 -35 -30 -65 -66 -65zM651 777c-36 0 -66 28 -66 64s30 66 67 66c36 0 65 -29 65 -65c0 -35 -30 -65 -66 -65zM155 0l-68 715h135l41 -532l221 532h102l63 -535l209 535h124l-291 -715h-128l-60 512l-219 -512
h-129z" />
    <glyph glyph-name="Wgrave" unicode="&#x1e80;" horiz-adv-x="928" 
d="M497 766l-83 135h134l37 -135h-88zM155 0l-68 715h135l41 -532l221 532h102l63 -535l209 535h124l-291 -715h-128l-60 512l-219 -512h-129z" />
    <glyph glyph-name="Ycircumflex" unicode="&#x176;" horiz-adv-x="626" 
d="M209 0l49 310l-172 405h140l118 -295l202 295h135l-290 -414l-48 -301h-134zM222 766l126 135h105l92 -135h-85l-67 55l-82 -55h-89z" />
    <glyph glyph-name="Ygrave" unicode="&#x1ef2;" horiz-adv-x="626" 
d="M209 0l49 310l-172 405h140l118 -295l202 295h135l-290 -414l-48 -301h-134zM349 766l-83 135h134l37 -135h-88z" />
    <glyph glyph-name="Zacute" unicode="&#x179;" horiz-adv-x="607" 
d="M326 766l67 135h138l-111 -135h-94zM-20 0l2 18l456 594h-325l16 103h517l-2 -17l-450 -593h344l-16 -105h-542z" />
    <glyph glyph-name="Zdotaccent" unicode="&#x17b;" horiz-adv-x="607" 
d="M-20 0l2 18l456 594h-325l16 103h517l-2 -17l-450 -593h344l-16 -105h-542zM389 775c-40 0 -71 30 -71 68s32 69 71 69c40 0 71 -29 71 -68c0 -38 -32 -69 -71 -69z" />
    <glyph glyph-name="abreve" unicode="&#x103;" horiz-adv-x="554" 
d="M188 -10c-103 0 -168 57 -168 147c0 132 112 174 262 174h92l4 28c11 68 -10 104 -83 104c-60 0 -94 -29 -106 -82h-116c25 126 124 173 227 173c137 0 219 -61 196 -208l-26 -167c-11 -68 -14 -115 -9 -159h-115c-4 26 -4 54 -2 76c-35 -53 -88 -86 -156 -86zM222 77
c67 0 121 38 132 111l7 47h-76c-99 0 -145 -23 -145 -88c0 -39 26 -70 82 -70zM324 606c-84 0 -143 56 -141 143h83c4 -38 22 -58 59 -58c38 0 60 20 66 58h83c-9 -88 -72 -143 -150 -143z" />
    <glyph glyph-name="amacron" unicode="&#x101;" horiz-adv-x="554" 
d="M188 -10c-103 0 -168 57 -168 147c0 132 112 174 262 174h92l4 28c11 68 -10 104 -83 104c-60 0 -94 -29 -106 -82h-116c25 126 124 173 227 173c137 0 219 -61 196 -208l-26 -167c-11 -68 -14 -115 -9 -159h-115c-4 26 -4 54 -2 76c-35 -53 -88 -86 -156 -86zM222 77
c67 0 121 38 132 111l7 47h-76c-99 0 -145 -23 -145 -88c0 -39 26 -70 82 -70zM182 634l12 78h280l-12 -78h-280z" />
    <glyph glyph-name="aogonek" unicode="&#x105;" horiz-adv-x="554" 
d="M389 -182c-55 0 -106 21 -105 80c0 50 48 84 88 102h-26c-4 26 -4 54 -2 76c-35 -53 -88 -86 -156 -86c-103 0 -168 57 -168 147c0 132 112 174 262 174h92l4 28c11 68 -10 104 -83 104c-60 0 -94 -29 -106 -82h-116c25 126 124 173 227 173c137 0 219 -61 196 -208
l-26 -167c-11 -67 -14 -113 -9 -157c-27 -19 -70 -44 -70 -84c0 -19 11 -28 33 -28c14 0 29 3 41 8l-11 -68c-14 -6 -35 -12 -65 -12zM222 77c67 0 121 38 132 111l7 47h-76c-99 0 -145 -23 -145 -88c0 -39 26 -70 82 -70z" />
    <glyph glyph-name="aringacute" unicode="&#x1fb;" horiz-adv-x="554" 
d="M188 -10c-103 0 -168 57 -168 147c0 132 112 174 262 174h92l4 28c11 68 -10 104 -83 104c-60 0 -94 -29 -106 -82h-116c25 126 124 173 227 173c137 0 219 -61 196 -208l-26 -167c-11 -68 -14 -115 -9 -159h-115c-4 26 -4 54 -2 76c-35 -53 -88 -86 -156 -86zM222 77
c67 0 121 38 132 111l7 47h-76c-99 0 -145 -23 -145 -88c0 -39 26 -70 82 -70zM333 629c29 0 51 24 51 57c0 31 -19 53 -48 53c-30 0 -52 -23 -52 -56c0 -32 19 -54 49 -54zM333 576c-62 0 -110 47 -110 107s51 109 113 109c61 0 110 -47 110 -106c0 -61 -52 -110 -113 -110
zM303 828l67 135h138l-111 -135h-94z" />
    <glyph glyph-name="aeacute" unicode="&#x1fd;" horiz-adv-x="887" 
d="M480 213c0 -81 33 -133 122 -133c65 0 103 28 120 80h115c-29 -113 -119 -170 -239 -170c-99 0 -169 39 -203 110c-36 -65 -99 -110 -197 -110c-111 0 -178 54 -178 145c0 132 116 179 266 179h89l4 26c11 67 -11 103 -84 103c-61 0 -96 -29 -107 -82h-117
c24 127 128 173 229 173c80 0 137 -23 163 -74c47 46 109 73 177 73c152 0 241 -94 213 -276l-4 -20h-369v-24zM221 77c68 0 122 37 134 112l7 47h-77c-98 0 -145 -25 -145 -91c0 -39 26 -68 81 -68zM635 446c-63 0 -121 -38 -144 -132h249c7 86 -24 132 -105 132zM437 601
l77 155h136l-122 -155h-91z" />
    <glyph glyph-name="cacute" unicode="&#x107;" horiz-adv-x="564" 
d="M272 601l77 155h136l-122 -155h-91zM286 -9c-156 0 -253 92 -253 238c0 191 126 304 280 304c123 0 219 -60 225 -196h-114c-8 76 -51 100 -115 100c-93 0 -154 -80 -154 -208c0 -93 44 -146 134 -146c64 0 117 39 130 111h110c-20 -130 -114 -203 -243 -203z" />
    <glyph glyph-name="ccaron" unicode="&#x10d;" horiz-adv-x="564" 
d="M501 753l-135 -151h-96l-90 151h82l66 -67l85 67h88zM286 -9c-156 0 -253 92 -253 238c0 191 126 304 280 304c123 0 219 -60 225 -196h-114c-8 76 -51 100 -115 100c-93 0 -154 -80 -154 -208c0 -93 44 -146 134 -146c64 0 117 39 130 111h110
c-20 -130 -114 -203 -243 -203z" />
    <glyph glyph-name="ccircumflex" unicode="&#x109;" horiz-adv-x="564" 
d="M159 602l135 151h95l91 -151h-83l-66 68l-85 -68h-87zM286 -9c-156 0 -253 92 -253 238c0 191 126 304 280 304c123 0 219 -60 225 -196h-114c-8 76 -51 100 -115 100c-93 0 -154 -80 -154 -208c0 -93 44 -146 134 -146c64 0 117 39 130 111h110
c-20 -130 -114 -203 -243 -203z" />
    <glyph glyph-name="cdotaccent" unicode="&#x10b;" horiz-adv-x="564" 
d="M286 -9c-156 0 -253 92 -253 238c0 191 126 304 280 304c123 0 219 -60 225 -196h-114c-8 76 -51 100 -115 100c-93 0 -154 -80 -154 -208c0 -93 44 -146 134 -146c64 0 117 39 130 111h110c-20 -130 -114 -203 -243 -203zM338 611c-40 0 -71 29 -71 67c0 39 32 70 72 70
c39 0 70 -30 70 -68s-32 -69 -71 -69z" />
    <glyph glyph-name="dcaron" unicode="&#x10f;" horiz-adv-x="629" 
d="M657 590l37 175h107l-72 -175h-72zM243 -10c-123 0 -210 85 -210 230c0 180 106 314 267 314c92 0 143 -45 167 -97l52 328h121l-95 -606c-11 -70 -14 -116 -11 -159h-118c-2 27 -1 59 2 89c-38 -62 -97 -99 -175 -99zM280 84c95 0 167 77 167 217c0 87 -52 139 -128 139
c-100 0 -160 -89 -160 -213c0 -89 44 -143 121 -143z" />
    <glyph glyph-name="ebreve" unicode="&#x115;" horiz-adv-x="570" 
d="M153 213c0 -81 37 -133 126 -133c65 0 107 28 124 80h117c-30 -113 -126 -170 -245 -170c-146 0 -243 86 -243 229c0 186 122 314 283 314c153 0 248 -96 220 -276l-4 -22h-378v-22zM333 606c-84 0 -143 56 -141 143h83c4 -38 22 -58 59 -58c38 0 60 20 66 58h83
c-9 -88 -72 -143 -150 -143zM312 446c-63 0 -123 -37 -147 -130h257c7 86 -28 130 -110 130z" />
    <glyph glyph-name="ecaron" unicode="&#x11b;" horiz-adv-x="570" 
d="M153 213c0 -81 37 -133 126 -133c65 0 107 28 124 80h117c-30 -113 -126 -170 -245 -170c-146 0 -243 86 -243 229c0 186 122 314 283 314c153 0 248 -96 220 -276l-4 -22h-378v-22zM312 446c-63 0 -123 -37 -147 -130h257c7 86 -28 130 -110 130zM504 753l-135 -151h-96
l-90 151h82l66 -67l85 67h88z" />
    <glyph glyph-name="edotaccent" unicode="&#x117;" horiz-adv-x="570" 
d="M153 213c0 -81 37 -133 126 -133c65 0 107 28 124 80h117c-30 -113 -126 -170 -245 -170c-146 0 -243 86 -243 229c0 186 122 314 283 314c153 0 248 -96 220 -276l-4 -22h-378v-22zM312 446c-63 0 -123 -37 -147 -130h257c7 86 -28 130 -110 130zM338 611
c-40 0 -71 29 -71 67c0 39 32 70 72 70c39 0 70 -30 70 -68s-32 -69 -71 -69z" />
    <glyph glyph-name="emacron" unicode="&#x113;" horiz-adv-x="570" 
d="M153 213c0 -81 37 -133 126 -133c65 0 107 28 124 80h117c-30 -113 -126 -170 -245 -170c-146 0 -243 86 -243 229c0 186 122 314 283 314c153 0 248 -96 220 -276l-4 -22h-378v-22zM312 446c-63 0 -123 -37 -147 -130h257c7 86 -28 130 -110 130zM193 634l12 78h280
l-12 -78h-280z" />
    <glyph glyph-name="eogonek" unicode="&#x119;" horiz-adv-x="570" 
d="M275 -10c-146 0 -243 86 -243 229c0 186 122 314 283 314c153 0 248 -96 220 -276l-4 -22h-378v-22c0 -81 37 -133 126 -133c65 0 107 28 124 80h117c-12 -46 -32 -79 -65 -110c-42 -41 -128 -79 -128 -132c0 -19 11 -28 34 -28c13 0 28 3 40 8l-10 -68
c-15 -6 -35 -12 -66 -12c-55 0 -105 21 -104 79c0 45 41 75 79 94c-8 -1 -17 -1 -25 -1zM312 446c-63 0 -123 -37 -147 -130h257c7 86 -28 130 -110 130z" />
    <glyph glyph-name="gbreve" unicode="&#x11f;" horiz-adv-x="630" 
d="M281 114c92 0 166 76 166 196c0 81 -53 130 -129 130c-98 0 -155 -90 -155 -189c0 -81 40 -137 118 -137zM601 523l-78 -495c-23 -147 -110 -220 -270 -220c-178 0 -241 87 -249 174h121c8 -45 44 -82 125 -82c98 0 139 49 153 133l12 74c-38 -55 -92 -85 -167 -85
c-123 0 -210 85 -210 222c0 162 109 290 260 290c92 0 144 -45 169 -97l14 86h120zM357 606c-84 0 -143 56 -141 143h83c4 -38 22 -58 59 -58c38 0 60 20 66 58h83c-9 -88 -72 -143 -150 -143z" />
    <glyph glyph-name="gcircumflex" unicode="&#x11d;" horiz-adv-x="630" 
d="M185 602l135 151h95l91 -151h-83l-66 68l-85 -68h-87zM281 114c92 0 166 76 166 196c0 81 -53 130 -129 130c-98 0 -155 -90 -155 -189c0 -81 40 -137 118 -137zM601 523l-78 -495c-23 -147 -110 -220 -270 -220c-178 0 -241 87 -249 174h121c8 -45 44 -82 125 -82
c98 0 139 49 153 133l12 74c-38 -55 -92 -85 -167 -85c-123 0 -210 85 -210 222c0 162 109 290 260 290c92 0 144 -45 169 -97l14 86h120z" />
    <glyph glyph-name="gcommaaccent" unicode="&#x123;" horiz-adv-x="630" 
d="M381 779l69 -26l-64 -165l-109 22zM281 114c92 0 166 76 166 196c0 81 -53 130 -129 130c-98 0 -155 -90 -155 -189c0 -81 40 -137 118 -137zM601 523l-78 -495c-23 -147 -110 -220 -270 -220c-178 0 -241 87 -249 174h121c8 -45 44 -82 125 -82c98 0 139 49 153 133
l12 74c-38 -55 -92 -85 -167 -85c-123 0 -210 85 -210 222c0 162 109 290 260 290c92 0 144 -45 169 -97l14 86h120z" />
    <glyph glyph-name="gdotaccent" unicode="&#x121;" horiz-adv-x="630" 
d="M281 114c92 0 166 76 166 196c0 81 -53 130 -129 130c-98 0 -155 -90 -155 -189c0 -81 40 -137 118 -137zM601 523l-78 -495c-23 -147 -110 -220 -270 -220c-178 0 -241 87 -249 174h121c8 -45 44 -82 125 -82c98 0 139 49 153 133l12 74c-38 -55 -92 -85 -167 -85
c-123 0 -210 85 -210 222c0 162 109 290 260 290c92 0 144 -45 169 -97l14 86h120zM362 611c-40 0 -71 29 -71 67c0 39 32 70 72 70c39 0 70 -30 70 -68s-32 -69 -71 -69z" />
    <glyph glyph-name="hbar" unicode="&#x127;" horiz-adv-x="604" 
d="M57 604l12 75h68l14 86h120l-14 -86h170l-12 -75h-170l-26 -170c33 53 90 100 175 100c105 0 176 -62 151 -220l-50 -314h-121l50 320c13 81 -13 114 -77 114c-75 0 -136 -49 -149 -136l-47 -298h-121l95 604h-68z" />
    <glyph glyph-name="hcircumflex" unicode="&#x125;" horiz-adv-x="604" 
d="M30 0l121 765h120l-52 -331c33 53 90 100 175 100c105 0 176 -62 151 -220l-50 -314h-121l50 320c13 77 -14 114 -77 114c-75 0 -136 -49 -149 -136l-47 -298h-121zM221 809l126 135h105l92 -135h-85l-67 55l-82 -55h-89z" />
    <glyph glyph-name="ibreve" unicode="&#x12d;" horiz-adv-x="271" 
d="M33 0l83 523h121l-83 -523h-121zM194 606c-84 0 -143 56 -141 143h83c4 -38 22 -58 59 -58c38 0 60 20 66 58h83c-9 -88 -72 -143 -150 -143z" />
    <glyph glyph-name="imacron" unicode="&#x12b;" horiz-adv-x="271" 
d="M87 634l12 78h214l-12 -78h-214zM33 0l83 523h121l-83 -523h-121z" />
    <glyph glyph-name="iogonek" unicode="&#x12f;" horiz-adv-x="271" 
d="M33 0l83 523h121l-82 -514c-35 -23 -78 -51 -78 -91c0 -19 12 -28 32 -28c14 0 29 3 40 8l-10 -68c-15 -5 -35 -12 -66 -12c-53 0 -104 21 -103 80c0 50 48 84 88 102h-25zM198 609c-40 0 -71 30 -71 69s32 70 72 70s71 -30 71 -69s-32 -70 -72 -70z" />
    <glyph glyph-name="itilde" unicode="&#x129;" horiz-adv-x="271" 
d="M33 0l83 523h121l-83 -523h-121zM256 606c-51 0 -84 40 -113 40c-18 0 -36 -16 -42 -40h-74c15 85 59 131 115 131c49 0 83 -39 114 -39c18 0 34 15 40 40h75c-15 -86 -60 -132 -115 -132z" />
    <glyph glyph-name="idotaccent" horiz-adv-x="271" 
d="M198 609c-40 0 -71 30 -71 69s32 70 72 70s71 -30 71 -69s-32 -70 -72 -70zM33 0l83 523h121l-83 -523h-121z" />
    <glyph glyph-name="jcircumflex" unicode="&#x135;" horiz-adv-x="271" 
d="M-68 -187l14 92c54 3 76 27 83 72l87 546h120l-88 -556c-14 -94 -70 -158 -216 -154zM20 602l135 151h95l91 -151h-83l-66 68l-85 -68h-87z" />
    <glyph glyph-name="kcommaaccent" unicode="&#x137;" horiz-adv-x="536" 
d="M30 0l120 765h121l-73 -466l220 224h139l-245 -241l173 -282h-134l-159 265l-41 -265h-121zM200 -225l-68 27l63 165l110 -22z" />
    <glyph glyph-name="lacute" unicode="&#x13a;" horiz-adv-x="271" 
d="M168 809l67 135h138l-111 -135h-94zM33 0l121 765h121l-121 -765h-121z" />
    <glyph glyph-name="lcaron" unicode="&#x13e;" horiz-adv-x="271" 
d="M292 590l37 175h107l-72 -175h-72zM33 0l121 765h121l-121 -765h-121z" />
    <glyph glyph-name="lcommaaccent" unicode="&#x13c;" horiz-adv-x="271" 
d="M42 -225l-68 27l63 165l110 -22zM33 0l121 765h121l-121 -765h-121z" />
    <glyph glyph-name="ldot" unicode="&#x140;" horiz-adv-x="378" 
d="M33 0l121 765h121l-121 -765h-121zM338 285c-44 0 -79 35 -79 79s34 78 78 78c45 0 81 -34 81 -78s-35 -79 -80 -79z" />
    <glyph glyph-name="nacute" unicode="&#x144;" horiz-adv-x="604" 
d="M294 601l77 155h136l-122 -155h-91zM30 0l57 361c11 73 14 117 16 162h116c0 -28 -2 -65 -6 -98c37 61 96 109 181 109c105 0 176 -62 151 -220l-50 -314h-121l50 320c13 77 -14 114 -77 114c-75 0 -136 -49 -149 -136l-47 -298h-121z" />
    <glyph glyph-name="napostrophe" unicode="&#x149;" horiz-adv-x="654" 
d="M64 464l-69 31l102 232l108 -43zM80 0l57 361c11 73 14 117 16 162h116c0 -28 -2 -65 -6 -98c37 61 96 109 181 109c105 0 176 -62 151 -220l-50 -314h-121l50 320c13 77 -14 114 -77 114c-75 0 -136 -49 -149 -136l-47 -298h-121z" />
    <glyph glyph-name="ncaron" unicode="&#x148;" horiz-adv-x="604" 
d="M524 753l-135 -151h-96l-90 151h82l66 -67l85 67h88zM30 0l57 361c11 73 14 117 16 162h116c0 -28 -2 -65 -6 -98c37 61 96 109 181 109c105 0 176 -62 151 -220l-50 -314h-121l50 320c13 77 -14 114 -77 114c-75 0 -136 -49 -149 -136l-47 -298h-121z" />
    <glyph glyph-name="ncommaaccent" unicode="&#x146;" horiz-adv-x="603" 
d="M205 -225l-68 27l63 165l110 -22zM30 0l57 361c11 73 14 117 16 162h116c0 -28 -2 -65 -6 -98c37 61 96 109 181 109c105 0 176 -62 151 -220l-50 -314h-121l50 320c13 77 -14 114 -77 114c-75 0 -136 -49 -149 -136l-47 -298h-121z" />
    <glyph glyph-name="obreve" unicode="&#x14f;" horiz-adv-x="599" 
d="M279 -10c-144 0 -246 91 -246 235c-1 176 122 308 287 308c144 0 247 -88 247 -234c0 -180 -119 -309 -288 -309zM282 84c103 0 161 93 161 216c0 83 -43 139 -127 139c-99 0 -161 -92 -161 -214c0 -82 39 -141 127 -141zM341 606c-84 0 -143 56 -141 143h83
c4 -38 22 -58 59 -58c38 0 60 20 66 58h83c-9 -88 -72 -143 -150 -143z" />
    <glyph glyph-name="ohungarumlaut" unicode="&#x151;" horiz-adv-x="599" 
d="M214 601l57 155h113l-91 -155h-79zM377 601l57 155h113l-91 -155h-79zM279 -10c-144 0 -246 91 -246 235c-1 176 122 308 287 308c144 0 247 -88 247 -234c0 -180 -119 -309 -288 -309zM282 84c103 0 161 93 161 216c0 83 -43 139 -127 139c-99 0 -161 -92 -161 -214
c0 -82 39 -141 127 -141z" />
    <glyph glyph-name="omacron" unicode="&#x14d;" horiz-adv-x="599" 
d="M202 634l12 78h280l-12 -78h-280zM279 -10c-144 0 -246 91 -246 235c-1 176 122 308 287 308c144 0 247 -88 247 -234c0 -180 -119 -309 -288 -309zM282 84c103 0 161 93 161 216c0 83 -43 139 -127 139c-99 0 -161 -92 -161 -214c0 -82 39 -141 127 -141z" />
    <glyph glyph-name="oslashacute" unicode="&#x1ff;" horiz-adv-x="599" 
d="M55 -38l-44 42l70 73c-31 39 -49 90 -49 149c0 176 123 307 288 307c59 0 111 -15 153 -44l66 70l44 -42l-66 -69c32 -38 50 -90 50 -150c0 -179 -119 -308 -289 -308c-59 0 -112 16 -153 45zM282 83c104 0 163 93 163 216c0 23 -3 45 -9 63l-241 -253
c20 -17 49 -26 87 -26zM153 226c0 -24 3 -45 9 -64l239 252c-20 17 -49 26 -85 26c-100 0 -163 -91 -163 -214zM282 601l77 155h136l-122 -155h-91z" />
    <glyph glyph-name="racute" unicode="&#x155;" horiz-adv-x="396" 
d="M222 601l77 155h136l-122 -155h-91zM30 0l57 361c11 73 14 117 15 162h116c0 -28 -2 -68 -6 -109c43 75 94 116 192 117l-18 -113c-107 -1 -176 -41 -195 -162l-40 -256h-121z" />
    <glyph glyph-name="rcaron" unicode="&#x159;" horiz-adv-x="396" 
d="M448 753l-135 -151h-96l-90 151h82l66 -67l85 67h88zM30 0l57 361c11 73 14 117 15 162h116c0 -28 -2 -68 -6 -109c43 75 94 116 192 117l-18 -113c-107 -1 -176 -41 -195 -162l-40 -256h-121z" />
    <glyph glyph-name="rcommaaccent" unicode="&#x157;" horiz-adv-x="396" 
d="M36 -225l-68 27l63 165l110 -22zM30 0l57 361c11 73 14 117 15 162h116c0 -28 -2 -68 -6 -109c43 75 94 116 192 117l-18 -113c-107 -1 -176 -41 -195 -162l-40 -256h-121z" />
    <glyph glyph-name="sacute" unicode="&#x15b;" horiz-adv-x="493" 
d="M230 601l77 155h136l-122 -155h-91zM230 -11c-141 0 -215 72 -216 174h114c4 -48 28 -84 106 -84c60 0 88 24 88 68c0 38 -23 54 -99 71c-117 27 -164 70 -164 153c0 108 94 163 203 163c112 0 193 -46 200 -158h-112c-3 42 -36 70 -91 70s-86 -23 -86 -63
c0 -34 25 -50 97 -67c115 -26 171 -61 171 -159c0 -106 -85 -168 -211 -168z" />
    <glyph glyph-name="scedilla" unicode="&#x15f;" horiz-adv-x="493" 
d="M178 -219c-56 0 -104 28 -109 88h67c2 -18 15 -33 39 -33c19 0 38 10 38 36c0 19 -14 30 -34 30c-13 0 -21 -4 -27 -8l-30 33l51 66c-104 17 -158 82 -159 170h114c4 -48 28 -84 106 -84c60 0 88 24 88 68c0 38 -23 54 -99 71c-117 27 -164 70 -164 153
c0 108 94 163 203 163c112 0 193 -46 200 -158h-112c-3 42 -36 70 -91 70s-86 -23 -86 -63c0 -34 25 -50 97 -67c115 -26 171 -61 171 -159c0 -106 -85 -167 -210 -168l-30 -39c45 4 88 -22 88 -75c0 -62 -47 -94 -111 -94z" />
    <glyph glyph-name="scircumflex" unicode="&#x15d;" horiz-adv-x="493" 
d="M117 602l135 151h95l91 -151h-83l-66 68l-85 -68h-87zM230 -11c-141 0 -215 72 -216 174h114c4 -48 28 -84 106 -84c60 0 88 24 88 68c0 38 -23 54 -99 71c-117 27 -164 70 -164 153c0 108 94 163 203 163c112 0 193 -46 200 -158h-112c-3 42 -36 70 -91 70
s-86 -23 -86 -63c0 -34 25 -50 97 -67c115 -26 171 -61 171 -159c0 -106 -85 -168 -211 -168z" />
    <glyph glyph-name="scommaaccent" unicode="&#x219;" horiz-adv-x="493" 
d="M151 -225l-68 27l63 165l110 -22zM230 -11c-141 0 -215 72 -216 174h114c4 -48 28 -84 106 -84c60 0 88 24 88 68c0 38 -23 54 -99 71c-117 27 -164 70 -164 153c0 108 94 163 203 163c112 0 193 -46 200 -158h-112c-3 42 -36 70 -91 70s-86 -23 -86 -63
c0 -34 25 -50 97 -67c115 -26 171 -61 171 -159c0 -106 -85 -168 -211 -168z" />
    <glyph glyph-name="tbar" unicode="&#x167;" horiz-adv-x="360" 
d="M17 261l12 75h70l15 96h-70l14 91h70l19 115h121l-19 -115h113l-14 -91h-113l-15 -96h112l-12 -75h-112l-16 -101c-8 -53 10 -70 53 -70c18 0 39 3 57 10l-15 -96c-19 -8 -45 -13 -75 -13c-110 0 -158 63 -141 168l16 102h-70z" />
    <glyph glyph-name="tcaron" unicode="&#x165;" horiz-adv-x="360" 
d="M327 590l37 175h107l-72 -175h-72zM212 -9c-110 0 -158 63 -141 168l43 273h-70l14 91h70l19 115h121l-19 -115h113l-14 -91h-113l-43 -272c-8 -53 10 -70 53 -70c18 0 39 3 57 10l-15 -96c-19 -8 -45 -13 -75 -13z" />
    <glyph glyph-name="tcommaaccent" unicode="&#x163;" horiz-adv-x="360" 
d="M112 -225l-68 27l63 165l110 -22zM212 -9c-110 0 -158 63 -141 168l43 273h-70l14 91h70l19 115h121l-19 -115h113l-14 -91h-113l-43 -272c-8 -53 10 -70 53 -70c18 0 39 3 57 10l-15 -96c-19 -8 -45 -13 -75 -13z" />
    <glyph glyph-name="ubreve" unicode="&#x16d;" horiz-adv-x="601" 
d="M569 523l-57 -364c-11 -70 -14 -116 -12 -159h-117c-2 28 -1 61 4 94c-38 -59 -93 -104 -176 -104c-109 0 -178 66 -153 219l50 314h121l-52 -324c-11 -73 14 -114 76 -114c75 0 134 49 148 136l47 302h121zM352 606c-84 0 -143 56 -141 143h83c4 -38 22 -58 59 -58
c38 0 60 20 66 58h83c-9 -88 -72 -143 -150 -143z" />
    <glyph glyph-name="uhungarumlaut" unicode="&#x171;" horiz-adv-x="601" 
d="M569 523l-57 -364c-11 -70 -14 -116 -12 -159h-117c-2 28 -1 61 4 94c-38 -59 -93 -104 -176 -104c-109 0 -178 66 -153 219l50 314h121l-52 -324c-11 -73 14 -114 76 -114c75 0 134 49 148 136l47 302h121zM226 601l57 155h113l-91 -155h-79zM389 601l57 155h113
l-91 -155h-79z" />
    <glyph glyph-name="umacron" unicode="&#x16b;" horiz-adv-x="601" 
d="M569 523l-57 -364c-11 -70 -14 -116 -12 -159h-117c-2 28 -1 61 4 94c-38 -59 -93 -104 -176 -104c-109 0 -178 66 -153 219l50 314h121l-52 -324c-11 -73 14 -114 76 -114c75 0 134 49 148 136l47 302h121zM207 634l12 78h280l-12 -78h-280z" />
    <glyph glyph-name="uogonek" unicode="&#x173;" horiz-adv-x="601" 
d="M569 523l-57 -364c-11 -71 -14 -116 -12 -156c-28 -20 -72 -47 -72 -85c0 -19 11 -28 33 -28c14 0 29 3 41 8l-11 -68c-14 -5 -35 -12 -65 -12c-55 0 -106 21 -105 80c0 50 48 84 89 102h-27c-2 28 0 68 4 101c-38 -63 -97 -111 -181 -111c-105 0 -172 66 -148 219
l50 314h121l-52 -324c-11 -73 14 -114 76 -114c75 0 134 49 147 136l48 302h121z" />
    <glyph glyph-name="uring" unicode="&#x16f;" horiz-adv-x="601" 
d="M350 643c29 0 51 24 51 57c0 31 -19 53 -48 53c-30 0 -52 -23 -52 -56c0 -32 19 -54 49 -54zM350 590c-62 0 -110 47 -110 107s51 109 113 109c61 0 110 -47 110 -106c0 -61 -52 -110 -113 -110zM569 523l-57 -364c-11 -70 -14 -116 -12 -159h-117c-2 28 -1 61 4 94
c-38 -59 -93 -104 -176 -104c-109 0 -178 66 -153 219l50 314h121l-52 -324c-11 -73 14 -114 76 -114c75 0 134 49 148 136l47 302h121z" />
    <glyph glyph-name="utilde" unicode="&#x169;" horiz-adv-x="601" 
d="M569 523l-57 -364c-11 -70 -14 -116 -12 -159h-117c-2 28 -1 61 4 94c-38 -59 -93 -104 -176 -104c-109 0 -178 66 -153 219l50 314h121l-52 -324c-11 -73 14 -114 76 -114c75 0 134 49 148 136l47 302h121zM408 606c-51 0 -84 40 -113 40c-18 0 -36 -16 -42 -40h-74
c15 85 59 131 115 131c49 0 83 -39 114 -39c18 0 34 15 40 40h75c-15 -86 -60 -132 -115 -132z" />
    <glyph glyph-name="wacute" unicode="&#x1e83;" horiz-adv-x="792" 
d="M408 601l77 155h136l-122 -155h-91zM129 0l-71 523h125l39 -382l168 382h101l42 -382l162 382h121l-242 -523h-123l-39 356l-159 -356h-124z" />
    <glyph glyph-name="wcircumflex" unicode="&#x175;" horiz-adv-x="792" 
d="M282 602l135 151h95l91 -151h-83l-66 68l-85 -68h-87zM129 0l-71 523h125l39 -382l168 382h101l42 -382l162 382h121l-242 -523h-123l-39 356l-159 -356h-124z" />
    <glyph glyph-name="wdieresis" unicode="&#x1e85;" horiz-adv-x="792" 
d="M358 613c-37 0 -66 28 -66 64s30 66 67 66c36 0 65 -29 65 -65c0 -35 -30 -65 -66 -65zM555 613c-36 0 -65 28 -65 64s30 66 66 66c37 0 65 -29 65 -65c0 -35 -29 -65 -66 -65zM129 0l-71 523h125l39 -382l168 382h101l42 -382l162 382h121l-242 -523h-123l-39 356
l-159 -356h-124z" />
    <glyph glyph-name="wgrave" unicode="&#x1e81;" horiz-adv-x="792" 
d="M129 0l-71 523h125l39 -382l168 382h101l42 -382l162 382h121l-242 -523h-123l-39 356l-159 -356h-124zM401 601l-89 155h132l44 -155h-87z" />
    <glyph glyph-name="ycircumflex" unicode="&#x177;" horiz-adv-x="533" 
d="M45 -179l135 238l-125 464h124l81 -338l176 338h124l-391 -702h-124zM150 602l135 151h95l91 -151h-83l-66 68l-85 -68h-87z" />
    <glyph glyph-name="ygrave" unicode="&#x1ef3;" horiz-adv-x="533" 
d="M45 -179l135 238l-125 464h124l81 -338l176 338h124l-391 -702h-124zM276 601l-89 155h132l44 -155h-87z" />
    <glyph glyph-name="zacute" unicode="&#x17a;" horiz-adv-x="487" 
d="M245 601l77 155h136l-122 -155h-91zM-25 0l2 14l332 414h-241l14 95h423l-3 -17l-329 -409h260l-16 -97h-442z" />
    <glyph glyph-name="zdotaccent" unicode="&#x17c;" horiz-adv-x="487" 
d="M-25 0l2 14l332 414h-241l14 95h423l-3 -17l-329 -409h260l-16 -97h-442zM305 611c-40 0 -71 29 -71 67c0 39 32 70 72 70c39 0 70 -30 70 -68s-32 -69 -71 -69z" />
    <glyph glyph-name="f_i" unicode="&#xfb01;" horiz-adv-x="623" 
d="M44 432l14 91h72l13 84c18 115 91 164 185 164c39 0 61 -6 79 -13l-14 -92c-13 5 -30 10 -53 10c-46 0 -69 -26 -78 -78l-12 -75h120l-15 -91h-120l-68 -432h-120l68 432h-71zM385 0l83 523h121l-83 -523h-121zM550 609c-40 0 -71 30 -71 69s32 70 72 70s71 -30 71 -69
s-32 -70 -72 -70z" />
    <glyph glyph-name="f_l" unicode="&#xfb02;" horiz-adv-x="623" 
d="M44 432l14 91h72l13 84c18 115 91 164 185 164c39 0 61 -6 79 -13l-14 -92c-13 5 -30 10 -53 10c-46 0 -69 -26 -78 -78l-12 -75h120l-15 -91h-120l-68 -432h-120l68 432h-71zM385 0l121 765h121l-121 -765h-121z" />
    <glyph glyph-name="oneeighth" unicode="&#x215b;" horiz-adv-x="760" 
d="M560 -6c-69 0 -143 27 -143 101c0 53 32 82 80 97c-26 13 -43 36 -43 65c0 68 68 103 136 103c62 0 128 -28 128 -94c0 -42 -22 -67 -61 -81c35 -15 52 -41 52 -77c0 -79 -73 -114 -149 -114zM511 105c0 -26 16 -46 51 -46c29 0 57 16 57 53c0 28 -19 47 -51 47
c-30 0 -57 -18 -57 -54zM539 252c0 -25 19 -40 44 -40c28 0 49 16 49 46c0 23 -18 39 -45 39c-25 0 -48 -16 -48 -45zM122 360l41 263l-89 -51l12 80l104 63h82l-57 -355h-93zM25 0l603 715h79l-602 -715h-80z" />
    <glyph glyph-name="onethird" unicode="&#x2153;" horiz-adv-x="768" 
d="M567 -6c-79 0 -143 32 -144 120h85c1 -31 19 -53 56 -53c28 0 56 14 56 50c0 28 -18 42 -50 42h-26l9 57h29c33 0 54 15 54 44c0 24 -12 40 -43 40c-29 0 -52 -18 -59 -49h-82c10 72 69 115 147 115c64 0 126 -24 126 -95c0 -41 -28 -71 -71 -84c34 -7 59 -31 59 -75
c0 -74 -69 -112 -146 -112zM122 360l41 263l-89 -51l12 80l104 63h82l-57 -355h-93zM25 0l603 715h79l-602 -715h-80z" />
    <glyph glyph-name="threeeighths" unicode="&#x215c;" horiz-adv-x="805" 
d="M605 -6c-69 0 -143 27 -143 101c0 53 32 82 80 97c-26 13 -43 36 -43 65c0 68 68 103 136 103c62 0 128 -28 128 -94c0 -42 -22 -67 -61 -81c35 -15 52 -41 52 -77c0 -79 -73 -114 -149 -114zM556 105c0 -26 16 -46 51 -46c29 0 57 16 57 53c0 28 -19 47 -51 47
c-30 0 -57 -18 -57 -54zM584 252c0 -25 19 -40 44 -40c28 0 49 16 49 46c0 23 -18 39 -45 39c-25 0 -48 -16 -48 -45zM77 0l603 715h79l-602 -715h-80zM198 354c-78 0 -142 32 -143 120h85c1 -32 18 -54 56 -54c27 0 56 15 56 51c0 28 -18 41 -51 41h-25l8 58h30
c33 0 54 15 54 44c0 24 -12 39 -43 39c-30 0 -52 -17 -59 -48h-82c9 72 68 115 147 115c64 0 125 -24 125 -95c0 -41 -27 -71 -70 -84c33 -7 59 -31 59 -76c0 -73 -69 -111 -147 -111z" />
    <glyph glyph-name="fiveeighths" unicode="&#x215d;" horiz-adv-x="793" 
d="M593 -6c-69 0 -143 27 -143 101c0 53 32 82 80 97c-26 13 -43 36 -43 65c0 68 68 103 136 103c62 0 128 -28 128 -94c0 -42 -22 -67 -61 -81c35 -15 52 -41 52 -77c0 -79 -73 -114 -149 -114zM544 105c0 -26 16 -46 51 -46c29 0 57 16 57 53c0 28 -19 47 -51 47
c-30 0 -57 -18 -57 -54zM572 252c0 -25 19 -40 44 -40c28 0 49 16 49 46c0 23 -18 39 -45 39c-25 0 -48 -16 -48 -45zM191 354c-72 0 -136 28 -139 113h87c3 -26 17 -44 50 -44c32 0 55 23 55 64c0 30 -16 48 -50 48c-26 0 -43 -10 -57 -27h-61l40 207h237l-11 -68h-170
l-15 -83c15 17 40 33 80 33c57 0 101 -36 101 -102c-1 -89 -60 -140 -147 -141zM66 0l603 715h79l-602 -715h-80z" />
    <glyph glyph-name="twothirds" unicode="&#x2154;" horiz-adv-x="813" 
d="M613 -6c-79 0 -143 32 -144 120h85c1 -31 19 -53 56 -53c28 0 56 14 56 50c0 28 -18 42 -50 42h-26l9 57h29c33 0 54 15 54 44c0 24 -12 40 -43 40c-29 0 -52 -18 -59 -49h-82c10 72 69 115 147 115c64 0 126 -24 126 -95c0 -41 -28 -71 -71 -84c34 -7 59 -31 59 -75
c0 -74 -69 -112 -146 -112zM24 360l2 14l149 131c44 39 77 70 77 106c0 26 -17 39 -39 39c-28 0 -49 -18 -59 -61h-86c13 85 73 131 151 131c65 0 125 -29 125 -103c0 -54 -36 -88 -100 -142l-54 -47h126l-10 -68h-282zM83 0l603 715h79l-602 -715h-80z" />
    <glyph glyph-name="seveneighths" unicode="&#x215e;" horiz-adv-x="750" 
d="M550 -6c-69 0 -143 27 -143 101c0 53 32 82 80 97c-26 13 -43 36 -43 65c0 68 68 103 136 103c62 0 128 -28 128 -94c0 -42 -22 -67 -61 -81c35 -15 52 -41 52 -77c0 -79 -73 -114 -149 -114zM501 105c0 -26 16 -46 51 -46c29 0 57 16 57 53c0 28 -19 47 -51 47
c-30 0 -57 -18 -57 -54zM529 252c0 -25 19 -40 44 -40c28 0 49 16 49 46c0 23 -18 39 -45 39c-25 0 -48 -16 -48 -45zM80 360l150 281h-155l12 74h275l-3 -11l-183 -344h-96zM11 0l603 715h79l-602 -715h-80z" />
    <glyph glyph-name="uni24C5" unicode="&#x24c5;" horiz-adv-x="843" 
d="M306 160v399h140c100 0 154 -44 154 -128v-3c0 -85 -57 -125 -150 -125h-49v-143h-95zM401 369h42c43 0 66 21 66 59v3c0 39 -23 55 -65 55h-43v-117zM432 32c173 0 321 133 321 327c0 191 -143 324 -319 324c-177 0 -321 -134 -321 -326c0 -194 149 -325 319 -325z
M432 -13c-206 0 -372 160 -372 370c0 207 165 371 374 371c212 0 373 -163 373 -369c0 -211 -165 -372 -375 -372z" />
    <glyph glyph-name="registered.alt" horiz-adv-x="843" 
d="M288 161v399h146c96 0 155 -39 155 -122v-2c0 -60 -34 -92 -79 -106l103 -169h-99l-93 152h-38v-152h-95zM383 377h48c43 0 65 18 65 55v3c0 38 -23 52 -65 52h-48v-110zM432 32c173 0 321 133 321 327c0 191 -143 324 -319 324c-177 0 -321 -134 -321 -326
c0 -194 149 -325 319 -325zM432 -13c-206 0 -372 160 -372 370c0 207 165 371 374 371c212 0 373 -163 373 -369c0 -211 -165 -372 -375 -372z" />
    <glyph glyph-name="dollar.old" horiz-adv-x="616" 
d="M300 -10h-2l-19 -121h-65l20 126c-129 20 -208 103 -209 219h120c2 -59 33 -109 103 -126l35 220c-126 34 -190 84 -190 189c0 119 107 203 252 205l14 87h65l-15 -91c108 -16 183 -77 187 -194h-116c-5 59 -37 88 -85 100l-32 -203c129 -37 200 -85 200 -191
c0 -135 -105 -220 -263 -220zM442 195c0 46 -22 72 -97 96l-33 -208c84 3 130 43 130 112zM210 509c0 -41 19 -65 90 -90l30 191c-76 -3 -120 -43 -120 -101z" />
    <glyph glyph-name="Euro.old" horiz-adv-x="671" 
d="M45 377l10 61h65c35 155 134 265 297 265c145 0 234 -78 237 -227h-122c-2 68 -35 128 -119 128c-93 0 -142 -65 -166 -166h195l-19 -61h-187l-11 -65h178l-19 -61h-165c-2 -78 22 -159 133 -159c74 0 132 38 157 141h118c-32 -165 -138 -243 -280 -243
c-174 0 -256 113 -253 261h-68l9 61h65l9 65h-64z" />
    <glyph glyph-name="sterling.old" horiz-adv-x="601" 
d="M48 295l13 82h60c-2 26 -4 52 -4 80c0 140 90 245 252 245c129 0 219 -60 219 -203h-123c-2 63 -27 103 -99 103c-94 0 -124 -73 -124 -156c0 -25 0 -47 1 -69h196l-14 -82h-178c1 -14 1 -28 1 -43c0 -45 -7 -83 -28 -119c54 -15 104 -38 141 -38c42 0 71 19 80 73h114
c-15 -104 -75 -177 -188 -177c-87 0 -163 57 -215 57c-35 0 -53 -23 -58 -48h-100c9 61 48 124 115 141c16 29 24 62 24 103c0 16 -1 33 -3 51h-82z" />
    <glyph glyph-name="yen.old" horiz-adv-x="586" 
d="M76 278l10 61h143l-139 355h135l98 -280l182 280h128l-243 -355h145l-9 -61h-161l-11 -66h160l-9 -61h-160l-24 -151h-128l23 151h-160l9 61h161l10 66h-160z" />
    <glyph glyph-name="zero.old" horiz-adv-x="655" 
d="M181 305c-3 -22 -5 -44 -5 -63c0 -92 41 -152 140 -152c93 0 147 66 167 192l5 33c4 22 5 47 5 66c0 93 -44 149 -135 149c-93 0 -152 -65 -172 -192zM312 -10c-164 0 -264 100 -264 257c0 21 2 45 5 67l6 33c28 181 145 282 301 282c163 0 261 -98 261 -254
c0 -21 -1 -47 -5 -70l-6 -33c-28 -182 -136 -282 -298 -282z" />
    <glyph glyph-name="one.old" horiz-adv-x="406" 
d="M140 0l77 491l-163 -100l17 114l181 114h112l-98 -619h-126z" />
    <glyph glyph-name="two.old" horiz-adv-x="559" 
d="M-30 0l4 23l278 220c65 52 153 122 153 199c0 59 -37 89 -97 89c-69 0 -117 -44 -137 -134h-115c23 147 124 232 262 232c120 0 217 -60 215 -179c-1 -109 -79 -169 -193 -257l-124 -96h275l-15 -97h-506z" />
    <glyph glyph-name="three.old" horiz-adv-x="604" 
d="M269 -105c-150 0 -258 76 -259 230h117c5 -87 52 -133 143 -133c80 1 139 44 139 130c0 71 -41 108 -121 108h-49l14 91h53c78 0 127 33 127 116c0 67 -44 95 -106 95c-72 0 -122 -42 -140 -120h-115c22 130 120 217 265 217c118 0 219 -56 219 -181
c0 -84 -46 -146 -132 -173c69 -23 111 -71 111 -155c0 -140 -118 -225 -266 -225z" />
    <glyph glyph-name="four.old" horiz-adv-x="638" 
d="M327 -95l23 146h-359l7 42l402 525h165l-75 -477h97l-14 -90h-97l-24 -146h-125zM145 141h221l60 377z" />
    <glyph glyph-name="five.old" horiz-adv-x="586" 
d="M8 104h119c6 -68 42 -111 123 -111c94 0 145 68 145 164c0 63 -36 120 -120 120c-69 0 -111 -26 -147 -62h-64l70 404h422l-16 -103h-325l-34 -202c33 30 82 55 146 55c119 0 198 -83 198 -200c0 -162 -105 -274 -278 -274c-131 0 -234 66 -239 209z" />
    <glyph glyph-name="six.old" horiz-adv-x="627" 
d="M302 -10c-167 0 -250 101 -251 242c0 33 5 76 10 108l5 32c38 234 160 353 324 353c122 0 213 -58 218 -186h-121c-6 54 -35 87 -104 87c-90 0 -157 -78 -189 -254c35 47 95 83 179 83c119 0 204 -76 204 -203c0 -157 -117 -262 -275 -262zM177 218
c-1 -75 39 -133 129 -133c84 0 143 69 143 159c0 68 -39 122 -121 122c-85 0 -151 -60 -151 -148z" />
    <glyph glyph-name="seven.old" horiz-adv-x="542" 
d="M49 -95l347 610h-331l16 103h496l-2 -15l-391 -698h-135z" />
    <glyph glyph-name="eight.old" horiz-adv-x="618" 
d="M287 -10c-129 0 -253 65 -253 194c0 108 74 176 165 200c-55 26 -87 73 -87 134c0 128 116 207 248 207c108 0 224 -53 224 -182c0 -86 -56 -141 -134 -169c70 -29 112 -84 112 -155c0 -148 -124 -229 -275 -229zM165 198c0 -65 47 -111 128 -111c72 0 140 45 140 135
c0 65 -45 110 -124 110c-77 0 -144 -46 -144 -134zM234 513c0 -54 42 -94 109 -94c64 0 118 40 118 115c0 57 -41 97 -105 97c-67 0 -122 -42 -122 -118z" />
    <glyph glyph-name="nine.old" horiz-adv-x="627" 
d="M341 629c168 0 248 -103 248 -244c0 -38 -3 -68 -8 -101l-5 -32c-40 -245 -157 -357 -326 -357c-129 0 -220 61 -226 194h121c8 -62 40 -95 109 -95c103 0 160 74 193 253c-36 -47 -96 -83 -179 -83c-119 0 -205 75 -205 202c0 154 119 263 278 263zM464 405
c0 74 -39 129 -128 129c-84 0 -145 -69 -145 -159c0 -68 40 -122 122 -122c84 0 151 63 151 152z" />
    <glyph glyph-name="dollar.tab" 
d="M292 -10h-3l-20 -125h-64l20 130c-133 21 -210 108 -207 226h118c1 -60 31 -112 105 -129l35 225c-126 36 -189 87 -189 194c0 122 105 212 254 213l14 89h64l-15 -94c111 -16 183 -80 185 -200h-112c-5 60 -38 91 -88 103l-33 -209c129 -36 199 -86 199 -195
c0 -137 -101 -228 -263 -228zM436 201c0 48 -21 74 -98 99l-34 -214c83 2 132 45 132 115zM204 523c0 -41 19 -67 90 -92l31 197c-83 -3 -121 -48 -121 -105z" />
    <glyph glyph-name="Euro.tab" 
d="M33 389l10 63h57c33 180 130 273 274 272c141 0 218 -80 214 -226h-117c-1 73 -23 125 -100 125c-80 0 -125 -53 -146 -171h187l-21 -63h-176l-11 -67h164l-22 -64h-151c-8 -87 8 -164 114 -164c66 0 112 34 135 135h115c-33 -174 -130 -239 -255 -239
c-168 0 -245 105 -233 268h-58l10 64h56l11 67h-57z" />
    <glyph glyph-name="sterling.tab" 
d="M46 304l13 85h61c-2 26 -4 54 -4 83c0 144 88 252 251 252c138 0 221 -66 216 -209h-119c-1 65 -27 104 -100 104c-95 0 -124 -76 -124 -160c0 -25 0 -48 1 -70h192l-13 -85h-175c1 -12 1 -24 1 -36c0 -50 -7 -91 -29 -129c53 -14 102 -38 140 -38c41 0 73 18 81 73h113
c-16 -113 -78 -183 -189 -183c-87 0 -157 59 -210 59c-34 0 -52 -24 -58 -50h-100c9 64 48 127 113 145c16 31 25 68 25 108c0 16 -1 33 -3 51h-83z" />
    <glyph glyph-name="yen.tab" 
d="M82 287l10 63h150l-133 365h136l88 -278l173 278h128l-240 -365h152l-10 -63h-162l-11 -67h162l-10 -64h-162l-24 -156h-132l24 156h-160l10 64h160l11 67h-160z" />
    <glyph glyph-name="zero.tab" 
d="M175 297c-4 -26 -7 -51 -7 -73c0 -74 28 -131 114 -131c87 0 129 53 150 188l22 135c4 26 6 51 6 74c0 75 -26 133 -111 133c-86 0 -132 -60 -152 -191zM277 -10c-151 0 -233 92 -232 232c0 32 2 57 6 84l22 135c30 190 131 284 280 284c155 0 230 -93 230 -235
c0 -26 -1 -54 -6 -83l-22 -135c-30 -189 -123 -282 -278 -282z" />
    <glyph glyph-name="one.tab" 
d="M247 0l91 577l-215 -142l19 121l227 159h127l-113 -715h-136z" />
    <glyph glyph-name="two.tab" 
d="M-12 0l3 24l311 285c62 57 135 135 135 219c0 51 -29 94 -91 94c-65 1 -112 -33 -137 -143h-124c25 166 126 246 273 245c115 0 212 -62 212 -188c1 -114 -76 -195 -181 -286l-170 -145h292l-16 -105h-507z" />
    <glyph glyph-name="three.tab" 
d="M277 -10c-153 0 -256 78 -254 231h120c2 -73 36 -130 133 -130c87 0 138 42 138 133c0 58 -34 99 -114 99h-47l15 95h61c65 0 119 32 119 112c0 58 -37 93 -100 93c-72 0 -123 -38 -141 -118h-117c21 134 123 219 265 219c106 0 217 -51 217 -182
c0 -85 -50 -149 -134 -172c67 -21 107 -74 107 -149c0 -143 -110 -231 -268 -231z" />
    <glyph glyph-name="four.tab" 
d="M319 0l22 144h-329l8 46l373 525h163l-74 -473h79l-16 -98h-79l-23 -144h-124zM163 242h196l57 364z" />
    <glyph glyph-name="five.tab" 
d="M268 -10c-140 0 -234 72 -235 216h121c3 -68 37 -112 116 -112c90 0 143 66 143 167c0 70 -38 118 -119 118c-66 0 -109 -27 -143 -63h-66l69 399h422l-16 -105h-323l-32 -192c32 30 81 57 146 57c117 0 195 -79 195 -204c0 -163 -109 -281 -278 -281z" />
    <glyph glyph-name="six.tab" 
d="M292 -10c-156 0 -248 85 -248 248c0 30 4 63 9 96l7 45c30 184 126 345 320 345c135 0 208 -66 210 -188h-117c-4 53 -28 88 -100 88c-112 0 -165 -114 -188 -245c37 49 97 85 172 85c115 0 202 -77 202 -203c0 -155 -107 -271 -267 -271zM166 217
c0 -68 40 -127 127 -127c85 0 141 69 141 161c0 65 -38 120 -122 120c-83 0 -146 -61 -146 -154z" />
    <glyph glyph-name="seven.tab" 
d="M100 0l330 607h-333l18 108h503l-3 -16l-378 -699h-137z" />
    <glyph glyph-name="eight.tab" 
d="M283 -10c-121 0 -249 60 -249 195c0 103 62 173 158 204c-50 25 -83 74 -83 131c0 125 112 204 242 204c108 0 219 -60 219 -180c0 -89 -50 -137 -126 -166c66 -28 106 -87 106 -157c0 -152 -122 -231 -267 -231zM162 204c0 -69 53 -112 126 -112c80 0 137 48 137 133
c0 68 -51 110 -120 110c-81 0 -143 -46 -143 -131zM228 519c0 -53 42 -96 108 -96c59 0 114 33 114 108c0 54 -42 97 -105 97s-117 -37 -117 -109z" />
    <glyph glyph-name="nine.tab" 
d="M253 -9c-128 0 -219 60 -225 196h120c9 -70 46 -96 114 -96c93 0 156 78 181 241c-35 -48 -96 -81 -171 -81c-111 0 -201 72 -201 203c0 154 109 271 273 271c152 0 238 -86 239 -245c0 -30 -3 -63 -8 -98l-9 -55c-37 -231 -142 -336 -313 -336zM195 465
c0 -70 40 -120 113 -120c85 0 155 52 155 153c0 66 -35 128 -122 128c-86 0 -146 -67 -146 -161z" />
    <glyph glyph-name="cent.tab" 
d="M220 -135l20 131c-116 21 -193 104 -193 230c0 186 126 302 279 307l15 96h66l-16 -100c98 -16 168 -77 172 -192h-111c-3 57 -32 87 -76 98l-56 -355c60 5 106 39 123 113h109c-23 -130 -120 -201 -246 -203l-20 -125h-66zM167 226c0 -77 31 -124 88 -140l56 353
c-83 -10 -144 -83 -144 -213z" />
    <glyph glyph-name="percent.tab" horiz-adv-x="800" 
d="M174 537c0 -39 15 -76 67 -76c52 1 81 48 81 106c0 38 -17 78 -67 78c-56 0 -81 -49 -81 -108zM238 383c-92 0 -161 62 -161 154c0 100 77 185 182 185c93 0 159 -65 159 -157c0 -98 -77 -182 -180 -182zM92 0l559 715h87l-559 -715h-87zM506 144c0 -38 15 -75 67 -75
s81 47 81 105c0 38 -16 78 -66 78c-56 0 -82 -49 -82 -108zM570 -10c-92 0 -160 63 -160 154c0 101 77 185 181 185c93 0 159 -64 159 -156c0 -99 -77 -183 -180 -183z" />
    <glyph glyph-name="perthousand.tab" horiz-adv-x="1000" 
d="M165 525c0 -35 15 -59 46 -59c53 0 66 76 66 120c0 36 -12 62 -44 62c-54 0 -68 -75 -68 -123zM207 392c-75 0 -132 49 -132 136c1 99 56 194 161 194c75 0 131 -49 131 -137c0 -93 -53 -193 -160 -193zM32 0l562 715h87l-562 -715h-87zM432 124c0 -36 15 -59 45 -59
c54 0 67 75 67 120c0 36 -13 62 -44 62c-54 0 -68 -76 -68 -123zM474 -10c-75 0 -133 50 -132 137c1 99 56 193 161 193c75 0 130 -48 130 -137c0 -92 -53 -193 -159 -193zM751 124c0 -36 15 -59 46 -59c54 0 67 75 67 120c0 36 -13 62 -45 62c-53 0 -68 -76 -68 -123z
M794 -10c-76 0 -133 50 -132 137c0 99 55 193 161 193c74 0 130 -48 130 -137c0 -92 -53 -193 -159 -193z" />
    <glyph glyph-name="plus.tab" 
d="M223 99l31 195h-180l15 94h180l31 195h101l-31 -195h180l-15 -94h-180l-31 -195h-101z" />
    <glyph glyph-name="minus.tab" 
d="M73 293l16 96h461l-15 -96h-462z" />
    <glyph glyph-name="multiply.tab" 
d="M131 115l-58 68l173 153l-132 153l72 66l133 -154l173 153l60 -68l-174 -153l133 -154l-74 -65l-133 154z" />
    <glyph glyph-name="divide.tab" 
d="M74 296l14 91h462l-15 -91h-461zM287 71c-42 0 -75 33 -75 75s33 75 75 75c43 0 77 -33 77 -75s-34 -75 -77 -75zM335 461c-42 0 -75 33 -75 75s33 76 75 76c43 0 77 -34 77 -76s-34 -75 -77 -75z" />
    <glyph glyph-name="equal.tab" 
d="M73 185l14 91h429l-15 -91h-428zM102 371l14 92h429l-15 -92h-428z" />
    <glyph glyph-name="less.tab" 
d="M470 81l-371 233l4 26l442 223l-17 -115l-264 -125l223 -134z" />
    <glyph glyph-name="greater.tab" 
d="M148 564l370 -233l-4 -26l-442 -224l17 117l264 125l-222 134z" />
    <glyph glyph-name="florin.tab" 
d="M113 324l15 90h107l25 131c24 129 109 179 209 179c40 0 65 -6 84 -14l-14 -92c-16 6 -36 10 -63 10c-46 0 -86 -25 -98 -93l-23 -121h139l-14 -90h-142l-94 -506h-121l95 506h-105z" />
    <glyph glyph-name="plusminus.tab" 
d="M232 157l28 175h-183l15 94h183l28 176h100l-28 -176h183l-15 -94h-182l-28 -175h-101zM25 0l14 89h467l-14 -89h-467z" />
    <glyph glyph-name="notequal.tab" 
d="M99 371l15 92h220l51 100h92l-51 -100h121l-14 -92h-153l-48 -95h186l-14 -91h-217l-51 -101h-92l51 101h-125l14 91h156l48 95h-189z" />
    <glyph glyph-name="approxequal.tab" 
d="M95 342c15 100 71 143 133 143c74 0 146 -43 198 -43c22 0 44 15 49 45h79c-13 -97 -70 -142 -130 -142c-76 0 -149 43 -200 43c-23 0 -43 -16 -50 -46h-79zM63 148c15 100 71 142 133 142c74 0 147 -42 198 -42c23 0 44 15 50 45h79c-14 -97 -71 -142 -130 -142
c-77 0 -149 43 -200 43c-23 0 -43 -16 -51 -46h-79z" />
    <glyph glyph-name="lessequal.tab" 
d="M471 128l-365 217l4 26l433 209l-18 -115l-241 -111l204 -117zM53 0l14 89h398l-13 -89h-399z" />
    <glyph glyph-name="greaterequal.tab" 
d="M64 0l14 89h399l-14 -89h-399zM155 580l365 -217l-4 -25l-432 -210l18 115l240 112l-204 116z" />
    <glyph glyph-name="parenleft.tab" horiz-adv-x="300" 
d="M124 -148c-41 82 -83 184 -83 348c0 213 85 409 222 574h103c-129 -171 -211 -372 -211 -577c-1 -154 31 -264 67 -345h-98z" />
    <glyph glyph-name="parenright.tab" horiz-adv-x="300" 
d="M190 774c41 -82 83 -184 83 -348c0 -213 -85 -409 -222 -574h-103c129 171 211 372 211 577c1 154 -31 263 -67 345h98z" />
    <glyph glyph-name="bracketleft.tab" horiz-adv-x="300" 
d="M-6 -148l146 924h212l-13 -86h-98l-119 -752h98l-14 -86h-212z" />
    <glyph glyph-name="bracketright.tab" horiz-adv-x="300" 
d="M-38 -148l14 86h98l119 752h-98l13 86h212l-146 -924h-212z" />
    <glyph glyph-name="braceleft.tab" horiz-adv-x="300" 
d="M206 -147c-158 5 -205 89 -153 229l34 91c21 56 10 91 -62 109l12 81c78 11 97 47 95 97l-2 115c-5 154 74 203 223 202l-13 -83c-72 -1 -100 -24 -100 -115l-1 -114c1 -84 -42 -123 -119 -146c68 -26 101 -71 70 -160l-31 -90c-32 -91 -16 -126 60 -132z" />
    <glyph glyph-name="braceright.tab" horiz-adv-x="300" 
d="M109 777c158 -5 205 -89 153 -229l-34 -91c-21 -55 -10 -91 62 -109l-12 -80c-78 -12 -97 -48 -96 -98l2 -115c6 -154 -73 -203 -223 -202l14 83c72 1 100 24 100 116v113c0 84 43 123 120 146c-68 27 -101 71 -70 161l31 89c32 92 16 127 -60 132z" />
    <glyph glyph-name="period.tab" horiz-adv-x="300" 
d="M119 -7c-45 0 -80 34 -80 78s34 79 79 79c44 0 81 -35 81 -79s-36 -78 -80 -78z" />
    <glyph glyph-name="comma.tab" horiz-adv-x="300" 
d="M53 -123l-69 34l113 236l108 -46z" />
    <glyph glyph-name="colon.tab" horiz-adv-x="300" 
d="M118 -7c-44 0 -79 34 -79 78s34 79 78 79c45 0 81 -35 81 -79s-35 -78 -80 -78zM166 285c-45 0 -80 35 -80 79s34 78 79 78c44 0 81 -34 81 -78s-36 -79 -80 -79z" />
    <glyph glyph-name="semicolon.tab" horiz-adv-x="300" 
d="M39 -123l-70 34l114 236l107 -46zM172 285c-45 0 -79 35 -79 79s33 78 78 78s81 -34 81 -78s-35 -79 -80 -79z" />
    <glyph glyph-name="space.tab" horiz-adv-x="300" 
 />
    <glyph glyph-name="dollar.oldtab" 
d="M292 -9h-3l-19 -122h-63l20 127c-130 20 -205 104 -203 218h113c2 -59 32 -111 104 -127l35 221c-123 35 -184 84 -184 188c0 118 101 204 246 206l14 87h63l-15 -91c108 -16 178 -78 180 -194h-107c-6 60 -38 89 -87 100l-32 -204c125 -36 194 -85 194 -190
c0 -133 -99 -219 -256 -219zM433 194c0 47 -21 72 -97 97l-33 -210c82 2 130 43 130 113zM205 508c0 -41 18 -65 89 -90l30 192c-82 -3 -119 -46 -119 -102z" />
    <glyph glyph-name="Euro.oldtab" 
d="M46 377l9 62h56c32 173 126 264 265 264c137 -1 212 -79 208 -219h-112c-1 71 -23 122 -99 122c-78 0 -122 -52 -143 -167h184l-22 -62h-172l-10 -65h160l-21 -61h-148c-8 -86 7 -162 112 -162c65 0 110 34 133 133h109c-32 -169 -126 -232 -246 -232
c-164 0 -238 102 -227 261h-57l10 61h55l10 65h-54z" />
    <glyph glyph-name="sterling.oldtab" 
d="M53 295l13 82h60c-3 25 -4 53 -4 81c0 140 84 244 243 244c133 0 212 -64 209 -201h-115c-1 63 -27 100 -97 100c-94 0 -121 -73 -121 -155c0 -25 0 -47 1 -69h186l-13 -82h-169c1 -12 1 -24 1 -36c0 -48 -7 -89 -28 -126c52 -15 100 -38 135 -38c41 0 72 19 81 73h106
c-15 -109 -75 -177 -182 -177c-83 0 -153 57 -203 57c-34 0 -52 -23 -57 -48h-96c9 61 46 123 109 140c17 30 25 66 25 105c0 16 -1 32 -3 50h-81z" />
    <glyph glyph-name="yen.oldtab" 
d="M88 283l10 61h146l-132 350h131l90 -271l171 271h119l-233 -350h147l-9 -61h-158l-10 -66h157l-10 -61h-157l-24 -156h-126l24 156h-155l10 61h155l10 66h-156z" />
    <glyph glyph-name="zero.oldtab" 
d="M282 93c84 0 126 56 143 161l15 94c3 22 5 40 5 58c0 79 -38 123 -109 123c-84 0 -131 -61 -147 -163l-15 -94c-3 -21 -5 -42 -5 -60c0 -70 30 -119 113 -119zM277 -10c-146 0 -232 87 -232 222c0 25 1 45 4 66l15 94c25 161 129 257 276 257s229 -93 229 -225
c0 -20 -2 -42 -5 -63l-15 -94c-25 -164 -122 -257 -272 -257z" />
    <glyph glyph-name="one.oldtab" 
d="M255 0l77 490l-214 -133l18 115l230 147h113l-98 -619h-126z" />
    <glyph glyph-name="two.oldtab" 
d="M-5 0l3 23l276 219c68 55 149 123 149 200c0 59 -35 89 -95 89c-69 0 -115 -44 -134 -134h-116c24 149 122 232 260 232c110 0 215 -54 213 -178c-1 -113 -82 -173 -191 -258l-123 -96h272l-15 -97h-499z" />
    <glyph glyph-name="three.oldtab" 
d="M269 -105c-150 0 -256 78 -255 230h117c4 -88 48 -133 139 -133c79 0 135 44 135 130c0 70 -40 108 -116 108h-48l14 91h52c78 0 125 34 125 117c0 66 -44 94 -104 94c-72 0 -119 -42 -137 -120h-115c21 133 120 217 260 217c110 0 218 -51 218 -180
c0 -83 -43 -146 -132 -174c68 -22 109 -71 109 -154c0 -141 -116 -226 -262 -226z" />
    <glyph glyph-name="four.oldtab" 
d="M302 -95l24 146h-328l6 41l371 526h161l-75 -477h87l-14 -90h-87l-24 -146h-121zM139 141h202l60 375z" />
    <glyph glyph-name="five.oldtab" 
d="M25 104h116c5 -68 39 -111 119 -111c95 0 142 67 142 165c0 62 -34 119 -117 119c-65 0 -106 -24 -143 -62h-62l69 404h413l-17 -102h-316l-34 -204c32 31 78 58 141 58c115 0 193 -80 193 -200c0 -159 -95 -276 -270 -276c-136 0 -232 70 -234 209z" />
    <glyph glyph-name="six.oldtab" 
d="M291 -10c-158 0 -237 98 -237 239c0 38 5 72 9 102l7 45c37 230 159 348 311 348c128 0 209 -57 211 -185h-117c-4 54 -31 88 -99 88c-82 0 -153 -76 -185 -254c36 48 91 82 171 82c118 0 190 -78 190 -200c0 -155 -106 -265 -261 -265zM173 218c0 -74 33 -131 120 -131
c82 0 138 68 139 157c0 67 -32 121 -114 121c-83 0 -145 -60 -145 -147z" />
    <glyph glyph-name="seven.oldtab" 
d="M74 -95l345 610h-326l16 103h491l-3 -15l-388 -698h-135z" />
    <glyph glyph-name="eight.oldtab" 
d="M282 -10c-121 0 -242 63 -242 193c0 106 67 174 159 201c-53 26 -84 72 -84 134c0 126 111 206 238 206c105 0 210 -53 210 -180c0 -88 -49 -143 -129 -172c68 -29 108 -82 108 -155c0 -147 -123 -227 -260 -227zM165 196c0 -62 44 -108 122 -108c69 0 132 45 132 134
c0 63 -41 108 -116 108s-138 -47 -138 -134zM232 513c0 -54 39 -93 103 -93c61 0 111 40 111 114c0 56 -37 97 -99 97c-64 0 -115 -43 -115 -118z" />
    <glyph glyph-name="nine.oldtab" 
d="M319 629c157 0 235 -97 235 -244c0 -31 -3 -61 -8 -91l-7 -45c-39 -246 -141 -354 -309 -354c-127 0 -216 59 -221 193h117c6 -60 37 -96 106 -96c100 0 152 73 184 254c-35 -48 -90 -82 -169 -82c-115 0 -193 78 -193 201c0 154 115 264 265 264zM435 405
c0 74 -35 128 -121 128c-80 0 -139 -68 -139 -157c0 -68 36 -121 116 -121s144 63 144 150z" />
    <glyph glyph-name="zero.num" horiz-adv-x="378" 
d="M160 500c0 -37 14 -74 62 -74c62 0 81 81 81 147c0 38 -15 75 -59 75c-69 0 -84 -94 -84 -148zM218 354c-93 0 -151 55 -151 147c0 116 62 219 180 219c90 0 149 -53 149 -148c0 -119 -58 -218 -178 -218z" />
    <glyph glyph-name="one.num" horiz-adv-x="253" 
d="M119 360l41 263l-89 -51l12 80l104 63h82l-57 -355h-93z" />
    <glyph glyph-name="two.num" horiz-adv-x="313" 
d="M21 360l2 14l149 131c44 39 77 70 77 106c0 26 -17 39 -39 39c-28 0 -49 -18 -59 -61h-86c13 85 73 131 151 131c65 0 125 -29 125 -103c0 -54 -36 -88 -100 -142l-54 -47h126l-10 -68h-282z" />
    <glyph glyph-name="three.num" horiz-adv-x="336" 
d="M195 354c-78 0 -142 32 -143 120h85c1 -32 18 -54 56 -54c27 0 56 15 56 51c0 28 -18 41 -51 41h-25l8 58h30c33 0 54 15 54 44c0 24 -12 39 -43 39c-30 0 -52 -17 -59 -48h-82c9 72 68 115 147 115c64 0 125 -24 125 -95c0 -41 -27 -71 -70 -84c33 -7 59 -31 59 -76
c0 -73 -69 -111 -147 -111z" />
    <glyph glyph-name="four.num" horiz-adv-x="347" 
d="M207 360l11 69h-178l6 34l193 252h114l-35 -222h46l-10 -64h-46l-11 -69h-90zM141 493h89l24 153z" />
    <glyph glyph-name="five.num" horiz-adv-x="327" 
d="M188 354c-72 0 -136 28 -139 113h87c3 -26 17 -44 50 -44c32 0 55 23 55 64c0 30 -16 48 -50 48c-26 0 -43 -10 -57 -27h-61l40 207h237l-11 -68h-170l-15 -83c15 17 40 33 80 33c57 0 101 -36 101 -102c-1 -89 -60 -140 -147 -141z" />
    <glyph glyph-name="six.num" horiz-adv-x="348" 
d="M209 354c-86 0 -142 48 -142 134c0 14 1 30 4 46l2 13c17 109 85 173 175 173c66 0 121 -29 124 -102h-85c-4 22 -16 34 -43 34c-40 0 -66 -36 -79 -99c19 23 46 38 86 38c57 0 107 -35 107 -100c0 -86 -64 -137 -149 -137zM158 470c0 -27 16 -52 52 -52
c32 0 57 24 57 65c0 28 -15 50 -49 50c-33 0 -60 -22 -60 -63z" />
    <glyph glyph-name="seven.num" horiz-adv-x="298" 
d="M77 360l150 281h-155l12 74h275l-3 -11l-183 -344h-96z" />
    <glyph glyph-name="eight.num" horiz-adv-x="340" 
d="M200 354c-70 0 -143 26 -143 100c0 54 32 83 79 98c-25 13 -42 35 -42 64c0 69 67 104 136 104c61 0 128 -28 128 -94c0 -42 -22 -67 -62 -81c35 -15 53 -41 53 -77c0 -79 -73 -114 -149 -114zM150 465c0 -26 17 -46 51 -46c30 0 57 16 57 53c0 28 -18 47 -50 47
c-30 0 -58 -18 -58 -54zM179 611c0 -24 19 -39 43 -39c29 0 50 16 50 46c0 22 -18 39 -45 39c-25 0 -48 -16 -48 -46z" />
    <glyph glyph-name="nine.num" horiz-adv-x="348" 
d="M225 720c86 0 139 -45 140 -127c0 -20 -2 -41 -4 -57l-2 -13c-17 -111 -74 -169 -172 -169c-72 0 -126 28 -130 104h85c4 -23 14 -36 48 -36c43 0 67 37 77 99c-18 -22 -46 -37 -86 -37c-56 0 -107 34 -107 99c0 85 67 137 151 137zM274 604c0 27 -15 52 -50 52
c-32 0 -59 -24 -59 -65c0 -28 14 -50 49 -50c33 0 60 22 60 63z" />
    <glyph glyph-name="zero.den" horiz-adv-x="378" 
d="M103 141c0 -38 14 -75 62 -75c62 0 82 81 82 147c0 38 -16 76 -60 76c-68 0 -84 -95 -84 -148zM162 -6c-93 0 -151 55 -151 147c0 117 62 219 179 219c90 0 149 -53 149 -148c0 -119 -58 -218 -177 -218z" />
    <glyph glyph-name="one.den" horiz-adv-x="253" 
d="M62 0l41 263l-89 -51l13 80l104 63h81l-56 -355h-94z" />
    <glyph glyph-name="two.den" horiz-adv-x="313" 
d="M-36 0l3 14l148 132c44 38 77 69 77 105c0 26 -17 39 -39 39c-28 0 -49 -17 -59 -61h-85c13 85 73 131 150 131c65 0 125 -29 125 -103c0 -54 -36 -87 -100 -142l-54 -47h127l-11 -68h-282z" />
    <glyph glyph-name="three.den" horiz-adv-x="336" 
d="M139 -6c-79 0 -143 32 -144 120h85c1 -31 19 -53 56 -53c28 0 56 14 56 50c0 28 -18 42 -50 42h-26l9 57h29c33 0 54 15 54 44c0 24 -12 40 -43 40c-29 0 -52 -18 -59 -49h-82c10 72 69 115 147 115c64 0 126 -24 126 -95c0 -41 -28 -71 -71 -84c34 -7 59 -31 59 -75
c0 -74 -69 -112 -146 -112z" />
    <glyph glyph-name="four.den" horiz-adv-x="347" 
d="M150 0l11 69h-178l6 34l194 252h113l-35 -222h47l-11 -64h-46l-11 -69h-90zM85 133h89l23 153z" />
    <glyph glyph-name="five.den" horiz-adv-x="327" 
d="M131 -6c-72 0 -135 29 -138 113h87c2 -26 16 -43 50 -43c31 0 54 23 54 63c0 31 -16 49 -49 49c-27 0 -44 -11 -58 -27h-61l40 206h237l-10 -68h-170l-16 -82c15 16 40 32 81 32c56 0 101 -35 100 -102c-1 -89 -59 -140 -147 -141z" />
    <glyph glyph-name="six.den" horiz-adv-x="348" 
d="M152 -6c-86 0 -141 48 -142 134c0 15 2 30 4 46l2 13c17 110 85 173 175 173c67 0 121 -28 124 -102h-84c-4 23 -17 34 -43 34c-41 0 -67 -36 -80 -99c19 23 46 38 87 38c56 0 106 -35 106 -99c0 -87 -63 -138 -149 -138zM101 110c0 -27 16 -51 52 -51c33 0 58 24 58 64
c0 28 -15 51 -50 51c-32 0 -60 -23 -60 -64z" />
    <glyph glyph-name="seven.den" horiz-adv-x="298" 
d="M20 0l150 281h-154l12 74h274l-2 -10l-183 -345h-97z" />
    <glyph glyph-name="eight.den" horiz-adv-x="340" 
d="M143 -6c-69 0 -143 27 -143 101c0 53 32 82 80 97c-26 13 -43 36 -43 65c0 68 68 103 136 103c62 0 128 -28 128 -94c0 -42 -22 -67 -61 -81c35 -15 52 -41 52 -77c0 -79 -73 -114 -149 -114zM94 105c0 -26 16 -46 51 -46c29 0 57 16 57 53c0 28 -19 47 -51 47
c-30 0 -57 -18 -57 -54zM122 252c0 -25 19 -40 44 -40c28 0 49 16 49 46c0 23 -18 39 -45 39c-25 0 -48 -16 -48 -45z" />
    <glyph glyph-name="nine.den" horiz-adv-x="348" 
d="M168 361c86 0 140 -46 140 -128c0 -19 -1 -41 -4 -57l-2 -13c-17 -111 -74 -169 -172 -169c-71 0 -126 29 -129 105h84c4 -24 15 -36 49 -36c43 0 66 36 77 98c-19 -22 -46 -37 -86 -37c-57 0 -107 34 -107 100c0 84 67 137 150 137zM218 245c0 26 -15 51 -51 51
c-31 0 -58 -24 -58 -65c0 -28 13 -50 49 -50c32 0 60 23 60 64z" />
    <glyph glyph-name="zero.sub" horiz-adv-x="378" 
d="M87 41c0 -38 14 -75 62 -75c62 0 82 81 82 147c0 38 -16 76 -60 76c-68 0 -84 -95 -84 -148zM145 -106c-93 0 -150 55 -150 147c0 117 61 219 179 219c90 0 149 -53 149 -148c0 -119 -58 -218 -178 -218z" />
    <glyph glyph-name="one.sub" horiz-adv-x="253" 
d="M46 -100l41 263l-89 -51l12 80l105 63h81l-56 -355h-94z" />
    <glyph glyph-name="two.sub" horiz-adv-x="313" 
d="M-52 -100l3 14l148 132c44 38 77 69 77 105c0 26 -17 39 -39 39c-28 0 -49 -17 -59 -61h-85c13 85 73 131 150 131c65 0 125 -29 125 -103c0 -54 -36 -87 -100 -142l-54 -47h127l-11 -68h-282z" />
    <glyph glyph-name="three.sub" horiz-adv-x="336" 
d="M123 -106c-79 0 -143 32 -144 120h85c1 -31 19 -53 56 -53c27 0 56 14 56 50c0 28 -18 42 -51 42h-25l9 57h29c33 0 54 15 54 44c0 24 -12 40 -43 40c-29 0 -52 -18 -59 -49h-82c10 72 68 115 147 115c64 0 126 -24 126 -95c0 -41 -28 -71 -71 -84c34 -7 59 -31 59 -75
c0 -74 -69 -112 -146 -112z" />
    <glyph glyph-name="four.sub" horiz-adv-x="347" 
d="M134 -100l11 69h-178l6 34l194 252h113l-35 -222h47l-11 -64h-46l-11 -69h-90zM69 33h89l23 153z" />
    <glyph glyph-name="five.sub" horiz-adv-x="327" 
d="M115 -106c-72 0 -135 29 -138 113h87c2 -26 16 -43 50 -43c31 0 54 23 54 63c0 31 -16 49 -50 49c-26 0 -43 -11 -57 -27h-61l40 206h237l-10 -68h-170l-16 -82c15 16 40 32 80 32c57 0 102 -35 101 -102c-1 -89 -59 -140 -147 -141z" />
    <glyph glyph-name="six.sub" horiz-adv-x="348" 
d="M136 -106c-86 0 -141 48 -142 134c0 15 2 30 4 46l2 13c17 110 85 173 175 173c67 0 121 -28 124 -102h-84c-4 23 -17 34 -44 34c-40 0 -66 -36 -79 -99c19 23 46 38 86 38c57 0 107 -35 107 -99c0 -87 -63 -138 -149 -138zM85 10c0 -27 16 -51 52 -51c33 0 57 24 57 64
c0 28 -14 51 -49 51c-32 0 -60 -23 -60 -64z" />
    <glyph glyph-name="seven.sub" horiz-adv-x="298" 
d="M4 -100l150 281h-155l13 74h274l-2 -10l-183 -345h-97z" />
    <glyph glyph-name="eight.sub" horiz-adv-x="340" 
d="M127 -106c-69 0 -143 27 -143 101c0 53 32 82 80 97c-26 13 -43 36 -43 65c0 68 68 103 136 103c62 0 128 -28 128 -94c0 -42 -22 -67 -61 -81c35 -15 52 -41 52 -77c0 -79 -73 -114 -149 -114zM78 5c0 -26 16 -46 51 -46c29 0 56 16 56 53c0 28 -18 47 -50 47
c-30 0 -57 -18 -57 -54zM106 152c0 -25 19 -40 43 -40c29 0 50 16 50 46c0 23 -18 39 -45 39c-25 0 -48 -16 -48 -45z" />
    <glyph glyph-name="nine.sub" horiz-adv-x="348" 
d="M152 261c86 0 140 -46 140 -128c0 -19 -1 -41 -4 -57l-2 -13c-17 -111 -74 -169 -172 -169c-72 0 -126 29 -129 105h84c4 -24 15 -36 49 -36c43 0 66 36 77 98c-19 -22 -46 -37 -86 -37c-57 0 -107 34 -107 100c0 84 67 137 150 137zM202 145c0 26 -16 51 -51 51
c-31 0 -58 -24 -58 -65c0 -28 13 -50 49 -50c32 0 60 23 60 64z" />
    <glyph glyph-name="plus.sub" horiz-adv-x="346" 
d="M86 -58l16 103h-99l11 68h99l17 104h71l-17 -104h99l-11 -68h-99l-16 -103h-71z" />
    <glyph glyph-name="minus.sub" horiz-adv-x="346" 
d="M3 45l11 68h269l-11 -68h-269z" />
    <glyph glyph-name="zero.sup" horiz-adv-x="378" 
d="M168 558c0 -37 14 -74 62 -74c62 0 81 81 81 147c0 38 -16 75 -59 75c-69 0 -84 -94 -84 -148zM226 412c-93 0 -151 55 -151 147c0 116 62 219 180 219c90 0 149 -53 149 -148c0 -119 -58 -218 -178 -218z" />
    <glyph glyph-name="one.sup" horiz-adv-x="253" 
d="M127 418l41 263l-89 -51l12 80l104 63h82l-57 -355h-93z" />
    <glyph glyph-name="two.sup" horiz-adv-x="313" 
d="M29 418l2 14l149 131c44 39 77 70 77 106c0 26 -18 39 -39 39c-28 0 -49 -18 -59 -61h-86c13 85 73 131 151 131c65 0 125 -29 125 -103c0 -54 -36 -88 -100 -142l-54 -47h126l-11 -68h-281z" />
    <glyph glyph-name="three.sup" horiz-adv-x="336" 
d="M203 412c-78 0 -142 32 -143 120h84c2 -32 19 -54 57 -54c27 0 55 15 55 51c0 28 -17 41 -50 41h-25l8 58h30c33 0 54 15 54 44c0 24 -12 39 -43 39c-30 0 -52 -17 -59 -48h-82c9 72 68 115 147 115c64 0 125 -24 125 -95c0 -41 -27 -71 -70 -84c33 -7 59 -31 59 -76
c0 -73 -69 -111 -147 -111z" />
    <glyph glyph-name="four.sup" horiz-adv-x="347" 
d="M215 418l11 69h-178l6 34l193 252h114l-35 -222h46l-10 -64h-46l-11 -69h-90zM149 551h89l24 153z" />
    <glyph glyph-name="five.sup" horiz-adv-x="327" 
d="M196 412c-72 0 -136 28 -139 113h87c3 -26 17 -44 50 -44c32 0 55 23 55 64c0 30 -16 48 -50 48c-26 0 -43 -10 -57 -27h-61l40 207h237l-11 -68h-170l-15 -83c15 17 40 33 80 33c57 0 101 -36 101 -102c-1 -89 -60 -140 -147 -141z" />
    <glyph glyph-name="six.sup" horiz-adv-x="348" 
d="M217 412c-86 0 -142 48 -142 134c0 14 1 30 4 46l2 13c17 109 85 173 175 173c66 0 121 -29 124 -102h-85c-4 22 -16 34 -43 34c-40 0 -66 -36 -79 -99c19 23 46 38 86 38c57 0 107 -35 107 -100c0 -86 -64 -137 -149 -137zM166 528c0 -27 16 -52 52 -52
c32 0 57 24 57 65c0 28 -15 50 -49 50c-33 0 -60 -22 -60 -63z" />
    <glyph glyph-name="seven.sup" horiz-adv-x="298" 
d="M85 418l150 281h-155l12 74h275l-3 -11l-183 -344h-96z" />
    <glyph glyph-name="eight.sup" horiz-adv-x="340" 
d="M208 412c-70 0 -143 26 -143 100c0 54 32 83 79 98c-25 13 -42 35 -42 64c0 69 67 104 136 104c61 0 128 -28 128 -94c0 -42 -22 -67 -62 -81c35 -15 53 -41 53 -77c0 -79 -73 -114 -149 -114zM158 523c0 -26 17 -46 51 -46c30 0 57 16 57 53c0 28 -18 47 -50 47
c-30 0 -58 -18 -58 -54zM187 669c0 -24 19 -39 43 -39c29 0 50 16 50 46c0 22 -18 39 -45 39c-25 0 -48 -16 -48 -46z" />
    <glyph glyph-name="nine.sup" horiz-adv-x="348" 
d="M233 778c86 0 139 -45 140 -127c0 -20 -2 -41 -4 -57l-2 -13c-17 -111 -74 -169 -172 -169c-72 0 -126 28 -130 104h85c4 -23 14 -36 48 -36c43 0 67 37 77 99c-18 -22 -46 -37 -86 -37c-56 0 -107 34 -107 99c0 85 67 137 151 137zM282 662c0 27 -15 52 -50 52
c-32 0 -59 -24 -59 -65c0 -28 14 -50 49 -50c33 0 60 22 60 63z" />
    <glyph glyph-name="plus.sup" horiz-adv-x="346" 
d="M165 460l16 102h-100l12 69h99l16 103h71l-16 -103h99l-12 -69h-99l-15 -102h-71z" />
    <glyph glyph-name="minus.sup" horiz-adv-x="346" 
d="M81 562l12 69h269l-12 -69h-269z" />
    <glyph glyph-name="uni2033" unicode="&#x2033;" horiz-adv-x="409" 
d="M68 458l65 257h124l-102 -257h-87zM251 458l64 257h124l-101 -257h-87z" />
    <glyph glyph-name="uni2032" unicode="&#x2032;" horiz-adv-x="227" 
d="M68 458l65 257h124l-102 -257h-87z" />
    <glyph glyph-name="a.alt" horiz-adv-x="615" 
d="M310 440c-97 0 -152 -89 -152 -212c0 -89 40 -144 119 -144c87 0 155 86 155 215c0 86 -49 141 -122 141zM235 -10c-120 0 -203 88 -203 229c0 180 104 315 258 315c91 0 139 -49 162 -101l14 90h121l-57 -364c-11 -71 -14 -115 -11 -159h-118c-3 27 -1 63 2 92
c-37 -63 -91 -102 -168 -102z" />
    <glyph glyph-name="t.alt" horiz-adv-x="355" 
d="M58 0l68 432h-78l14 91h78l18 115h121l-18 -115h107l-14 -91h-107l-68 -432h-121z" />
    <glyph glyph-name="germandbls.alt" horiz-adv-x="643" 
d="M405 -9c-105 0 -177 49 -180 157h109c3 -42 22 -69 68 -69c41 0 74 22 74 68c0 41 -34 63 -78 93c-48 31 -99 71 -99 129c0 117 171 152 171 241c0 44 -35 67 -92 67c-73 0 -126 -39 -141 -132l-86 -545h-121l87 552c23 150 133 219 270 219c100 0 200 -43 200 -150
c0 -132 -171 -170 -171 -229c0 -21 23 -35 83 -79c55 -40 96 -83 96 -157c0 -101 -80 -165 -190 -165z" />
    <glyph glyph-name="aacute.alt" horiz-adv-x="615" 
d="M289 601l77 155h136l-122 -155h-91zM310 440c-97 0 -152 -89 -152 -212c0 -89 40 -144 119 -144c87 0 155 86 155 215c0 86 -49 141 -122 141zM235 -10c-120 0 -203 88 -203 229c0 180 104 315 258 315c91 0 139 -49 162 -101l14 90h121l-57 -364
c-11 -71 -14 -115 -11 -159h-118c-3 27 -1 63 2 92c-37 -63 -91 -102 -168 -102z" />
    <glyph glyph-name="abreve.alt" horiz-adv-x="615" 
d="M310 440c-97 0 -152 -89 -152 -212c0 -89 40 -144 119 -144c87 0 155 86 155 215c0 86 -49 141 -122 141zM235 -10c-120 0 -203 88 -203 229c0 180 104 315 258 315c91 0 139 -49 162 -101l14 90h121l-57 -364c-11 -71 -14 -115 -11 -159h-118c-3 27 -1 63 2 92
c-37 -63 -91 -102 -168 -102zM348 606c-84 0 -143 56 -141 143h83c4 -38 22 -58 59 -58c38 0 60 20 66 58h83c-9 -88 -72 -143 -150 -143z" />
    <glyph glyph-name="acircumflex.alt" horiz-adv-x="615" 
d="M177 602l135 151h95l91 -151h-83l-66 68l-85 -68h-87zM310 440c-97 0 -152 -89 -152 -212c0 -89 40 -144 119 -144c87 0 155 86 155 215c0 86 -49 141 -122 141zM235 -10c-120 0 -203 88 -203 229c0 180 104 315 258 315c91 0 139 -49 162 -101l14 90h121l-57 -364
c-11 -71 -14 -115 -11 -159h-118c-3 27 -1 63 2 92c-37 -63 -91 -102 -168 -102z" />
    <glyph glyph-name="adieresis.alt" horiz-adv-x="615" 
d="M252 613c-37 0 -66 28 -66 64s30 66 67 66c36 0 65 -29 65 -65c0 -35 -30 -65 -66 -65zM449 613c-36 0 -65 28 -65 64s30 66 66 66c37 0 65 -29 65 -65c0 -35 -29 -65 -66 -65zM310 440c-97 0 -152 -89 -152 -212c0 -89 40 -144 119 -144c87 0 155 86 155 215
c0 86 -49 141 -122 141zM235 -10c-120 0 -203 88 -203 229c0 180 104 315 258 315c91 0 139 -49 162 -101l14 90h121l-57 -364c-11 -71 -14 -115 -11 -159h-118c-3 27 -1 63 2 92c-37 -63 -91 -102 -168 -102z" />
    <glyph glyph-name="agrave.alt" horiz-adv-x="615" 
d="M310 440c-97 0 -152 -89 -152 -212c0 -89 40 -144 119 -144c87 0 155 86 155 215c0 86 -49 141 -122 141zM235 -10c-120 0 -203 88 -203 229c0 180 104 315 258 315c91 0 139 -49 162 -101l14 90h121l-57 -364c-11 -71 -14 -115 -11 -159h-118c-3 27 -1 63 2 92
c-37 -63 -91 -102 -168 -102zM302 601l-89 155h132l44 -155h-87z" />
    <glyph glyph-name="amacron.alt" horiz-adv-x="615" 
d="M310 440c-97 0 -152 -89 -152 -212c0 -89 40 -144 119 -144c87 0 155 86 155 215c0 86 -49 141 -122 141zM235 -10c-120 0 -203 88 -203 229c0 180 104 315 258 315c91 0 139 -49 162 -101l14 90h121l-57 -364c-11 -71 -14 -115 -11 -159h-118c-3 27 -1 63 2 92
c-37 -63 -91 -102 -168 -102zM209 634l12 78h280l-12 -78h-280z" />
    <glyph glyph-name="aogonek.alt" horiz-adv-x="615" 
d="M443 -182c-54 0 -105 21 -104 80c0 50 48 84 89 102h-27c-3 27 -1 63 2 92c-37 -63 -91 -102 -168 -102c-120 0 -203 87 -203 229c0 180 104 315 258 315c91 0 139 -49 162 -101l14 90h121l-57 -364c-11 -69 -14 -113 -12 -156c-29 -20 -73 -47 -73 -85
c0 -19 12 -28 34 -28c14 0 29 3 41 8l-11 -68c-14 -5 -35 -12 -66 -12zM310 440c-97 0 -152 -89 -152 -212c0 -89 40 -144 119 -144c87 0 155 86 155 215c0 86 -49 141 -122 141z" />
    <glyph glyph-name="aring.alt" horiz-adv-x="615" 
d="M354 643c29 0 51 24 51 57c0 31 -19 53 -48 53c-30 0 -52 -23 -52 -56c0 -32 19 -54 49 -54zM354 590c-62 0 -110 47 -110 107s51 109 113 109c61 0 110 -47 110 -106c0 -61 -52 -110 -113 -110zM310 440c-97 0 -152 -89 -152 -212c0 -89 40 -144 119 -144
c87 0 155 86 155 215c0 86 -49 141 -122 141zM235 -10c-120 0 -203 88 -203 229c0 180 104 315 258 315c91 0 139 -49 162 -101l14 90h121l-57 -364c-11 -71 -14 -115 -11 -159h-118c-3 27 -1 63 2 92c-37 -63 -91 -102 -168 -102z" />
    <glyph glyph-name="aringacute.alt" horiz-adv-x="615" 
d="M353 629c29 0 51 24 51 57c0 31 -19 53 -48 53c-30 0 -52 -23 -52 -56c0 -32 19 -54 49 -54zM353 576c-62 0 -110 47 -110 107s51 109 113 109c61 0 110 -47 110 -106c0 -61 -52 -110 -113 -110zM310 440c-97 0 -152 -89 -152 -212c0 -89 40 -144 119 -144
c87 0 155 86 155 215c0 86 -49 141 -122 141zM235 -10c-120 0 -203 88 -203 229c0 180 104 315 258 315c91 0 139 -49 162 -101l14 90h121l-57 -364c-11 -71 -14 -115 -11 -159h-118c-3 27 -1 63 2 92c-37 -63 -91 -102 -168 -102zM323 828l67 135h138l-111 -135h-94z" />
    <glyph glyph-name="atilde.alt" horiz-adv-x="615" 
d="M310 440c-97 0 -152 -89 -152 -212c0 -89 40 -144 119 -144c87 0 155 86 155 215c0 86 -49 141 -122 141zM235 -10c-120 0 -203 88 -203 229c0 180 104 315 258 315c91 0 139 -49 162 -101l14 90h121l-57 -364c-11 -71 -14 -115 -11 -159h-118c-3 27 -1 63 2 92
c-37 -63 -91 -102 -168 -102zM410 606c-51 0 -84 40 -113 40c-18 0 -36 -16 -42 -40h-74c15 85 59 131 115 131c49 0 83 -39 114 -39c18 0 34 15 40 40h75c-15 -86 -60 -132 -115 -132z" />
    <glyph glyph-name="tbar.alt" horiz-adv-x="355" 
d="M21 261l12 75h78l15 96h-78l14 91h78l18 115h121l-18 -115h107l-14 -91h-107l-15 -96h107l-12 -75h-107l-41 -261h-121l41 261h-78z" />
    <glyph glyph-name="tcaron.alt" horiz-adv-x="355" 
d="M58 0l68 432h-78l14 91h78l18 115h121l-18 -115h107l-14 -91h-107l-68 -432h-121zM330 590l37 175h107l-72 -175h-72z" />
    <glyph glyph-name="tcommaaccent.alt" horiz-adv-x="355" 
d="M61 -225l-68 27l63 165l110 -22zM58 0l68 432h-78l14 91h78l18 115h121l-18 -115h107l-14 -91h-107l-68 -432h-121z" />
    <glyph glyph-name="f.short" horiz-adv-x="354" 
d="M44 432l14 91h72l13 84c18 115 91 164 185 164c39 0 61 -6 79 -13l-14 -92c-13 5 -30 10 -53 10c-46 0 -69 -26 -78 -78l-12 -75h120l-15 -91h-120l-68 -432h-120l68 432h-71z" />
    <glyph glyph-name="f_f.short" horiz-adv-x="656" 
d="M44 432l14 91h71l12 78c18 109 93 160 189 160c38 0 59 -5 77 -13l-14 -92c-13 6 -29 9 -51 9c-48 0 -73 -26 -81 -73l-11 -69h182l13 84c18 115 92 164 186 164c39 0 60 -6 78 -13l-14 -92c-12 5 -30 10 -53 10c-45 0 -69 -26 -77 -78l-12 -75h119l-14 -91h-120
l-68 -432h-121l68 432h-182l-68 -432h-120l67 432h-70z" />
    <glyph glyph-name="questiondown.uc" horiz-adv-x="515" 
d="M377 500l-6 -39c-14 -90 -78 -136 -132 -177c-49 -36 -85 -64 -85 -120c0 -46 31 -74 86 -74c59 0 105 38 118 113h117c-18 -139 -115 -213 -242 -212c-137 0 -206 76 -206 167c0 93 57 139 119 184c50 37 106 68 116 132l4 26h111zM340 722c45 0 79 -34 79 -77
c0 -44 -34 -79 -79 -79c-44 0 -80 35 -80 78c0 44 36 78 80 78z" />
    <glyph glyph-name="exclamdown.uc" horiz-adv-x="306" 
d="M240 500l-61 -500h-135l98 500h98zM212 722c44 0 79 -34 79 -77c0 -44 -35 -78 -79 -78c-45 0 -81 34 -81 77c0 44 36 78 81 78z" />
    <glyph glyph-name="hyphen.uc" horiz-adv-x="380" 
d="M57 275l16 103h268l-16 -103h-268z" />
    <glyph glyph-name="endash.uc" horiz-adv-x="532" 
d="M48 285l14 84h441l-14 -84h-441z" />
    <glyph glyph-name="emdash.uc" horiz-adv-x="909" 
d="M48 285l14 84h818l-13 -84h-819z" />
    <glyph glyph-name="guilsinglleft.uc" horiz-adv-x="316" 
d="M149 110l-102 194l158 188h100l-155 -191l93 -191h-94z" />
    <glyph glyph-name="guilsinglright.uc" horiz-adv-x="316" 
d="M181 492l101 -194l-157 -188h-101l156 191l-94 191h95z" />
    <glyph glyph-name="guillemotleft.uc" horiz-adv-x="492" 
d="M149 110l-102 193l155 189h98l-153 -191l95 -191h-93zM327 110l-100 193l154 189h98l-153 -193l94 -189h-93z" />
    <glyph glyph-name="guillemotright.uc" horiz-adv-x="492" 
d="M357 492l102 -193l-154 -189h-99l154 191l-96 191h93zM179 492l101 -193l-155 -189h-98l153 193l-94 189h93z" />
    <glyph glyph-name="parenleft.uc" horiz-adv-x="335" 
d="M157 -98c-55 83 -104 194 -104 343c0 214 93 392 242 539h110c-143 -166 -232 -327 -232 -543c0 -137 39 -252 87 -339h-103z" />
    <glyph glyph-name="parenright.uc" horiz-adv-x="335" 
d="M202 784c55 -83 104 -194 104 -343c0 -214 -94 -393 -242 -539h-111c143 166 233 326 233 543c0 136 -40 252 -87 339h103z" />
    <glyph glyph-name="bracketleft.uc" horiz-adv-x="377" 
d="M23 -88l137 868h257l-15 -91h-135l-108 -685h135l-15 -92h-256z" />
    <glyph glyph-name="bracketright.uc" horiz-adv-x="377" 
d="M-15 -88l15 92h135l108 685h-135l15 91h256l-138 -868h-256z" />
    <glyph glyph-name="braceleft.uc" horiz-adv-x="396" 
d="M297 -90c-167 6 -232 84 -184 229l19 57c21 63 3 109 -89 112l13 86c94 -1 125 30 123 100l-3 78c-5 157 82 211 259 209l-14 -89c-99 -2 -130 -31 -128 -125l1 -78c2 -87 -47 -126 -118 -143c72 -19 96 -76 71 -154l-20 -60c-30 -93 -4 -127 85 -132z" />
    <glyph glyph-name="braceright.uc" horiz-adv-x="396" 
d="M123 781c167 -6 233 -84 185 -229l-20 -57c-21 -63 -3 -109 90 -112l-14 -86c-94 1 -125 -30 -122 -100l2 -78c6 -157 -81 -211 -259 -209l14 89c99 2 130 31 128 125l-1 78c-1 87 48 128 118 144c-72 19 -95 75 -70 153l19 60c31 93 4 127 -84 132z" />
    <glyph glyph-name="slash.uc" horiz-adv-x="415" 
d="M-38 -84l409 861h105l-410 -861h-104z" />
    <glyph glyph-name="backslash.uc" horiz-adv-x="418" 
d="M249 -84l-152 861h99l152 -861h-99z" />
    <glyph glyph-name="bar.uc" horiz-adv-x="259" 
d="M99 -84l-1 861h90l1 -861h-90z" />
    <glyph glyph-name="at.uc" horiz-adv-x="919" 
d="M465 -67c-262 0 -403 187 -403 385c0 261 210 436 439 436c232 0 386 -148 386 -343c0 -202 -115 -270 -205 -270c-80 0 -114 31 -122 82c-29 -50 -84 -87 -146 -87c-93 0 -149 65 -151 161c-1 145 92 241 201 241c66 0 99 -30 112 -63l9 55h108l-40 -254
c-8 -47 4 -72 41 -72c55 0 117 56 117 208c0 158 -113 274 -312 274s-356 -140 -356 -371c1 -164 104 -314 325 -314c110 0 184 30 241 80h83c-59 -88 -182 -148 -327 -148zM449 219c53 0 110 53 110 148c0 56 -29 87 -83 87c-53 0 -104 -52 -102 -151c0 -49 28 -84 75 -84z
" />
    <glyph glyph-name="uni2009" unicode="&#x2009;" horiz-adv-x="94" 
 />
    </font>
</defs>
</svg>
