<?xml version="1.0" standalone="no"?>
<!DOCTYPE svg PUBLIC "-//W3C//DTD SVG 1.1//EN" "http://www.w3.org/Graphics/SVG/1.1/DTD/svg11.dtd" >
<svg xmlns="http://www.w3.org/2000/svg" xmlns:xlink="http://www.w3.org/1999/xlink" version="1.1">
<metadata>
Created by FontForge 20190801 at Wed Oct 14 07:54:11 2009
 By root
(c)2009 Commercial Type.
</metadata>
<defs>
<font id="Graphik-Semibold" horiz-adv-x="600" >
  <font-face 
    font-family="Graphik Semibold"
    font-weight="600"
    font-stretch="normal"
    units-per-em="1000"
    panose-1="2 11 7 3 3 2 2 6 2 3"
    ascent="822"
    descent="-178"
    x-height="523"
    cap-height="715"
    bbox="-238 -228 1159 1128"
    underline-thickness="50"
    underline-position="-100"
    stemh="128"
    stemv="145"
    unicode-range="U+0020-FB02"
  />
<missing-glyph horiz-adv-x="512" 
 />
    <glyph glyph-name="f_f" unicode="ff" horiz-adv-x="686" 
d="M88 0v420h-69v103h69v54c0 121 70 183 186 183c31 0 51 -4 74 -11v-108c-14 4 -31 8 -52 8c-45 0 -64 -28 -64 -69v-57h171v60c0 122 71 183 187 183c31 0 52 -3 75 -10v-109c-14 5 -32 9 -53 9c-46 0 -65 -29 -65 -69v-64h114v-103h-114v-420h-144v420h-171v-420h-144z
" />
    <glyph glyph-name=".notdef" horiz-adv-x="512" 
 />
    <glyph glyph-name="Eth" unicode="&#xd0;" horiz-adv-x="753" 
d="M31 303v112h65v300h234c251 0 375 -136 375 -350v-8c0 -214 -125 -357 -376 -357h-233v303h-65zM256 126h68c145 0 212 81 212 229v8c0 147 -63 226 -213 226h-67v-174h151v-112h-151v-177z" />
    <glyph glyph-name="eth" unicode="&#xf0;" horiz-adv-x="616" 
d="M157 562l-26 57l106 46c-41 35 -84 67 -123 95h165c22 -13 46 -28 70 -47l99 43l25 -58l-69 -30c92 -86 179 -213 179 -371v-22c0 -174 -113 -286 -278 -286c-156 0 -273 105 -273 272v10c0 159 115 259 236 259c57 0 92 -19 123 -54c-24 51 -61 98 -104 142zM308 99
c81 0 128 60 128 159v7c0 100 -46 160 -127 160c-80 0 -129 -58 -129 -158v-8c0 -101 46 -160 128 -160z" />
    <glyph glyph-name="Lslash" unicode="&#x141;" horiz-adv-x="579" 
d="M31 237v93l65 23v362h162v-305l187 67v-94l-187 -66v-190h291v-127h-453v260z" />
    <glyph glyph-name="lslash" unicode="&#x142;" horiz-adv-x="313" 
d="M18 279v99l66 33v349h144v-275l70 36v-99l-70 -36v-386h-144v312z" />
    <glyph glyph-name="Scaron" unicode="&#x160;" horiz-adv-x="640" 
d="M250 763l-108 139h104l69 -52l68 52h102l-112 -139h-123zM327 -11c-196 0 -286 92 -295 235h155c7 -64 34 -117 140 -117c71 0 118 39 118 95c0 57 -30 77 -135 93c-183 24 -258 79 -258 217c0 122 102 213 260 213c161 0 255 -72 268 -214h-149c-10 65 -48 95 -119 95
s-107 -33 -107 -81c0 -51 23 -75 133 -91c173 -22 262 -69 262 -217c0 -127 -104 -228 -273 -228z" />
    <glyph glyph-name="scaron" unicode="&#x161;" horiz-adv-x="502" 
d="M190 595l-114 156h102l69 -63l69 63h100l-117 -156h-109zM254 -11c-141 0 -223 62 -228 175h135c6 -47 29 -74 92 -74c56 0 82 21 82 57s-31 51 -106 62c-139 21 -193 61 -193 163c0 109 100 163 207 163c116 0 203 -42 216 -162h-133c-8 43 -32 63 -82 63
c-47 0 -74 -22 -74 -54c0 -33 25 -46 101 -57c131 -19 203 -52 203 -164c0 -113 -82 -172 -220 -172z" />
    <glyph glyph-name="Yacute" unicode="&#xdd;" horiz-adv-x="648" 
d="M249 0v308l-236 407h178l145 -274l142 274h157l-223 -407v-308h-163zM266 763l53 139h157l-101 -139h-109z" />
    <glyph glyph-name="yacute" unicode="&#xfd;" horiz-adv-x="567" 
d="M130 -178l92 231l-208 470h156l127 -314l117 314h139l-283 -701h-140zM235 594l57 159h152l-104 -159h-105z" />
    <glyph glyph-name="Thorn" unicode="&#xde;" horiz-adv-x="626" 
d="M77 0v715h161v-123h86c174 0 273 -69 273 -221v-4c0 -150 -105 -221 -268 -221h-91v-146h-161zM238 260h82c79 0 121 36 121 107v4c0 75 -44 103 -121 103h-82v-214z" />
    <glyph glyph-name="thorn" unicode="&#xfe;" horiz-adv-x="637" 
d="M64 -178v938h145v-319c29 50 90 94 167 94c128 0 228 -95 228 -268v-8c0 -173 -98 -270 -228 -270c-81 0 -140 40 -167 91v-258h-145zM333 102c80 0 124 54 124 156v8c0 106 -52 158 -125 158c-76 0 -128 -53 -128 -158v-8c0 -105 50 -156 129 -156z" />
    <glyph glyph-name="Zcaron" unicode="&#x17d;" horiz-adv-x="615" 
d="M247 763l-108 139h104l69 -52l68 52h102l-112 -139h-123zM18 0v20l341 569h-303v126h532v-19l-334 -569h322v-127h-558z" />
    <glyph glyph-name="zcaron" unicode="&#x17e;" horiz-adv-x="499" 
d="M199 595l-114 156h102l69 -63l69 63h100l-117 -156h-109zM14 0v16l258 395h-232v112h442v-18l-260 -393h250v-112h-458z" />
    <glyph glyph-name="onehalf" unicode="&#xbd;" horiz-adv-x="760" 
d="M47 0l540 715h84l-540 -715h-84zM106 352v258l-82 -49v89l97 65h95v-363h-110zM433 0v15l128 134c39 39 63 69 63 100c0 24 -13 39 -38 39c-26 0 -42 -18 -47 -58h-99c4 90 61 138 151 138c93 0 139 -48 139 -113c0 -49 -29 -88 -72 -129l-49 -47h124v-79h-300z" />
    <glyph glyph-name="onequarter" unicode="&#xbc;" horiz-adv-x="753" 
d="M106 352v258l-82 -49v89l97 65h95v-363h-110zM60 0l540 715h84l-540 -715h-84zM578 0v69h-181v40l155 254h131v-220h47v-74h-47v-69h-105zM496 143h85v146z" />
    <glyph glyph-name="onesuperior" unicode="&#xb9;" horiz-adv-x="266" 
d="M103 352v258l-82 -49v89l97 65h95v-363h-110z" />
    <glyph glyph-name="threequarters" unicode="&#xbe;" horiz-adv-x="773" 
d="M177 345c-106 0 -152 52 -155 126h96c3 -28 19 -49 53 -49c32 0 48 16 48 41c0 27 -16 41 -50 41h-29v64h28c34 0 49 15 49 40c0 21 -13 36 -40 36s-45 -17 -49 -45h-96c5 70 55 121 147 121c89 0 141 -39 141 -100c0 -41 -24 -67 -64 -78c43 -8 73 -38 73 -82
c0 -69 -53 -115 -152 -115zM103 0l540 715h84l-540 -715h-84zM596 0v69h-181v40l155 254h131v-220h47v-74h-47v-69h-105zM514 143h85v146z" />
    <glyph glyph-name="threesuperior" unicode="&#xb3;" horiz-adv-x="351" 
d="M174 345c-106 0 -152 52 -155 126h96c3 -28 19 -49 53 -49c32 0 48 16 48 41c0 27 -16 41 -50 41h-29v64h28c34 0 49 15 49 40c0 21 -13 36 -40 36s-45 -17 -49 -45h-96c5 70 55 121 147 121c89 0 141 -39 141 -100c0 -41 -24 -67 -64 -78c43 -8 73 -38 73 -82
c0 -69 -53 -115 -152 -115z" />
    <glyph glyph-name="twosuperior" unicode="&#xb2;" horiz-adv-x="329" 
d="M6 352v14l128 134c39 40 63 70 63 100c0 24 -13 39 -38 39c-26 0 -42 -17 -47 -57h-99c4 90 61 138 151 138c93 0 139 -48 139 -113c0 -50 -29 -88 -72 -129l-49 -48h124v-78h-300z" />
    <glyph glyph-name="brokenbar" unicode="&#xa6;" horiz-adv-x="266" 
d="M79 -148v448h104v-448h-104zM79 370v406h104v-406h-104z" />
    <glyph glyph-name="minus" unicode="&#x2212;" horiz-adv-x="553" 
d="M37 284v113h479v-113h-479z" />
    <glyph glyph-name="multiply" unicode="&#xd7;" horiz-adv-x="534" 
d="M114 105l-77 77l153 153l-155 154l77 78l154 -155l154 153l77 -77l-153 -153l155 -154l-79 -78l-154 155z" />
    <glyph glyph-name="space" unicode=" " horiz-adv-x="222" 
 />
    <glyph glyph-name="exclam" unicode="!" horiz-adv-x="316" 
d="M158 -9c-50 0 -91 38 -91 86c0 49 41 87 91 87s91 -38 91 -87c0 -48 -41 -86 -91 -86zM100 223l-22 492h162l-22 -492h-118z" />
    <glyph glyph-name="quotedbl" unicode="&#x22;" horiz-adv-x="430" 
d="M67 451l-19 264h140l-19 -264h-102zM261 451l-19 264h140l-18 -264h-103z" />
    <glyph glyph-name="numbersign" unicode="#" horiz-adv-x="549" 
d="M264 99l23 157h-75l-23 -157h-102l23 157h-74v115h91l14 96h-80v111h96l21 137h101l-20 -137h75l21 137h101l-21 -137h78v-111h-94l-14 -96h83v-115h-100l-23 -157h-101zM243 467l-14 -96h75l14 96h-75z" />
    <glyph glyph-name="dollar" unicode="$" horiz-adv-x="640" 
d="M287 -135v125c-173 12 -247 107 -255 233h148c7 -58 28 -105 107 -117v193c-159 25 -235 83 -235 215c0 115 92 200 235 210v89h71v-90c136 -12 218 -80 230 -209h-143c-9 52 -34 84 -87 94v-179c150 -23 242 -73 242 -212c0 -120 -84 -216 -242 -227v-125h-71zM452 200
c0 48 -20 72 -94 88v-182c58 10 94 45 94 94zM196 527c0 -46 17 -71 91 -86v169c-59 -8 -91 -41 -91 -83z" />
    <glyph glyph-name="percent" unicode="%" horiz-adv-x="811" 
d="M209 461c43 0 68 32 68 87c0 53 -25 86 -68 86s-70 -32 -70 -86c0 -57 27 -87 70 -87zM208 371c-106 0 -180 75 -180 176c0 100 80 175 181 175c100 0 179 -72 179 -173c0 -102 -75 -178 -180 -178zM124 0l475 715h90l-475 -715h-90zM603 80c44 0 69 32 69 86
s-25 86 -69 86c-42 0 -69 -31 -69 -86c0 -56 27 -86 69 -86zM603 -11c-106 0 -180 76 -180 176c0 101 80 176 180 176c101 0 180 -72 180 -173c0 -102 -75 -179 -180 -179z" />
    <glyph glyph-name="ampersand" unicode="&#x26;" horiz-adv-x="734" 
d="M710 371l-116 -225l119 -146h-185l-52 64c-45 -41 -103 -74 -195 -74c-145 0 -242 79 -242 209c0 99 62 163 159 210c-35 48 -50 95 -50 135c0 116 97 178 210 178c104 0 194 -58 194 -160c0 -81 -51 -139 -146 -179l112 -137l64 125h128zM302 109c38 0 72 16 99 48
l-136 165c-43 -22 -74 -51 -74 -107c0 -64 40 -106 111 -106zM289 542c0 -30 18 -59 48 -95c60 28 86 58 86 107c0 37 -26 64 -63 64c-40 0 -71 -26 -71 -76z" />
    <glyph glyph-name="quotesingle" unicode="'" horiz-adv-x="240" 
d="M67 451l-19 264h144l-19 -264h-106z" />
    <glyph glyph-name="parenleft" unicode="(" horiz-adv-x="343" 
d="M210 -148c-83 98 -167 247 -167 461s84 363 167 461h119c-75 -105 -145 -253 -145 -461s70 -355 145 -461h-119z" />
    <glyph glyph-name="parenright" unicode=")" horiz-adv-x="343" 
d="M15 -146c74 105 144 253 144 461s-70 355 -144 461h119c82 -98 166 -246 166 -461c0 -214 -84 -363 -166 -461h-119z" />
    <glyph glyph-name="asterisk" unicode="*" horiz-adv-x="434" 
d="M155 384l-89 64l87 97l-119 19l30 103l112 -51l-17 127h117l-18 -127l112 51l30 -103l-120 -19l87 -97l-89 -64l-62 117z" />
    <glyph glyph-name="plus" unicode="+" horiz-adv-x="551" 
d="M217 91v195h-180v109h180v195h118v-195h180v-109h-180v-195h-118z" />
    <glyph glyph-name="comma" unicode="," horiz-adv-x="298" 
d="M111 -123l-88 37l88 247l136 -51z" />
    <glyph glyph-name="hyphen" unicode="-" horiz-adv-x="364" 
d="M54 224v115h256v-115h-256z" />
    <glyph glyph-name="period" unicode="." horiz-adv-x="293" 
d="M146 -9c-50 0 -89 39 -89 88c0 48 39 87 89 87c51 0 90 -39 90 -87c0 -49 -39 -88 -90 -88z" />
    <glyph glyph-name="slash" unicode="/" horiz-adv-x="423" 
d="M-13 -148l307 924h119l-308 -924h-118z" />
    <glyph glyph-name="zero" unicode="0" horiz-adv-x="713" 
d="M360 116c101 0 147 77 147 227v32c0 144 -50 225 -149 225c-100 0 -151 -77 -151 -225v-34c0 -150 53 -225 153 -225zM356 -11c-190 0 -311 132 -311 351v34c0 220 128 351 312 351s311 -126 311 -348v-33c0 -219 -119 -355 -312 -355z" />
    <glyph glyph-name="one" unicode="1" horiz-adv-x="431" 
d="M177 0v555l-145 -95v138l165 117h142v-715h-162z" />
    <glyph glyph-name="two" unicode="2" horiz-adv-x="593" 
d="M12 0v26l262 277c69 73 113 136 113 201c0 59 -33 97 -95 97c-63 0 -103 -37 -114 -131h-147c8 165 108 255 268 255c158 0 248 -88 248 -217c0 -95 -55 -173 -138 -253l-135 -132h278v-123h-540z" />
    <glyph glyph-name="three" unicode="3" horiz-adv-x="635" 
d="M313 -11c-182 0 -275 93 -281 238h146c6 -69 43 -119 129 -119c81 0 119 39 119 103c0 68 -38 103 -115 103h-56v108h52c75 0 109 34 109 95c0 51 -33 89 -99 89c-68 0 -110 -41 -118 -108h-143c8 131 101 227 264 227c157 0 249 -82 249 -194c0 -80 -47 -130 -118 -155
c83 -18 139 -77 139 -168c0 -134 -103 -219 -277 -219z" />
    <glyph glyph-name="four" unicode="4" horiz-adv-x="656" 
d="M377 0v142h-351v59l309 514h199v-457h94v-116h-94v-142h-157zM188 258h192v335z" />
    <glyph glyph-name="five" unicode="5" horiz-adv-x="615" 
d="M297 -11c-176 0 -258 96 -265 224h149c9 -60 33 -100 115 -100c73 0 112 51 112 127c0 77 -44 125 -116 125c-67 0 -108 -24 -137 -57h-90l10 407h453v-123h-332l-3 -179c28 34 78 66 159 66c130 0 219 -89 219 -241s-109 -249 -274 -249z" />
    <glyph glyph-name="six" unicode="6" horiz-adv-x="654" 
d="M339 -11c-216 0 -294 146 -294 341v18c0 242 131 377 306 377c142 0 232 -67 248 -198h-150c-10 47 -34 76 -96 76c-89 0 -144 -78 -148 -225c33 53 87 89 173 89c135 0 236 -88 236 -232c0 -147 -105 -246 -275 -246zM337 106c71 0 118 52 118 127s-45 127 -118 127
c-72 0 -122 -51 -122 -122c0 -82 50 -132 122 -132z" />
    <glyph glyph-name="seven" unicode="7" horiz-adv-x="558" 
d="M124 0l218 584h-315v131h518v-18l-256 -697h-165z" />
    <glyph glyph-name="eight" unicode="8" horiz-adv-x="639" 
d="M320 -11c-158 0 -280 73 -280 213c0 87 50 150 132 179c-65 27 -104 77 -104 149c0 124 119 195 253 195c137 0 251 -72 251 -194c0 -72 -41 -121 -104 -149c84 -29 131 -91 131 -176c0 -140 -120 -217 -279 -217zM320 107c68 0 119 40 119 111c0 70 -51 109 -118 109
c-66 0 -120 -39 -120 -110s53 -110 119 -110zM322 426c58 0 100 35 100 94c0 55 -44 92 -101 92s-102 -35 -102 -93s47 -93 103 -93z" />
    <glyph glyph-name="nine" unicode="9" horiz-adv-x="655" 
d="M310 -10c-155 0 -247 74 -263 203h151c10 -49 39 -80 107 -80c95 0 142 75 145 221c-33 -52 -85 -87 -171 -87c-138 0 -239 86 -239 231c0 148 106 248 277 248c197 0 292 -133 292 -339v-32c0 -234 -107 -365 -299 -365zM315 355c73 0 122 50 122 120
c0 83 -49 134 -122 134c-71 0 -118 -52 -118 -127s46 -127 118 -127z" />
    <glyph glyph-name="colon" unicode=":" horiz-adv-x="300" 
d="M149 -9c-50 0 -88 39 -88 88c0 48 38 87 88 87c51 0 90 -39 90 -87c0 -49 -39 -88 -90 -88zM149 281c-50 0 -88 39 -88 88c0 48 38 87 88 87c51 0 90 -39 90 -87c0 -49 -39 -88 -90 -88z" />
    <glyph glyph-name="semicolon" unicode=";" horiz-adv-x="310" 
d="M101 -123l-87 37l88 247l135 -51zM167 281c-50 0 -88 39 -88 88c0 48 38 87 88 87c51 0 90 -39 90 -87c0 -49 -39 -88 -90 -88z" />
    <glyph glyph-name="less" unicode="&#x3c;" horiz-adv-x="509" 
d="M454 72l-408 236v29l408 235v-132l-217 -117l217 -121v-130z" />
    <glyph glyph-name="equal" unicode="=" horiz-adv-x="530" 
d="M39 178v103h452v-103h-452zM39 368v104h452v-104h-452z" />
    <glyph glyph-name="greater" unicode="&#x3e;" horiz-adv-x="509" 
d="M56 73v132l216 117l-216 121v130l408 -236v-29z" />
    <glyph glyph-name="question" unicode="?" horiz-adv-x="532" 
d="M173 223v30c0 78 52 127 99 173c36 35 68 67 68 107c0 46 -24 74 -77 74c-55 0 -92 -40 -99 -103h-139c6 139 105 221 247 221c147 0 222 -74 222 -180c0 -69 -39 -115 -82 -157c-48 -46 -99 -87 -105 -140v-25h-134zM239 -9c-51 0 -92 38 -92 86c0 49 41 87 92 87
c50 0 91 -38 91 -87c0 -48 -41 -86 -91 -86z" />
    <glyph glyph-name="at" unicode="@" horiz-adv-x="919" 
d="M460 -154c-269 0 -425 187 -425 409c0 257 207 435 441 435c238 0 408 -151 408 -365c0 -195 -109 -267 -206 -267c-85 0 -123 30 -135 83c-27 -53 -76 -87 -140 -87c-98 0 -162 69 -162 181c0 139 88 234 197 234c66 0 99 -29 114 -63l7 55h124l-32 -265
c-7 -46 8 -71 45 -71c55 0 111 58 111 200c0 177 -126 297 -330 297s-360 -146 -360 -368c0 -187 116 -340 345 -340c114 0 195 36 249 86h86c-60 -92 -187 -154 -337 -154zM440 152c51 0 98 50 98 133c0 56 -28 86 -79 86s-91 -51 -91 -131c0 -53 27 -88 72 -88z" />
    <glyph glyph-name="A" unicode="A" horiz-adv-x="720" 
d="M21 0l235 715h211l232 -715h-169l-49 159h-259l-49 -159h-152zM352 583l-95 -309h189z" />
    <glyph glyph-name="B" unicode="B" horiz-adv-x="659" 
d="M77 0v715h281c156 0 237 -64 237 -186v-4c0 -75 -36 -130 -116 -153c93 -19 143 -72 143 -168v-4c0 -131 -86 -200 -251 -200h-294zM235 112h111c80 0 116 36 116 101v4c0 66 -36 100 -124 100h-103v-205zM235 421h97c78 0 109 28 109 92v4c0 60 -34 87 -110 87h-96v-183
z" />
    <glyph glyph-name="C" unicode="C" horiz-adv-x="748" 
d="M399 -11c-234 0 -359 144 -359 364v8c0 217 152 365 355 365c172 0 300 -84 317 -260h-166c-12 86 -60 132 -150 132c-113 0 -185 -88 -185 -236v-8c0 -148 68 -234 186 -234c89 0 151 45 164 137h159c-18 -177 -145 -268 -321 -268z" />
    <glyph glyph-name="D" unicode="D" horiz-adv-x="726" 
d="M239 126h66c144 0 212 81 212 229v8c0 147 -63 226 -214 226h-64v-463zM77 0v715h234c251 0 375 -136 375 -350v-8c0 -214 -125 -357 -376 -357h-233z" />
    <glyph glyph-name="E" unicode="E" horiz-adv-x="595" 
d="M77 0v715h466v-126h-305v-167h244v-118h-244v-178h321v-126h-482z" />
    <glyph glyph-name="F" unicode="F" horiz-adv-x="567" 
d="M77 0v715h459v-127h-297v-189h235v-122h-235v-277h-162z" />
    <glyph glyph-name="G" unicode="G" horiz-adv-x="780" 
d="M404 -11c-234 0 -364 152 -364 364v8c0 215 153 365 364 365c159 0 301 -73 318 -250h-161c-14 84 -69 122 -155 122c-124 0 -197 -93 -197 -239v-8c0 -138 59 -237 199 -237c120 0 169 69 172 151h-161v118h321v-76c0 -191 -122 -318 -336 -318z" />
    <glyph glyph-name="H" unicode="H" horiz-adv-x="764" 
d="M77 0v715h162v-292h287v292h162v-715h-162v295h-287v-295h-162z" />
    <glyph glyph-name="I" unicode="I" horiz-adv-x="325" 
d="M81 0v715h163v-715h-163z" />
    <glyph glyph-name="J" unicode="J" horiz-adv-x="457" 
d="M154 -9c-62 0 -94 9 -119 22v124c24 -9 48 -17 90 -17c61 0 101 31 101 113v482h163v-484c0 -162 -88 -240 -235 -240z" />
    <glyph glyph-name="K" unicode="K" horiz-adv-x="686" 
d="M77 0v715h162v-308l250 309h172l-283 -339l297 -377h-189l-247 321v-321h-162z" />
    <glyph glyph-name="L" unicode="L" horiz-adv-x="560" 
d="M77 0v715h162v-588h291v-127h-453z" />
    <glyph glyph-name="M" unicode="M" horiz-adv-x="911" 
d="M77 0v715h214l167 -445l165 445h210v-715h-161v502l-198 -502h-53l-199 502v-502h-145z" />
    <glyph glyph-name="N" unicode="N" horiz-adv-x="758" 
d="M77 0v715h188l272 -471v471h144v-715h-162l-298 509v-509h-144z" />
    <glyph glyph-name="O" unicode="O" horiz-adv-x="816" 
d="M410 118c121 0 197 93 197 237v8c0 139 -74 234 -199 234c-124 0 -199 -91 -199 -235v-8c0 -146 84 -236 201 -236zM407 -11c-224 0 -367 155 -367 364v8c0 213 156 364 368 364c215 0 368 -145 368 -360v-8c0 -213 -146 -368 -369 -368z" />
    <glyph glyph-name="P" unicode="P" horiz-adv-x="626" 
d="M77 0v715h247c174 0 273 -77 273 -228v-4c0 -151 -105 -223 -268 -223h-91v-260h-161zM238 373h82c79 0 121 38 121 109v4c0 76 -44 106 -121 106h-82v-219z" />
    <glyph glyph-name="Q" unicode="Q" horiz-adv-x="816" 
d="M639 -93l-97 103c-41 -13 -86 -21 -135 -21c-224 0 -367 154 -367 364v8c0 213 156 364 368 364c215 0 368 -146 368 -360v-8c0 -116 -43 -215 -118 -281l73 -78zM410 114c12 0 23 1 34 2l-68 74l94 88l88 -95c31 42 49 100 49 172v8c0 139 -74 234 -199 234
c-124 0 -199 -90 -199 -235v-8c0 -151 83 -240 201 -240z" />
    <glyph glyph-name="R" unicode="R" horiz-adv-x="672" 
d="M77 0v715h256c169 0 276 -69 276 -217v-4c0 -108 -63 -165 -147 -190l189 -304h-172l-171 276h-70v-276h-161zM238 386h91c81 0 122 34 122 103v4c0 73 -44 98 -122 98h-91v-205z" />
    <glyph glyph-name="S" unicode="S" horiz-adv-x="640" 
d="M327 -11c-196 0 -286 92 -295 235h155c7 -64 34 -117 140 -117c71 0 118 39 118 95c0 57 -30 77 -135 93c-183 24 -258 79 -258 217c0 122 102 213 260 213c161 0 255 -72 268 -214h-149c-10 65 -48 95 -119 95s-107 -33 -107 -81c0 -51 23 -75 133 -91
c173 -22 262 -69 262 -217c0 -127 -104 -228 -273 -228z" />
    <glyph glyph-name="T" unicode="T" horiz-adv-x="597" 
d="M217 0v589h-193v126h549v-126h-193v-589h-163z" />
    <glyph glyph-name="U" unicode="U" horiz-adv-x="739" 
d="M366 -11c-188 0 -295 100 -295 290v436h163v-426c0 -119 35 -171 133 -171c96 0 138 46 138 177v420h163v-430c0 -195 -109 -296 -302 -296z" />
    <glyph glyph-name="V" unicode="V" horiz-adv-x="701" 
d="M258 0l-239 715h171l170 -549l170 549h152l-238 -715h-186z" />
    <glyph glyph-name="W" unicode="W" horiz-adv-x="971" 
d="M195 0l-174 715h164l112 -494l122 494h138l127 -497l116 497h150l-174 -715h-165l-129 494l-131 -494h-156z" />
    <glyph glyph-name="X" unicode="X" horiz-adv-x="719" 
d="M30 0l227 367l-210 348h183l136 -238l135 238h166l-204 -343l226 -372h-184l-155 266l-154 -266h-166z" />
    <glyph glyph-name="Y" unicode="Y" horiz-adv-x="648" 
d="M249 0v308l-236 407h178l145 -274l142 274h157l-223 -407v-308h-163z" />
    <glyph glyph-name="Z" unicode="Z" horiz-adv-x="615" 
d="M18 0v20l341 569h-303v126h532v-19l-334 -569h322v-127h-558z" />
    <glyph glyph-name="bracketleft" unicode="[" horiz-adv-x="390" 
d="M74 -148v924h276v-107h-131v-710h131v-107h-276z" />
    <glyph glyph-name="backslash" unicode="\" horiz-adv-x="423" 
d="M318 -148l-308 924h118l308 -924h-118z" />
    <glyph glyph-name="bracketright" unicode="]" horiz-adv-x="390" 
d="M41 -148v107h130v710h-130v107h275v-924h-275z" />
    <glyph glyph-name="asciicircum" unicode="^" horiz-adv-x="522" 
d="M31 399l165 316h130l166 -316h-129l-103 198l-104 -198h-125z" />
    <glyph glyph-name="underscore" unicode="_" horiz-adv-x="419" 
d="M-1 -160v79h421v-79h-421z" />
    <glyph glyph-name="grave" unicode="`" horiz-adv-x="400" 
d="M155 594l-104 159h152l57 -159h-105z" />
    <glyph glyph-name="a" unicode="a" horiz-adv-x="564" 
d="M205 -11c-95 0 -175 46 -175 156c0 122 112 168 272 168h59v21c0 62 -19 96 -85 96c-57 0 -83 -29 -89 -74h-137c9 124 107 179 235 179s219 -52 219 -194v-341h-141v63c-30 -42 -76 -74 -158 -74zM248 90c64 0 113 35 113 93v44h-56c-84 0 -133 -18 -133 -74
c0 -38 23 -63 76 -63z" />
    <glyph glyph-name="b" unicode="b" horiz-adv-x="637" 
d="M376 -11c-81 0 -140 40 -167 94v-83h-145v760h145v-319c29 50 90 94 167 94c128 0 228 -95 228 -268v-8c0 -173 -98 -270 -228 -270zM333 102c80 0 124 54 124 156v8c0 106 -52 158 -125 158c-76 0 -128 -53 -128 -158v-8c0 -105 50 -156 129 -156z" />
    <glyph glyph-name="c" unicode="c" horiz-adv-x="578" 
d="M301 -11c-153 0 -269 95 -269 266v8c0 169 121 272 270 272c121 0 233 -53 246 -203h-137c-10 61 -47 89 -106 89c-75 0 -125 -56 -125 -156v-8c0 -105 47 -159 128 -159c58 0 105 34 112 101h131c-8 -124 -98 -210 -250 -210z" />
    <glyph glyph-name="d" unicode="d" horiz-adv-x="637" 
d="M260 -11c-127 0 -227 91 -227 265v8c0 172 99 273 230 273c84 0 136 -37 165 -90v315h144v-760h-144v87c-27 -53 -91 -98 -168 -98zM303 102c76 0 129 51 129 157v8c0 104 -46 157 -125 157c-81 0 -126 -55 -126 -159v-8c0 -104 50 -155 122 -155z" />
    <glyph glyph-name="e" unicode="e" horiz-adv-x="587" 
d="M305 -11c-158 0 -273 99 -273 266v8c0 165 117 272 269 272c135 0 255 -79 255 -266v-40h-377c4 -87 51 -137 130 -137c67 0 100 29 109 73h137c-17 -113 -107 -176 -250 -176zM181 318h234c-5 79 -45 117 -114 117c-65 0 -109 -43 -120 -117z" />
    <glyph glyph-name="f" unicode="f" horiz-adv-x="371" 
d="M88 0v420h-69v103h69v60c0 122 71 183 187 183c31 0 52 -3 75 -10v-109c-14 5 -32 9 -53 9c-46 0 -65 -29 -65 -69v-64h114v-103h-114v-420h-144z" />
    <glyph glyph-name="g" unicode="g" horiz-adv-x="636" 
d="M296 -193c-169 0 -246 74 -260 182h144c9 -46 42 -76 116 -76c88 0 132 46 132 128v79c-29 -51 -91 -97 -168 -97c-127 0 -228 95 -228 250v7c0 150 100 255 230 255c85 0 136 -37 166 -90v78h144v-482c-1 -155 -104 -234 -276 -234zM303 132c76 0 129 54 129 143v7
c0 89 -47 143 -126 143c-81 0 -126 -58 -126 -144v-8c0 -87 51 -141 123 -141z" />
    <glyph glyph-name="h" unicode="h" horiz-adv-x="615" 
d="M64 0v760h145v-320c26 52 83 95 170 95c103 0 176 -62 176 -202v-333h-145v312c0 71 -28 105 -92 105c-62 0 -109 -38 -109 -115v-302h-145z" />
    <glyph glyph-name="i" unicode="i" horiz-adv-x="281" 
d="M68 0v523h144v-523h-144zM139 594c-46 0 -82 34 -82 79s36 79 82 79c47 0 83 -34 83 -79s-36 -79 -83 -79z" />
    <glyph glyph-name="j" unicode="j" horiz-adv-x="281" 
d="M-1 -187v108c50 4 69 27 69 69v533h144v-532c0 -109 -50 -176 -213 -178zM139 594c-46 0 -82 34 -82 79s36 79 82 79c47 0 83 -34 83 -79s-36 -79 -83 -79z" />
    <glyph glyph-name="k" unicode="k" horiz-adv-x="555" 
d="M64 0v760h145v-458l168 221h154l-190 -238l205 -285h-164l-173 247v-247h-145z" />
    <glyph glyph-name="l" unicode="l" horiz-adv-x="280" 
d="M68 0v760h144v-760h-144z" />
    <glyph glyph-name="m" unicode="m" horiz-adv-x="923" 
d="M64 0v523h145v-80c26 49 82 92 160 92c69 0 121 -29 146 -91c42 63 110 91 176 91c97 0 172 -61 172 -200v-335h-144v319c0 67 -30 97 -82 97c-56 0 -101 -36 -101 -107v-309h-144v319c0 67 -31 97 -82 97c-56 0 -101 -36 -101 -107v-309h-145z" />
    <glyph glyph-name="n" unicode="n" horiz-adv-x="615" 
d="M64 0v523h145v-83c26 52 83 95 170 95c103 0 176 -62 176 -202v-333h-145v312c0 71 -28 105 -92 105c-62 0 -109 -38 -109 -115v-302h-145z" />
    <glyph glyph-name="o" unicode="o" horiz-adv-x="616" 
d="M308 99c81 0 128 60 128 159v7c0 100 -47 160 -128 160c-80 0 -128 -58 -128 -158v-8c0 -100 46 -160 128 -160zM307 -11c-156 0 -275 104 -275 267v8c0 164 119 271 276 271s275 -105 275 -268v-8c0 -165 -119 -270 -276 -270z" />
    <glyph glyph-name="p" unicode="p" horiz-adv-x="637" 
d="M64 -178v701h145v-82c29 50 90 94 167 94c128 0 228 -95 228 -268v-8c0 -173 -98 -270 -228 -270c-81 0 -140 40 -167 91v-258h-145zM333 102c80 0 124 54 124 156v8c0 106 -52 158 -125 158c-76 0 -128 -53 -128 -158v-8c0 -105 50 -156 129 -156z" />
    <glyph glyph-name="q" unicode="q" horiz-adv-x="637" 
d="M428 -178v262c-27 -50 -91 -95 -168 -95c-127 0 -227 91 -227 265v8c0 172 99 273 230 273c84 0 136 -37 165 -90v78h144v-701h-144zM303 102c76 0 129 51 129 157v8c0 104 -46 157 -125 157c-81 0 -126 -55 -126 -159v-8c0 -104 50 -155 122 -155z" />
    <glyph glyph-name="r" unicode="r" horiz-adv-x="409" 
d="M64 0v523h145v-100c33 70 84 107 169 108v-135c-107 1 -169 -34 -169 -134v-262h-145z" />
    <glyph glyph-name="s" unicode="s" horiz-adv-x="502" 
d="M254 -11c-141 0 -223 62 -228 175h135c6 -47 29 -74 92 -74c56 0 82 21 82 57s-31 51 -106 62c-139 21 -193 61 -193 163c0 109 100 163 207 163c116 0 203 -42 216 -162h-133c-8 43 -32 63 -82 63c-47 0 -74 -22 -74 -54c0 -33 25 -46 101 -57c131 -19 203 -52 203 -164
c0 -113 -82 -172 -220 -172z" />
    <glyph glyph-name="t" unicode="t" horiz-adv-x="377" 
d="M255 -10c-110 0 -169 56 -169 165v265h-67v103h67v113h144v-113h110v-103h-110v-252c0 -42 21 -62 58 -62c22 0 38 3 55 10v-112c-20 -7 -49 -14 -88 -14z" />
    <glyph glyph-name="u" unicode="u" horiz-adv-x="612" 
d="M238 -11c-102 0 -178 60 -178 197v337h144v-317c0 -71 29 -105 91 -105c61 0 109 38 109 115v307h144v-523h-144v82c-27 -53 -80 -93 -166 -93z" />
    <glyph glyph-name="v" unicode="v" horiz-adv-x="572" 
d="M205 0l-191 523h155l125 -374l124 374h140l-190 -523h-163z" />
    <glyph glyph-name="w" unicode="w" horiz-adv-x="826" 
d="M175 0l-159 523h152l93 -352l101 352h119l92 -352l99 352h139l-165 -523h-142l-89 328l-96 -328h-144z" />
    <glyph glyph-name="x" unicode="x" horiz-adv-x="574" 
d="M17 0l179 267l-167 256h166l98 -157l96 157h150l-167 -245l184 -278h-167l-110 176l-113 -176h-149z" />
    <glyph glyph-name="y" unicode="y" horiz-adv-x="567" 
d="M130 -178l92 231l-208 470h156l127 -314l117 314h139l-283 -701h-140z" />
    <glyph glyph-name="z" unicode="z" horiz-adv-x="499" 
d="M14 0v16l258 395h-232v112h442v-18l-260 -393h250v-112h-458z" />
    <glyph glyph-name="braceleft" unicode="{" horiz-adv-x="405" 
d="M364 -147c-182 0 -268 65 -241 222l16 92c9 52 -18 97 -105 97v103c87 0 114 45 105 97l-16 91c-28 161 59 223 241 223v-106c-84 -3 -113 -28 -100 -114l15 -107c10 -70 -31 -118 -101 -135c71 -16 111 -64 101 -135l-15 -106c-13 -87 16 -114 100 -117v-105z" />
    <glyph glyph-name="bar" unicode="|" horiz-adv-x="262" 
d="M79 -148v924h104v-924h-104z" />
    <glyph glyph-name="braceright" unicode="}" horiz-adv-x="405" 
d="M40 -147v105c85 3 113 30 101 117l-15 106c-10 71 30 119 101 135c-71 17 -111 65 -101 135l15 107c12 86 -16 111 -101 114v106c182 0 269 -62 242 -223l-16 -91c-9 -52 18 -97 104 -97v-103c-86 0 -113 -45 -104 -97l16 -92c27 -157 -60 -222 -242 -222z" />
    <glyph glyph-name="asciitilde" unicode="~" horiz-adv-x="492" 
d="M34 218c7 122 68 172 132 172c70 0 115 -47 149 -47c24 0 41 17 45 49h98c-5 -117 -68 -173 -131 -173c-72 0 -115 47 -150 47c-25 0 -41 -18 -45 -48h-98z" />
    <glyph glyph-name="Adieresis" unicode="&#xc4;" horiz-adv-x="720" 
d="M21 0l235 715h211l232 -715h-169l-49 159h-259l-49 -159h-152zM352 583l-95 -309h189zM251 769c-41 0 -74 33 -74 73s33 72 74 72c40 0 74 -32 74 -72s-34 -73 -74 -73zM466 769c-40 0 -73 33 -73 73s33 72 73 72c41 0 74 -32 74 -72s-33 -73 -74 -73z" />
    <glyph glyph-name="Aring" unicode="&#xc5;" horiz-adv-x="720" 
d="M21 0l235 715h211l232 -715h-169l-49 159h-259l-49 -159h-152zM359 750c-63 0 -115 50 -115 111c0 62 52 112 115 112s115 -50 115 -112c0 -61 -52 -111 -115 -111zM352 583l-95 -309h189zM359 808c28 0 49 22 49 53s-21 54 -49 54c-29 0 -49 -23 -49 -54s20 -53 49 -53z
" />
    <glyph glyph-name="Ccedilla" unicode="&#xc7;" horiz-adv-x="748" 
d="M379 -222c-67 0 -110 34 -117 90h74c3 -16 15 -31 38 -31c22 0 35 14 35 33c0 18 -13 31 -34 31c-15 0 -25 -5 -31 -10l-36 35l40 66c-201 19 -308 157 -308 361v8c0 217 152 365 355 365c172 0 300 -84 317 -260h-166c-12 86 -60 132 -150 132
c-113 0 -185 -88 -185 -236v-8c0 -148 68 -234 186 -234c89 0 151 45 164 137h159c-18 -173 -139 -263 -309 -268l-22 -37c53 6 104 -21 104 -84c0 -58 -48 -90 -114 -90z" />
    <glyph glyph-name="Eacute" unicode="&#xc9;" horiz-adv-x="595" 
d="M255 763l53 139h157l-101 -139h-109zM77 0v715h466v-126h-305v-167h244v-118h-244v-178h321v-126h-482z" />
    <glyph glyph-name="Ntilde" unicode="&#xd1;" horiz-adv-x="758" 
d="M455 764c-52 0 -86 37 -115 37c-18 0 -31 -16 -35 -37h-86c7 92 55 140 114 140c49 0 84 -38 116 -38c18 0 30 16 34 37h87c-8 -92 -58 -139 -115 -139zM77 0v715h188l272 -471v471h144v-715h-162l-298 509v-509h-144z" />
    <glyph glyph-name="Odieresis" unicode="&#xd6;" horiz-adv-x="816" 
d="M299 769c-41 0 -74 33 -74 73s33 72 74 72c40 0 74 -32 74 -72s-34 -73 -74 -73zM514 769c-40 0 -73 33 -73 73s33 72 73 72c41 0 74 -32 74 -72s-33 -73 -74 -73zM410 118c121 0 197 93 197 237v8c0 139 -74 234 -199 234c-124 0 -199 -91 -199 -235v-8
c0 -146 84 -236 201 -236zM407 -11c-224 0 -367 155 -367 364v8c0 213 156 364 368 364c215 0 368 -145 368 -360v-8c0 -213 -146 -368 -369 -368z" />
    <glyph glyph-name="Udieresis" unicode="&#xdc;" horiz-adv-x="739" 
d="M366 -11c-188 0 -295 100 -295 290v436h163v-426c0 -119 35 -171 133 -171c96 0 138 46 138 177v420h163v-430c0 -195 -109 -296 -302 -296zM260 769c-41 0 -74 33 -74 73s33 72 74 72c40 0 74 -32 74 -72s-34 -73 -74 -73zM475 769c-40 0 -73 33 -73 73s33 72 73 72
c41 0 74 -32 74 -72s-33 -73 -74 -73z" />
    <glyph glyph-name="aacute" unicode="&#xe1;" horiz-adv-x="564" 
d="M205 -11c-95 0 -175 46 -175 156c0 122 112 168 272 168h59v21c0 62 -19 96 -85 96c-57 0 -83 -29 -89 -74h-137c9 124 107 179 235 179s219 -52 219 -194v-341h-141v63c-30 -42 -76 -74 -158 -74zM248 90c64 0 113 35 113 93v44h-56c-84 0 -133 -18 -133 -74
c0 -38 23 -63 76 -63zM226 594l57 159h152l-104 -159h-105z" />
    <glyph glyph-name="agrave" unicode="&#xe0;" horiz-adv-x="564" 
d="M205 -11c-95 0 -175 46 -175 156c0 122 112 168 272 168h59v21c0 62 -19 96 -85 96c-57 0 -83 -29 -89 -74h-137c9 124 107 179 235 179s219 -52 219 -194v-341h-141v63c-30 -42 -76 -74 -158 -74zM248 90c64 0 113 35 113 93v44h-56c-84 0 -133 -18 -133 -74
c0 -38 23 -63 76 -63zM237 594l-104 159h152l57 -159h-105z" />
    <glyph glyph-name="acircumflex" unicode="&#xe2;" horiz-adv-x="564" 
d="M205 -11c-95 0 -175 46 -175 156c0 122 112 168 272 168h59v21c0 62 -19 96 -85 96c-57 0 -83 -29 -89 -74h-137c9 124 107 179 235 179s219 -52 219 -194v-341h-141v63c-30 -42 -76 -74 -158 -74zM248 90c64 0 113 35 113 93v44h-56c-84 0 -133 -18 -133 -74
c0 -38 23 -63 76 -63zM107 595l117 156h109l114 -156h-102l-69 63l-70 -63h-99z" />
    <glyph glyph-name="adieresis" unicode="&#xe4;" horiz-adv-x="564" 
d="M205 -11c-95 0 -175 46 -175 156c0 122 112 168 272 168h59v21c0 62 -19 96 -85 96c-57 0 -83 -29 -89 -74h-137c9 124 107 179 235 179s219 -52 219 -194v-341h-141v63c-30 -42 -76 -74 -158 -74zM248 90c64 0 113 35 113 93v44h-56c-84 0 -133 -18 -133 -74
c0 -38 23 -63 76 -63zM182 600c-41 0 -74 32 -74 72s33 72 74 72s74 -32 74 -72s-33 -72 -74 -72zM386 600c-41 0 -74 32 -74 72s33 72 74 72s74 -32 74 -72s-33 -72 -74 -72z" />
    <glyph glyph-name="atilde" unicode="&#xe3;" horiz-adv-x="564" 
d="M205 -11c-95 0 -175 46 -175 156c0 122 112 168 272 168h59v21c0 62 -19 96 -85 96c-57 0 -83 -29 -89 -74h-137c9 124 107 179 235 179s219 -52 219 -194v-341h-141v63c-30 -42 -76 -74 -158 -74zM248 90c64 0 113 35 113 93v44h-56c-84 0 -133 -18 -133 -74
c0 -38 23 -63 76 -63zM344 598c-51 0 -83 38 -113 38c-17 0 -31 -16 -35 -37h-83c7 92 51 141 110 141c49 0 83 -37 115 -37c18 0 30 15 34 37h84c-8 -93 -55 -142 -112 -142z" />
    <glyph glyph-name="aring" unicode="&#xe5;" horiz-adv-x="564" 
d="M205 -11c-95 0 -175 46 -175 156c0 122 112 168 272 168h59v21c0 62 -19 96 -85 96c-57 0 -83 -29 -89 -74h-137c9 124 107 179 235 179s219 -52 219 -194v-341h-141v63c-30 -42 -76 -74 -158 -74zM248 90c64 0 113 35 113 93v44h-56c-84 0 -133 -18 -133 -74
c0 -38 23 -63 76 -63zM284 643c28 0 48 22 48 53c0 30 -20 53 -48 53s-48 -23 -48 -53c0 -31 20 -53 48 -53zM284 585c-63 0 -114 50 -114 111c0 60 51 110 114 110s114 -50 114 -110c0 -61 -51 -111 -114 -111z" />
    <glyph glyph-name="ccedilla" unicode="&#xe7;" horiz-adv-x="578" 
d="M282 -222c-67 0 -110 34 -117 90h74c3 -16 15 -31 38 -31c22 0 35 14 35 33c0 18 -13 31 -34 31c-15 0 -25 -5 -31 -10l-36 35l40 67c-128 18 -219 110 -219 262v8c0 169 121 272 270 272c121 0 233 -53 246 -203h-137c-10 61 -47 89 -106 89c-75 0 -125 -56 -125 -156
v-8c0 -105 47 -159 128 -159c58 0 105 34 112 101h131c-8 -121 -93 -205 -237 -210l-22 -37c53 6 104 -21 104 -84c0 -58 -48 -90 -114 -90z" />
    <glyph glyph-name="eacute" unicode="&#xe9;" horiz-adv-x="587" 
d="M240 594l57 159h152l-104 -159h-105zM305 -11c-158 0 -273 99 -273 266v8c0 165 117 272 269 272c135 0 255 -79 255 -266v-40h-377c4 -87 51 -137 130 -137c67 0 100 29 109 73h137c-17 -113 -107 -176 -250 -176zM181 318h234c-5 79 -45 117 -114 117
c-65 0 -109 -43 -120 -117z" />
    <glyph glyph-name="egrave" unicode="&#xe8;" horiz-adv-x="587" 
d="M305 -11c-158 0 -273 99 -273 266v8c0 165 117 272 269 272c135 0 255 -79 255 -266v-40h-377c4 -87 51 -137 130 -137c67 0 100 29 109 73h137c-17 -113 -107 -176 -250 -176zM181 318h234c-5 79 -45 117 -114 117c-65 0 -109 -43 -120 -117zM251 594l-104 159h152
l57 -159h-105z" />
    <glyph glyph-name="ecircumflex" unicode="&#xea;" horiz-adv-x="587" 
d="M128 595l117 156h109l114 -156h-102l-69 63l-70 -63h-99zM305 -11c-158 0 -273 99 -273 266v8c0 165 117 272 269 272c135 0 255 -79 255 -266v-40h-377c4 -87 51 -137 130 -137c67 0 100 29 109 73h137c-17 -113 -107 -176 -250 -176zM181 318h234
c-5 79 -45 117 -114 117c-65 0 -109 -43 -120 -117z" />
    <glyph glyph-name="edieresis" unicode="&#xeb;" horiz-adv-x="587" 
d="M196 600c-41 0 -74 32 -74 72s33 72 74 72s74 -32 74 -72s-33 -72 -74 -72zM400 600c-41 0 -74 32 -74 72s33 72 74 72s74 -32 74 -72s-33 -72 -74 -72zM305 -11c-158 0 -273 99 -273 266v8c0 165 117 272 269 272c135 0 255 -79 255 -266v-40h-377
c4 -87 51 -137 130 -137c67 0 100 29 109 73h137c-17 -113 -107 -176 -250 -176zM181 318h234c-5 79 -45 117 -114 117c-65 0 -109 -43 -120 -117z" />
    <glyph glyph-name="iacute" unicode="&#xed;" horiz-adv-x="281" 
d="M83 594l57 159h152l-104 -159h-105zM68 0v523h144v-523h-144z" />
    <glyph glyph-name="igrave" unicode="&#xec;" horiz-adv-x="281" 
d="M68 0v523h144v-523h-144zM94 594l-104 159h152l57 -159h-105z" />
    <glyph glyph-name="icircumflex" unicode="&#xee;" horiz-adv-x="281" 
d="M-29 595l117 156h109l114 -156h-102l-69 63l-70 -63h-99zM68 0v523h144v-523h-144z" />
    <glyph glyph-name="idieresis" unicode="&#xef;" horiz-adv-x="281" 
d="M40 600c-40 0 -73 32 -73 72s33 72 73 72c41 0 74 -32 74 -72s-33 -72 -74 -72zM239 600c-40 0 -73 32 -73 72s33 72 73 72c41 0 74 -32 74 -72s-33 -72 -74 -72zM68 0v523h144v-523h-144z" />
    <glyph glyph-name="ntilde" unicode="&#xf1;" horiz-adv-x="615" 
d="M64 0v523h145v-83c26 52 83 95 170 95c103 0 176 -62 176 -202v-333h-145v312c0 71 -28 105 -92 105c-62 0 -109 -38 -109 -115v-302h-145zM367 598c-51 0 -83 38 -113 38c-17 0 -31 -16 -35 -37h-83c7 92 51 141 110 141c49 0 83 -37 115 -37c18 0 30 15 34 37h84
c-8 -93 -55 -142 -112 -142z" />
    <glyph glyph-name="oacute" unicode="&#xf3;" horiz-adv-x="616" 
d="M249 594l57 159h152l-104 -159h-105zM308 99c81 0 128 60 128 159v7c0 100 -47 160 -128 160c-80 0 -128 -58 -128 -158v-8c0 -100 46 -160 128 -160zM307 -11c-156 0 -275 104 -275 267v8c0 164 119 271 276 271s275 -105 275 -268v-8c0 -165 -119 -270 -276 -270z" />
    <glyph glyph-name="ograve" unicode="&#xf2;" horiz-adv-x="616" 
d="M308 99c81 0 128 60 128 159v7c0 100 -47 160 -128 160c-80 0 -128 -58 -128 -158v-8c0 -100 46 -160 128 -160zM307 -11c-156 0 -275 104 -275 267v8c0 164 119 271 276 271s275 -105 275 -268v-8c0 -165 -119 -270 -276 -270zM260 594l-104 159h152l57 -159h-105z" />
    <glyph glyph-name="ocircumflex" unicode="&#xf4;" horiz-adv-x="616" 
d="M137 595l117 156h109l114 -156h-102l-69 63l-70 -63h-99zM308 99c81 0 128 60 128 159v7c0 100 -47 160 -128 160c-80 0 -128 -58 -128 -158v-8c0 -100 46 -160 128 -160zM307 -11c-156 0 -275 104 -275 267v8c0 164 119 271 276 271s275 -105 275 -268v-8
c0 -165 -119 -270 -276 -270z" />
    <glyph glyph-name="odieresis" unicode="&#xf6;" horiz-adv-x="616" 
d="M205 600c-41 0 -74 32 -74 72s33 72 74 72s74 -32 74 -72s-33 -72 -74 -72zM409 600c-41 0 -74 32 -74 72s33 72 74 72s74 -32 74 -72s-33 -72 -74 -72zM308 99c81 0 128 60 128 159v7c0 100 -47 160 -128 160c-80 0 -128 -58 -128 -158v-8c0 -100 46 -160 128 -160z
M307 -11c-156 0 -275 104 -275 267v8c0 164 119 271 276 271s275 -105 275 -268v-8c0 -165 -119 -270 -276 -270z" />
    <glyph glyph-name="otilde" unicode="&#xf5;" horiz-adv-x="616" 
d="M308 99c81 0 128 60 128 159v7c0 100 -47 160 -128 160c-80 0 -128 -58 -128 -158v-8c0 -100 46 -160 128 -160zM307 -11c-156 0 -275 104 -275 267v8c0 164 119 271 276 271s275 -105 275 -268v-8c0 -165 -119 -270 -276 -270zM367 598c-51 0 -83 38 -113 38
c-17 0 -31 -16 -35 -37h-83c7 92 51 141 110 141c49 0 83 -37 115 -37c18 0 30 15 34 37h84c-8 -93 -55 -142 -112 -142z" />
    <glyph glyph-name="uacute" unicode="&#xfa;" horiz-adv-x="612" 
d="M247 594l57 159h152l-104 -159h-105zM238 -11c-102 0 -178 60 -178 197v337h144v-317c0 -71 29 -105 91 -105c61 0 109 38 109 115v307h144v-523h-144v82c-27 -53 -80 -93 -166 -93z" />
    <glyph glyph-name="ugrave" unicode="&#xf9;" horiz-adv-x="612" 
d="M238 -11c-102 0 -178 60 -178 197v337h144v-317c0 -71 29 -105 91 -105c61 0 109 38 109 115v307h144v-523h-144v82c-27 -53 -80 -93 -166 -93zM258 594l-104 159h152l57 -159h-105z" />
    <glyph glyph-name="ucircumflex" unicode="&#xfb;" horiz-adv-x="612" 
d="M135 595l117 156h109l114 -156h-102l-69 63l-70 -63h-99zM238 -11c-102 0 -178 60 -178 197v337h144v-317c0 -71 29 -105 91 -105c61 0 109 38 109 115v307h144v-523h-144v82c-27 -53 -80 -93 -166 -93z" />
    <glyph glyph-name="udieresis" unicode="&#xfc;" horiz-adv-x="612" 
d="M203 600c-41 0 -74 32 -74 72s33 72 74 72s74 -32 74 -72s-33 -72 -74 -72zM407 600c-41 0 -74 32 -74 72s33 72 74 72s74 -32 74 -72s-33 -72 -74 -72zM238 -11c-102 0 -178 60 -178 197v337h144v-317c0 -71 29 -105 91 -105c61 0 109 38 109 115v307h144v-523h-144v82
c-27 -53 -80 -93 -166 -93z" />
    <glyph glyph-name="dagger" unicode="&#x2020;" horiz-adv-x="394" 
d="M137 213v276h-110v105h110v121h120v-121h109v-105h-109v-276h-120z" />
    <glyph glyph-name="degree" unicode="&#xb0;" horiz-adv-x="443" 
d="M222 456c53 0 90 44 90 100c0 58 -37 102 -90 102c-54 0 -93 -44 -93 -102c0 -56 39 -100 93 -100zM222 390c-95 0 -172 76 -172 166c0 92 77 168 172 168s171 -76 171 -168c0 -90 -76 -166 -171 -166z" />
    <glyph glyph-name="cent" unicode="&#xa2;" horiz-adv-x="584" 
d="M272 -135v126c-139 13 -240 106 -240 264v8c0 155 104 254 240 270v96h71v-96c110 -9 202 -70 214 -201h-135c-7 52 -37 81 -79 91v-328c47 11 83 45 89 104h128c-8 -115 -89 -196 -217 -208v-126h-71zM176 257c0 -90 36 -144 96 -160v325c-58 -16 -96 -71 -96 -157v-8z
" />
    <glyph glyph-name="sterling" unicode="&#xa3;" horiz-adv-x="635" 
d="M39 297v99h57c-9 32 -15 67 -15 108c0 138 111 221 255 221c164 0 244 -89 252 -222h-149c-11 65 -38 98 -99 98c-58 0 -98 -41 -98 -104c0 -36 4 -69 10 -101h191v-99h-171c4 -26 7 -54 7 -83c0 -23 -5 -43 -12 -61c48 -14 88 -34 121 -34c43 0 70 19 73 69h144
c-6 -113 -70 -197 -188 -197c-96 0 -163 56 -214 56c-36 0 -52 -22 -55 -47h-123c5 66 38 134 106 157c5 16 9 34 9 57c0 28 -6 55 -14 83h-87z" />
    <glyph glyph-name="section" unicode="&#xa7;" horiz-adv-x="582" 
d="M283 -137c-129 0 -206 66 -210 176h135c3 -45 24 -74 76 -74c51 0 74 26 74 62c0 39 -25 56 -119 79c-127 31 -210 75 -210 186c0 67 43 114 110 136c-34 30 -51 68 -51 120c0 107 93 177 211 177c127 0 202 -65 206 -174h-133c-4 44 -23 70 -75 70
c-50 0 -73 -27 -73 -62c0 -40 22 -56 115 -79c125 -30 214 -68 214 -186c0 -63 -42 -112 -109 -137c33 -29 50 -67 50 -119c0 -102 -89 -175 -211 -175zM353 210c42 10 60 32 60 64c0 43 -35 56 -108 78l-76 23c-38 -7 -60 -31 -60 -65c0 -39 36 -55 110 -77z" />
    <glyph glyph-name="bullet" unicode="&#x2022;" horiz-adv-x="357" 
d="M179 169c-77 0 -136 60 -136 135s59 135 136 135c78 0 135 -60 135 -135s-57 -135 -135 -135z" />
    <glyph glyph-name="paragraph" unicode="&#xb6;" horiz-adv-x="564" 
d="M263 -100v435h-10c-131 0 -219 62 -219 187c0 130 92 193 219 193h233v-815h-74v754h-76v-754h-73z" />
    <glyph glyph-name="germandbls" unicode="&#xdf;" horiz-adv-x="619" 
d="M364 -10c-43 0 -77 8 -94 13v112c14 -6 36 -12 63 -12c54 0 108 25 108 128v6c0 98 -64 140 -159 139v110c83 -1 114 50 114 97v4c0 54 -32 86 -92 86c-58 0 -96 -42 -96 -110v-563h-144v552c0 149 114 221 247 221c135 0 222 -66 222 -182v-2c0 -67 -47 -127 -119 -149
c97 -23 174 -96 174 -210v-7c0 -164 -100 -233 -224 -233z" />
    <glyph glyph-name="registered" unicode="&#xae;" horiz-adv-x="516" 
d="M176 396v219h85c57 0 89 -23 89 -69v-1c0 -32 -17 -49 -40 -59l53 -90h-64l-45 79h-16v-79h-62zM238 515h20c21 0 32 9 32 27v1c0 18 -12 25 -32 25h-20v-53zM258 319c104 0 184 75 184 184s-77 184 -184 184s-184 -76 -184 -185c0 -110 81 -183 184 -183zM258 281
c-126 0 -227 96 -227 221c0 123 100 223 227 223c128 0 226 -99 226 -222c0 -125 -100 -222 -226 -222z" />
    <glyph glyph-name="copyright" unicode="&#xa9;" horiz-adv-x="843" 
d="M426 152c-134 0 -204 80 -204 201v8c0 122 86 202 201 202c101 0 174 -48 182 -150h-109c-6 42 -29 65 -73 65c-55 0 -89 -41 -89 -117v-7c0 -75 32 -116 91 -116c43 0 74 22 80 69h104c-7 -102 -81 -155 -183 -155zM421 32c174 0 321 132 321 327
c0 192 -143 324 -319 324c-179 0 -322 -133 -322 -326c0 -195 148 -325 320 -325zM421 -16c-209 0 -377 162 -377 373c0 208 167 374 379 374c214 0 377 -165 377 -372c0 -212 -168 -375 -379 -375z" />
    <glyph glyph-name="trademark" unicode="&#x2122;" horiz-adv-x="744" 
d="M342 393v322h109l70 -183l71 183h111v-322h-89v208l-84 -208h-28l-83 208v-208h-77zM119 393v252h-88v70h265v-70h-88v-252h-89z" />
    <glyph glyph-name="acute" unicode="&#xb4;" horiz-adv-x="400" 
d="M140 594l57 159h152l-104 -159h-105z" />
    <glyph glyph-name="dieresis" unicode="&#xa8;" horiz-adv-x="400" 
d="M98 600c-41 0 -74 32 -74 72s33 72 74 72s74 -32 74 -72s-33 -72 -74 -72zM302 600c-41 0 -74 32 -74 72s33 72 74 72s74 -32 74 -72s-33 -72 -74 -72z" />
    <glyph glyph-name="notequal" unicode="&#x2260;" horiz-adv-x="530" 
d="M39 368v104h233l39 99h101l-39 -99h118v-104h-158l-33 -87h191v-103h-231l-38 -99h-101l38 99h-120v103h160l33 87h-193z" />
    <glyph glyph-name="AE" unicode="&#xc6;" horiz-adv-x="983" 
d="M17 0l340 715h574v-126h-300v-167h239v-118h-239v-178h317v-126h-479v168h-218l-77 -168h-157zM445 589l-142 -309h166v309h-24z" />
    <glyph glyph-name="Oslash" unicode="&#xd8;" horiz-adv-x="816" 
d="M87 -32l-54 53l87 93c-52 62 -80 145 -80 239v8c0 213 156 364 368 364c86 0 162 -24 222 -65l76 81l54 -54l-73 -78c56 -62 89 -146 89 -244v-8c0 -214 -146 -368 -369 -368c-93 0 -172 26 -233 72zM410 118c122 0 199 93 199 237v8c0 52 -10 96 -28 132l-306 -327
c35 -33 81 -50 135 -50zM207 354c0 -48 8 -88 23 -122l303 324c-32 26 -75 41 -125 41c-125 0 -201 -90 -201 -235v-8z" />
    <glyph glyph-name="plusminus" unicode="&#xb1;" horiz-adv-x="551" 
d="M217 165v171h-180v108h180v172h118v-172h180v-108h-180v-171h-118zM37 0v100h479v-100h-479z" />
    <glyph glyph-name="lessequal" unicode="&#x2264;" horiz-adv-x="509" 
d="M454 134l-408 218v29l408 218v-130l-201 -102l201 -101v-132zM46 0v100h408v-100h-408z" />
    <glyph glyph-name="greaterequal" unicode="&#x2265;" horiz-adv-x="509" 
d="M56 134v132l200 101l-200 102v130l408 -218v-29zM56 0v100h408v-100h-408z" />
    <glyph glyph-name="yen" unicode="&#xa5;" horiz-adv-x="621" 
d="M71 289v67h144l-198 359h176l129 -266l126 266h155l-187 -359h145v-67h-164v-61h164v-66h-164v-162h-162v162h-164v66h164v61h-164z" />
    <glyph glyph-name="ordfeminine" unicode="&#xaa;" horiz-adv-x="460" 
d="M169 288c-76 0 -141 37 -141 125c0 98 85 132 217 132h47v19c0 44 -16 67 -61 67c-42 0 -60 -23 -65 -53h-122c7 98 85 146 193 146c110 0 182 -45 182 -157v-269h-125v49c-22 -32 -59 -59 -125 -59zM210 378c47 0 82 24 82 66v31h-43c-59 0 -93 -14 -93 -52
c0 -29 16 -45 54 -45z" />
    <glyph glyph-name="ordmasculine" unicode="&#xba;" horiz-adv-x="511" 
d="M256 386c60 0 91 44 91 118v6c0 73 -32 116 -91 116c-58 0 -92 -42 -92 -116v-6c0 -75 32 -118 92 -118zM255 288c-126 0 -223 81 -223 212v6c0 134 97 218 224 218s223 -82 223 -213v-6c0 -134 -97 -217 -224 -217z" />
    <glyph glyph-name="ae" unicode="&#xe6;" horiz-adv-x="898" 
d="M623 -11c-92 0 -160 34 -201 97c-45 -63 -106 -97 -206 -97c-102 0 -186 46 -186 156c0 123 111 171 270 171h62v18c0 62 -22 96 -85 96c-58 0 -84 -28 -90 -74h-137c9 124 108 179 230 179c77 0 135 -20 167 -70c42 45 100 70 171 70c132 0 249 -77 249 -266v-39h-367
c5 -88 46 -138 124 -138c65 0 97 29 105 73h136c-16 -113 -104 -176 -242 -176zM248 90c67 0 114 35 114 93v46h-59c-81 0 -131 -17 -131 -73c0 -41 23 -66 76 -66zM502 316h224c-6 81 -42 119 -108 119c-64 0 -107 -44 -116 -119z" />
    <glyph glyph-name="oslash" unicode="&#xf8;" horiz-adv-x="616" 
d="M71 -38l-49 44l70 75c-38 45 -60 104 -60 175v8c0 164 119 271 276 271c61 0 117 -16 161 -46l66 71l49 -44l-65 -70c40 -45 64 -106 64 -179v-8c0 -165 -119 -270 -276 -270c-64 0 -121 17 -166 48zM308 98c82 0 129 61 129 160v7c0 30 -5 56 -13 78l-200 -216
c21 -19 49 -29 84 -29zM179 259c0 -28 3 -52 10 -73l197 213c-20 17 -47 26 -78 26c-81 0 -129 -58 -129 -158v-8z" />
    <glyph glyph-name="questiondown" unicode="&#xbf;" horiz-adv-x="532" 
d="M359 375v-30c0 -78 -52 -127 -99 -172c-37 -35 -68 -67 -68 -107c0 -46 24 -75 77 -75c55 0 92 40 99 103h139c-6 -138 -105 -220 -247 -220c-148 0 -223 74 -223 180c0 68 39 114 82 156c48 47 100 87 106 140v25h134zM293 607c51 0 91 -38 91 -86s-40 -87 -91 -87
c-50 0 -91 39 -91 87s41 86 91 86z" />
    <glyph glyph-name="exclamdown" unicode="&#xa1;" horiz-adv-x="317" 
d="M77 -117l22 492h118l22 -492h-162zM159 434c-50 0 -92 38 -92 87c0 48 42 86 92 86s91 -38 91 -86c0 -49 -41 -87 -91 -87z" />
    <glyph glyph-name="florin" unicode="&#x192;" horiz-adv-x="429" 
d="M25 312v102h93l20 134c17 123 90 176 201 176c32 0 52 -3 75 -11v-110c-14 5 -32 9 -57 9c-47 0 -71 -29 -77 -75l-18 -123h120v-102h-135l-72 -494h-144l72 494h-78z" />
    <glyph glyph-name="approxequal" unicode="&#x2248;" horiz-adv-x="549" 
d="M40 137c7 110 64 157 129 157c79 0 156 -42 207 -42c23 0 41 15 45 45h88c-5 -106 -63 -156 -127 -156c-81 0 -158 41 -208 41c-24 0 -41 -16 -46 -45h-88zM40 342c7 110 64 156 129 156c79 0 156 -41 207 -41c23 0 41 15 45 44h88c-5 -106 -63 -156 -127 -156
c-81 0 -158 42 -208 42c-24 0 -41 -16 -46 -45h-88z" />
    <glyph glyph-name="guillemotleft" unicode="&#xab;" horiz-adv-x="487" 
d="M168 75l-127 186l127 186h103l-122 -186l122 -186h-103zM347 75l-127 186l127 186h103l-122 -186l122 -186h-103z" />
    <glyph glyph-name="guillemotright" unicode="&#xbb;" horiz-adv-x="487" 
d="M38 75l121 186l-121 186h103l126 -186l-126 -186h-103zM217 75l121 186l-121 186h103l126 -186l-126 -186h-103z" />
    <glyph glyph-name="ellipsis" unicode="&#x2026;" horiz-adv-x="861" 
d="M146 -9c-50 0 -89 39 -89 88c0 48 39 87 89 87c51 0 90 -39 90 -87c0 -49 -39 -88 -90 -88zM430 -9c-50 0 -88 39 -88 88c0 48 38 87 88 87c51 0 90 -39 90 -87c0 -49 -39 -88 -90 -88zM714 -9c-50 0 -88 39 -88 88c0 48 38 87 88 87c51 0 90 -39 90 -87
c0 -49 -39 -88 -90 -88z" />
    <glyph glyph-name="uni00A0" unicode="&#xa0;" horiz-adv-x="266" 
 />
    <glyph glyph-name="Agrave" unicode="&#xc0;" horiz-adv-x="720" 
d="M21 0l235 715h211l232 -715h-169l-49 159h-259l-49 -159h-152zM352 583l-95 -309h189zM312 763l-99 139h156l52 -139h-109z" />
    <glyph glyph-name="Atilde" unicode="&#xc3;" horiz-adv-x="720" 
d="M21 0l235 715h211l232 -715h-169l-49 159h-259l-49 -159h-152zM420 764c-52 0 -86 37 -115 37c-18 0 -31 -16 -35 -37h-86c7 92 55 140 114 140c49 0 84 -38 116 -38c18 0 30 16 34 37h87c-8 -92 -58 -139 -115 -139zM352 583l-95 -309h189z" />
    <glyph glyph-name="Otilde" unicode="&#xd5;" horiz-adv-x="816" 
d="M468 764c-52 0 -86 37 -115 37c-18 0 -31 -16 -35 -37h-86c7 92 55 140 114 140c49 0 84 -38 116 -38c18 0 30 16 34 37h87c-8 -92 -58 -139 -115 -139zM410 118c121 0 197 93 197 237v8c0 139 -74 234 -199 234c-124 0 -199 -91 -199 -235v-8c0 -146 84 -236 201 -236z
M407 -11c-224 0 -367 155 -367 364v8c0 213 156 364 368 364c215 0 368 -145 368 -360v-8c0 -213 -146 -368 -369 -368z" />
    <glyph glyph-name="OE" unicode="&#x152;" horiz-adv-x="970" 
d="M40 358c0 214 126 357 375 357h503v-126h-289v-167h228v-118h-228v-178h306v-126h-521c-249 0 -374 136 -374 350v8zM468 589h-48c-144 0 -211 -81 -211 -229v-8c0 -147 62 -226 213 -226h46v463z" />
    <glyph glyph-name="oe" unicode="&#x153;" horiz-adv-x="989" 
d="M307 -11c-156 0 -275 104 -275 267v8c0 164 119 271 276 271c86 0 156 -34 200 -92c44 58 112 92 195 92c135 0 255 -79 255 -266v-40h-378c5 -87 51 -137 131 -137c67 0 100 29 108 73h137c-16 -113 -106 -176 -249 -176c-88 0 -157 32 -201 90
c-45 -58 -114 -90 -199 -90zM308 99c81 0 128 60 128 159v7c0 100 -47 160 -128 160c-80 0 -128 -58 -128 -158v-8c0 -101 46 -160 128 -160zM583 318h233c-5 79 -45 117 -113 117c-65 0 -110 -43 -120 -117z" />
    <glyph glyph-name="endash" unicode="&#x2013;" horiz-adv-x="535" 
d="M45 240v92h445v-92h-445z" />
    <glyph glyph-name="emdash" unicode="&#x2014;" horiz-adv-x="924" 
d="M45 240v92h834v-92h-834z" />
    <glyph glyph-name="quotedblleft" unicode="&#x201c;" horiz-adv-x="498" 
d="M163 450l-129 47l129 230l83 -34zM372 450l-129 47l129 230l83 -34z" />
    <glyph glyph-name="quotedblright" unicode="&#x201d;" horiz-adv-x="498" 
d="M127 450l-83 34l83 243l129 -46zM335 450l-82 34l83 243l129 -46z" />
    <glyph glyph-name="quoteleft" unicode="&#x2018;" horiz-adv-x="290" 
d="M163 450l-129 47l129 230l83 -34z" />
    <glyph glyph-name="quoteright" unicode="&#x2019;" horiz-adv-x="290" 
d="M127 450l-83 34l83 243l129 -46z" />
    <glyph glyph-name="divide" unicode="&#xf7;" horiz-adv-x="553" 
d="M276 60c-46 0 -83 36 -83 82c0 45 37 82 83 82s84 -37 84 -82c0 -46 -38 -82 -84 -82zM37 289v104h479v-104h-479zM276 458c-46 0 -83 36 -83 82s37 82 83 82s84 -36 84 -82s-38 -82 -84 -82z" />
    <glyph glyph-name="ydieresis" unicode="&#xff;" horiz-adv-x="567" 
d="M130 -178l92 231l-208 470h156l127 -314l117 314h139l-283 -701h-140zM191 600c-41 0 -74 32 -74 72s33 72 74 72s74 -32 74 -72s-33 -72 -74 -72zM395 600c-41 0 -74 32 -74 72s33 72 74 72s74 -32 74 -72s-33 -72 -74 -72z" />
    <glyph glyph-name="Ydieresis" unicode="&#x178;" horiz-adv-x="648" 
d="M249 0v308l-236 407h178l145 -274l142 274h157l-223 -407v-308h-163zM220 769c-41 0 -74 33 -74 73s33 72 74 72c40 0 74 -32 74 -72s-34 -73 -74 -73zM435 769c-40 0 -73 33 -73 73s33 72 73 72c41 0 74 -32 74 -72s-33 -73 -74 -73z" />
    <glyph glyph-name="fraction" unicode="&#x2044;" horiz-adv-x="148" 
d="M-238 0l540 715h84l-540 -715h-84z" />
    <glyph glyph-name="Euro" unicode="&#x20ac;" horiz-adv-x="703" 
d="M26 386v66h67c21 158 129 273 295 273c160 0 258 -86 274 -244h-151c-10 78 -54 121 -124 121c-80 0 -124 -59 -137 -150h186l-12 -66h-177v-62h166l-12 -66h-151c13 -91 56 -143 138 -143c77 0 119 45 131 134h149c-19 -164 -115 -260 -283 -260
c-171 0 -272 112 -292 269h-67v66h63v62h-63z" />
    <glyph glyph-name="guilsinglleft" unicode="&#x2039;" horiz-adv-x="312" 
d="M168 75l-127 186l127 186h107l-122 -186l122 -186h-107z" />
    <glyph glyph-name="guilsinglright" unicode="&#x203a;" horiz-adv-x="312" 
d="M38 75l121 186l-121 186h107l126 -186l-126 -186h-107z" />
    <glyph glyph-name="daggerdbl" unicode="&#x2021;" horiz-adv-x="394" 
d="M137 421v86h-110v97h110v111h120v-111h109v-97h-109v-86h109v-97h-109v-111h-120v111h-110v97h110z" />
    <glyph glyph-name="periodcentered" unicode="&#xb7;" horiz-adv-x="293" 
d="M146 239c-50 0 -89 39 -89 88c0 48 39 87 89 87c51 0 90 -39 90 -87c0 -49 -39 -88 -90 -88z" />
    <glyph glyph-name="quotesinglbase" unicode="&#x201a;" horiz-adv-x="289" 
d="M124 -109l-82 34l83 244l129 -47z" />
    <glyph glyph-name="quotedblbase" unicode="&#x201e;" horiz-adv-x="498" 
d="M124 -109l-82 34l83 244l129 -47zM333 -109l-83 34l84 244l129 -47z" />
    <glyph glyph-name="perthousand" unicode="&#x2030;" horiz-adv-x="1187" 
d="M206 467c41 0 66 32 66 84c0 51 -25 83 -66 83s-67 -31 -67 -83c0 -53 26 -84 67 -84zM205 378c-104 0 -177 74 -177 172c0 99 79 172 178 172s177 -70 177 -169c0 -100 -75 -175 -178 -175zM119 0l475 715h90l-475 -715h-90zM591 79c42 0 66 32 66 84
c0 51 -24 83 -66 83c-41 0 -67 -31 -67 -83c0 -54 26 -84 67 -84zM591 -11c-105 0 -177 74 -177 173s78 172 177 172s177 -71 177 -169c0 -100 -74 -176 -177 -176zM982 79c42 0 67 32 67 84c0 51 -25 83 -67 83c-41 0 -67 -31 -67 -83c0 -54 26 -84 67 -84zM982 -11
c-105 0 -177 74 -177 173s78 172 177 172s177 -71 177 -169c0 -100 -74 -176 -177 -176z" />
    <glyph glyph-name="Acircumflex" unicode="&#xc2;" horiz-adv-x="720" 
d="M21 0l235 715h211l232 -715h-169l-49 159h-259l-49 -159h-152zM352 583l-95 -309h189zM187 763l112 139h123l108 -139h-104l-68 53l-69 -53h-102z" />
    <glyph glyph-name="Ecircumflex" unicode="&#xca;" horiz-adv-x="595" 
d="M145 763l112 139h123l108 -139h-104l-68 53l-69 -53h-102zM77 0v715h466v-126h-305v-167h244v-118h-244v-178h321v-126h-482z" />
    <glyph glyph-name="Aacute" unicode="&#xc1;" horiz-adv-x="720" 
d="M21 0l235 715h211l232 -715h-169l-49 159h-259l-49 -159h-152zM352 583l-95 -309h189zM297 763l53 139h157l-101 -139h-109z" />
    <glyph glyph-name="Edieresis" unicode="&#xcb;" horiz-adv-x="595" 
d="M77 0v715h466v-126h-305v-167h244v-118h-244v-178h321v-126h-482zM209 769c-41 0 -74 33 -74 73s33 72 74 72c40 0 74 -32 74 -72s-34 -73 -74 -73zM424 769c-40 0 -73 33 -73 73s33 72 73 72c41 0 74 -32 74 -72s-33 -73 -74 -73z" />
    <glyph glyph-name="Egrave" unicode="&#xc8;" horiz-adv-x="595" 
d="M270 763l-99 139h156l52 -139h-109zM77 0v715h466v-126h-305v-167h244v-118h-244v-178h321v-126h-482z" />
    <glyph glyph-name="Iacute" unicode="&#xcd;" horiz-adv-x="325" 
d="M81 0v715h163v-715h-163zM100 763l53 139h157l-101 -139h-109z" />
    <glyph glyph-name="Icircumflex" unicode="&#xce;" horiz-adv-x="325" 
d="M81 0v715h163v-715h-163zM-10 763l112 139h123l108 -139h-104l-68 53l-69 -53h-102z" />
    <glyph glyph-name="Idieresis" unicode="&#xcf;" horiz-adv-x="325" 
d="M81 0v715h163v-715h-163zM54 769c-41 0 -74 33 -74 73s33 72 74 72c40 0 74 -32 74 -72s-34 -73 -74 -73zM269 769c-40 0 -73 33 -73 73s33 72 73 72c41 0 74 -32 74 -72s-33 -73 -74 -73z" />
    <glyph glyph-name="Igrave" unicode="&#xcc;" horiz-adv-x="325" 
d="M81 0v715h163v-715h-163zM115 763l-99 139h156l52 -139h-109z" />
    <glyph glyph-name="Oacute" unicode="&#xd3;" horiz-adv-x="816" 
d="M345 763l53 139h157l-101 -139h-109zM410 118c121 0 197 93 197 237v8c0 139 -74 234 -199 234c-124 0 -199 -91 -199 -235v-8c0 -146 84 -236 201 -236zM407 -11c-224 0 -367 155 -367 364v8c0 213 156 364 368 364c215 0 368 -145 368 -360v-8
c0 -213 -146 -368 -369 -368z" />
    <glyph glyph-name="Ocircumflex" unicode="&#xd4;" horiz-adv-x="816" 
d="M235 763l112 139h123l108 -139h-104l-68 53l-69 -53h-102zM410 118c121 0 197 93 197 237v8c0 139 -74 234 -199 234c-124 0 -199 -91 -199 -235v-8c0 -146 84 -236 201 -236zM407 -11c-224 0 -367 155 -367 364v8c0 213 156 364 368 364c215 0 368 -145 368 -360v-8
c0 -213 -146 -368 -369 -368z" />
    <glyph glyph-name="Ograve" unicode="&#xd2;" horiz-adv-x="816" 
d="M360 763l-99 139h156l52 -139h-109zM410 118c121 0 197 93 197 237v8c0 139 -74 234 -199 234c-124 0 -199 -91 -199 -235v-8c0 -146 84 -236 201 -236zM407 -11c-224 0 -367 155 -367 364v8c0 213 156 364 368 364c215 0 368 -145 368 -360v-8
c0 -213 -146 -368 -369 -368z" />
    <glyph glyph-name="Uacute" unicode="&#xda;" horiz-adv-x="739" 
d="M306 763l53 139h157l-101 -139h-109zM366 -11c-188 0 -295 100 -295 290v436h163v-426c0 -119 35 -171 133 -171c96 0 138 46 138 177v420h163v-430c0 -195 -109 -296 -302 -296z" />
    <glyph glyph-name="Ucircumflex" unicode="&#xdb;" horiz-adv-x="739" 
d="M196 763l112 139h123l108 -139h-104l-68 53l-69 -53h-102zM366 -11c-188 0 -295 100 -295 290v436h163v-426c0 -119 35 -171 133 -171c96 0 138 46 138 177v420h163v-430c0 -195 -109 -296 -302 -296z" />
    <glyph glyph-name="Ugrave" unicode="&#xd9;" horiz-adv-x="739" 
d="M321 763l-99 139h156l52 -139h-109zM366 -11c-188 0 -295 100 -295 290v436h163v-426c0 -119 35 -171 133 -171c96 0 138 46 138 177v420h163v-430c0 -195 -109 -296 -302 -296z" />
    <glyph glyph-name="dotlessi" unicode="&#x131;" horiz-adv-x="281" 
d="M68 0v523h144v-523h-144z" />
    <glyph glyph-name="circumflex" unicode="&#x2c6;" horiz-adv-x="400" 
d="M30 595l117 156h109l114 -156h-102l-69 63l-70 -63h-99z" />
    <glyph glyph-name="tilde" unicode="&#x2dc;" horiz-adv-x="400" 
d="M260 598c-51 0 -83 38 -113 38c-17 0 -31 -16 -35 -37h-83c7 92 51 141 110 141c49 0 83 -37 115 -37c18 0 30 15 34 37h84c-8 -93 -55 -142 -112 -142z" />
    <glyph glyph-name="macron" unicode="&#xaf;" horiz-adv-x="400" 
d="M54 625v87h291v-87h-291z" />
    <glyph glyph-name="breve" unicode="&#x2d8;" horiz-adv-x="400" 
d="M199 598c-87 0 -147 57 -152 149h95c4 -33 22 -54 57 -54s55 21 61 54h93c-5 -92 -69 -149 -154 -149z" />
    <glyph glyph-name="dotaccent" unicode="&#x2d9;" horiz-adv-x="400" 
d="M200 598c-46 0 -81 34 -81 77c0 44 35 77 81 77c45 0 81 -33 81 -77c0 -43 -36 -77 -81 -77z" />
    <glyph glyph-name="ring" unicode="&#x2da;" horiz-adv-x="400" 
d="M200 643c28 0 48 22 48 53c0 30 -20 53 -48 53s-48 -23 -48 -53c0 -31 20 -53 48 -53zM200 585c-63 0 -114 50 -114 111c0 60 51 110 114 110s114 -50 114 -110c0 -61 -51 -111 -114 -111z" />
    <glyph glyph-name="cedilla" unicode="&#xb8;" horiz-adv-x="400" 
d="M205 -222c-67 0 -110 34 -117 90h74c3 -16 15 -31 38 -31c22 0 35 14 35 33c0 18 -13 31 -34 31c-15 0 -25 -5 -31 -10l-36 35l45 74h65l-29 -48c53 6 104 -21 104 -84c0 -58 -48 -90 -114 -90z" />
    <glyph glyph-name="hungarumlaut" unicode="&#x2dd;" horiz-adv-x="400" 
d="M70 594l42 159h123l-76 -159h-89zM238 594l42 159h124l-76 -159h-90z" />
    <glyph glyph-name="ogonek" unicode="&#x2db;" horiz-adv-x="400" 
d="M207 -182c-63 0 -112 29 -112 79c0 48 41 82 84 103h90c-35 -25 -52 -46 -52 -71c0 -21 13 -31 33 -31c14 0 27 2 38 7v-72c-17 -8 -45 -15 -81 -15z" />
    <glyph glyph-name="caron" unicode="&#x2c7;" horiz-adv-x="400" 
d="M144 595l-114 156h102l69 -63l69 63h100l-117 -156h-109z" />
    <glyph glyph-name="space_uni0326" horiz-adv-x="400" 
d="M190 -228l-82 27l47 170l130 -21z" />
    <glyph glyph-name="caron.alt" horiz-adv-x="400" 
d="M162 586l10 174h119l-49 -174h-80z" />
    <glyph glyph-name="space_uni0326.alt" horiz-adv-x="400" 
d="M259 579l-130 21l95 175l82 -26z" />
    <glyph glyph-name="grave.uc" horiz-adv-x="400" 
d="M155 763l-99 139h156l52 -139h-109z" />
    <glyph glyph-name="dieresis.uc" horiz-adv-x="400" 
d="M92 769c-41 0 -74 33 -74 73s33 72 74 72c40 0 74 -32 74 -72s-34 -73 -74 -73zM307 769c-40 0 -73 33 -73 73s33 72 73 72c41 0 74 -32 74 -72s-33 -73 -74 -73z" />
    <glyph glyph-name="macron.uc" horiz-adv-x="400" 
d="M49 777v91h302v-91h-302z" />
    <glyph glyph-name="acute.uc" horiz-adv-x="400" 
d="M136 763l53 139h157l-101 -139h-109z" />
    <glyph glyph-name="circumflex.uc" horiz-adv-x="400" 
d="M28 763l112 139h123l108 -139h-104l-68 53l-69 -53h-102z" />
    <glyph glyph-name="caron.uc" horiz-adv-x="400" 
d="M136 763l-108 139h104l69 -52l68 52h102l-112 -139h-123z" />
    <glyph glyph-name="breve.uc" horiz-adv-x="400" 
d="M199 757c-89 0 -148 58 -153 146h97c5 -32 23 -52 56 -52s53 20 59 52h96c-6 -88 -68 -146 -155 -146z" />
    <glyph glyph-name="dotaccent.uc" horiz-adv-x="400" 
d="M200 768c-46 0 -81 34 -81 77s35 77 81 77c45 0 80 -34 80 -77s-35 -77 -80 -77z" />
    <glyph glyph-name="ring.uc" horiz-adv-x="400" 
d="M200 808c28 0 49 22 49 53s-21 54 -49 54c-29 0 -49 -23 -49 -54s20 -53 49 -53zM200 750c-63 0 -115 50 -115 111c0 62 52 112 115 112s115 -50 115 -112c0 -61 -52 -111 -115 -111z" />
    <glyph glyph-name="tilde.uc" horiz-adv-x="400" 
d="M261 764c-52 0 -86 37 -115 37c-18 0 -31 -16 -35 -37h-86c7 92 55 140 114 140c49 0 84 -38 116 -38c18 0 30 16 34 37h87c-8 -92 -58 -139 -115 -139z" />
    <glyph glyph-name="hungarumlaut.uc" horiz-adv-x="400" 
d="M60 763l39 139h132l-73 -139h-98zM240 763l39 139h132l-74 -139h-97z" />
    <glyph glyph-name="Dcroat" unicode="&#x110;" horiz-adv-x="753" 
d="M31 303v112h65v300h234c251 0 375 -136 375 -350v-8c0 -214 -125 -357 -376 -357h-233v303h-65zM256 126h68c145 0 212 81 212 229v8c0 147 -63 226 -213 226h-67v-174h151v-112h-151v-177z" />
    <glyph glyph-name="Eng" unicode="&#x14a;" horiz-adv-x="758" 
d="M456 -193c-60 0 -90 10 -115 22v119c24 -9 45 -17 84 -17c53 0 89 25 95 79l-296 509v-519h-147v715h190l267 -469v469h147v-697c0 -134 -84 -211 -225 -211z" />
    <glyph glyph-name="IJ" unicode="&#x132;" horiz-adv-x="750" 
d="M81 0v715h163v-715h-163zM447 -9c-62 0 -94 9 -119 22v124c24 -9 48 -17 90 -17c61 0 101 31 101 113v482h163v-484c0 -162 -88 -240 -235 -240z" />
    <glyph glyph-name="uni0237" unicode="&#x237;" horiz-adv-x="281" 
d="M-1 -187v108c50 4 69 27 69 69v533h144v-532c0 -109 -50 -176 -213 -178z" />
    <glyph glyph-name="dcroat" unicode="&#x111;" horiz-adv-x="637" 
d="M265 597v83h163v80h144v-80h64v-83h-64v-597h-144v87c-27 -53 -91 -98 -168 -98c-127 0 -227 91 -227 265v8c0 172 99 273 230 273c84 0 136 -37 165 -90v152h-163zM303 102c76 0 129 51 129 157v8c0 104 -46 157 -125 157c-81 0 -126 -55 -126 -159v-8
c0 -104 50 -155 122 -155z" />
    <glyph glyph-name="eng" unicode="&#x14b;" horiz-adv-x="615" 
d="M342 -187v108c50 4 68 27 68 69v322c0 71 -28 105 -92 105c-62 0 -109 -38 -109 -115v-302h-145v523h145v-83c26 52 83 95 170 95c103 0 176 -62 176 -202v-342c0 -109 -50 -176 -213 -178z" />
    <glyph glyph-name="ij" unicode="&#x133;" horiz-adv-x="561" 
d="M68 0v523h144v-523h-144zM139 594c-46 0 -82 34 -82 79s36 79 82 79c47 0 83 -34 83 -79s-36 -79 -83 -79zM279 -187v108c50 4 69 27 69 69v533h144v-532c0 -109 -50 -176 -213 -178zM419 594c-46 0 -82 34 -82 79s36 79 82 79c47 0 83 -34 83 -79s-36 -79 -83 -79z" />
    <glyph glyph-name="Abreve" unicode="&#x102;" horiz-adv-x="720" 
d="M21 0l235 715h211l232 -715h-169l-49 159h-259l-49 -159h-152zM358 757c-89 0 -148 58 -153 146h97c5 -32 23 -52 56 -52s53 20 59 52h96c-6 -88 -68 -146 -155 -146zM352 583l-95 -309h189z" />
    <glyph glyph-name="Amacron" unicode="&#x100;" horiz-adv-x="720" 
d="M21 0l235 715h211l232 -715h-169l-49 159h-259l-49 -159h-152zM352 583l-95 -309h189zM208 777v91h302v-91h-302z" />
    <glyph glyph-name="Aogonek" unicode="&#x104;" horiz-adv-x="720" 
d="M618 -182c-72 0 -117 31 -117 81c0 46 41 80 83 101h-54l-49 159h-259l-49 -159h-152l235 715h211l229 -705c-46 -27 -68 -55 -68 -79c0 -20 12 -30 33 -30c14 0 27 2 38 7v-75c-18 -8 -44 -15 -81 -15zM352 583l-95 -309h189z" />
    <glyph glyph-name="Aringacute" unicode="&#x1fa;" horiz-adv-x="720" 
d="M21 0l235 715h211l232 -715h-169l-49 159h-259l-49 -159h-152zM364 745c-63 0 -115 50 -115 111c0 62 52 112 115 112s115 -50 115 -112c0 -61 -52 -111 -115 -111zM352 583l-95 -309h189zM308 989l53 139h157l-101 -139h-109zM364 803c28 0 49 22 49 53s-21 54 -49 54
c-29 0 -49 -23 -49 -54s20 -53 49 -53z" />
    <glyph glyph-name="AEacute" unicode="&#x1fc;" horiz-adv-x="983" 
d="M17 0l340 715h574v-126h-300v-167h239v-118h-239v-178h317v-126h-479v168h-218l-77 -168h-157zM445 589l-142 -309h166v309h-24zM550 763l53 139h157l-101 -139h-109z" />
    <glyph glyph-name="Cacute" unicode="&#x106;" horiz-adv-x="748" 
d="M399 -11c-234 0 -359 144 -359 364v8c0 217 152 365 355 365c172 0 300 -84 317 -260h-166c-12 86 -60 132 -150 132c-113 0 -185 -88 -185 -236v-8c0 -148 68 -234 186 -234c89 0 151 45 164 137h159c-18 -177 -145 -268 -321 -268zM332 763l53 139h157l-101 -139h-109z
" />
    <glyph glyph-name="Ccaron" unicode="&#x10c;" horiz-adv-x="748" 
d="M330 763l-108 139h104l69 -52l68 52h102l-112 -139h-123zM399 -11c-234 0 -359 144 -359 364v8c0 217 152 365 355 365c172 0 300 -84 317 -260h-166c-12 86 -60 132 -150 132c-113 0 -185 -88 -185 -236v-8c0 -148 68 -234 186 -234c89 0 151 45 164 137h159
c-18 -177 -145 -268 -321 -268z" />
    <glyph glyph-name="Ccircumflex" unicode="&#x108;" horiz-adv-x="748" 
d="M222 763l112 139h123l108 -139h-104l-68 53l-69 -53h-102zM399 -11c-234 0 -359 144 -359 364v8c0 217 152 365 355 365c172 0 300 -84 317 -260h-166c-12 86 -60 132 -150 132c-113 0 -185 -88 -185 -236v-8c0 -148 68 -234 186 -234c89 0 151 45 164 137h159
c-18 -177 -145 -268 -321 -268z" />
    <glyph glyph-name="Cdotaccent" unicode="&#x10a;" horiz-adv-x="748" 
d="M399 -11c-234 0 -359 144 -359 364v8c0 217 152 365 355 365c172 0 300 -84 317 -260h-166c-12 86 -60 132 -150 132c-113 0 -185 -88 -185 -236v-8c0 -148 68 -234 186 -234c89 0 151 45 164 137h159c-18 -177 -145 -268 -321 -268zM392 768c-46 0 -81 34 -81 77
s35 77 81 77c45 0 80 -34 80 -77s-35 -77 -80 -77z" />
    <glyph glyph-name="Dcaron" unicode="&#x10e;" horiz-adv-x="726" 
d="M265 763l-108 139h104l69 -52l68 52h102l-112 -139h-123zM239 126h66c144 0 212 81 212 229v8c0 147 -63 226 -214 226h-64v-463zM77 0v715h234c251 0 375 -136 375 -350v-8c0 -214 -125 -357 -376 -357h-233z" />
    <glyph glyph-name="Ebreve" unicode="&#x114;" horiz-adv-x="595" 
d="M77 0v715h466v-126h-305v-167h244v-118h-244v-178h321v-126h-482zM318 757c-89 0 -148 58 -153 146h97c5 -32 23 -52 56 -52s53 20 59 52h96c-6 -88 -68 -146 -155 -146z" />
    <glyph glyph-name="Ecaron" unicode="&#x11a;" horiz-adv-x="595" 
d="M255 763l-108 139h104l69 -52l68 52h102l-112 -139h-123zM77 0v715h466v-126h-305v-167h244v-118h-244v-178h321v-126h-482z" />
    <glyph glyph-name="Edotaccent" unicode="&#x116;" horiz-adv-x="595" 
d="M317 768c-46 0 -81 34 -81 77s35 77 81 77c45 0 80 -34 80 -77s-35 -77 -80 -77zM77 0v715h466v-126h-305v-167h244v-118h-244v-178h321v-126h-482z" />
    <glyph glyph-name="Emacron" unicode="&#x112;" horiz-adv-x="595" 
d="M77 0v715h466v-126h-305v-167h244v-118h-244v-178h321v-126h-482zM166 777v91h302v-91h-302z" />
    <glyph glyph-name="Eogonek" unicode="&#x118;" horiz-adv-x="595" 
d="M462 -182c-70 0 -115 31 -115 81c0 46 41 80 83 101h-353v715h466v-126h-305v-167h244v-118h-244v-178h321v-126h-34c-34 -25 -51 -45 -51 -69c0 -20 12 -30 33 -30c14 0 27 2 38 7v-75c-18 -8 -45 -15 -83 -15z" />
    <glyph glyph-name="Gbreve" unicode="&#x11e;" horiz-adv-x="780" 
d="M404 -11c-234 0 -364 152 -364 364v8c0 215 153 365 364 365c159 0 301 -73 318 -250h-161c-14 84 -69 122 -155 122c-124 0 -197 -93 -197 -239v-8c0 -138 59 -237 199 -237c120 0 169 69 172 151h-161v118h321v-76c0 -191 -122 -318 -336 -318zM399 757
c-89 0 -148 58 -153 146h97c5 -32 23 -52 56 -52s53 20 59 52h96c-6 -88 -68 -146 -155 -146z" />
    <glyph glyph-name="Gcircumflex" unicode="&#x11c;" horiz-adv-x="780" 
d="M404 -11c-234 0 -364 152 -364 364v8c0 215 153 365 364 365c159 0 301 -73 318 -250h-161c-14 84 -69 122 -155 122c-124 0 -197 -93 -197 -239v-8c0 -138 59 -237 199 -237c120 0 169 69 172 151h-161v118h321v-76c0 -191 -122 -318 -336 -318zM228 763l112 139h123
l108 -139h-104l-68 53l-69 -53h-102z" />
    <glyph glyph-name="Gcommaaccent" unicode="&#x122;" horiz-adv-x="780" 
d="M404 -11c-234 0 -364 152 -364 364v8c0 215 153 365 364 365c159 0 301 -73 318 -250h-161c-14 84 -69 122 -155 122c-124 0 -197 -93 -197 -239v-8c0 -138 59 -237 199 -237c120 0 169 69 172 151h-161v118h321v-76c0 -191 -122 -318 -336 -318zM378 -228l-82 27l47 170
l130 -21z" />
    <glyph glyph-name="Gdotaccent" unicode="&#x120;" horiz-adv-x="780" 
d="M404 -11c-234 0 -364 152 -364 364v8c0 215 153 365 364 365c159 0 301 -73 318 -250h-161c-14 84 -69 122 -155 122c-124 0 -197 -93 -197 -239v-8c0 -138 59 -237 199 -237c120 0 169 69 172 151h-161v118h321v-76c0 -191 -122 -318 -336 -318zM400 768
c-46 0 -81 34 -81 77s35 77 81 77c45 0 80 -34 80 -77s-35 -77 -80 -77z" />
    <glyph glyph-name="Hbar" unicode="&#x126;" horiz-adv-x="764" 
d="M13 511v85h64v119h162v-119h287v119h162v-119h64v-85h-64v-511h-162v295h-287v-295h-162v511h-64zM239 423h287v88h-287v-88z" />
    <glyph glyph-name="Hcircumflex" unicode="&#x124;" horiz-adv-x="764" 
d="M77 0v715h162v-292h287v292h162v-715h-162v295h-287v-295h-162zM210 763l112 139h123l108 -139h-104l-68 53l-69 -53h-102z" />
    <glyph glyph-name="Idotaccent" unicode="&#x130;" horiz-adv-x="325" 
d="M81 0v715h163v-715h-163zM163 768c-46 0 -81 34 -81 77s35 77 81 77c45 0 80 -34 80 -77s-35 -77 -80 -77z" />
    <glyph glyph-name="Ibreve" unicode="&#x12c;" horiz-adv-x="325" 
d="M81 0v715h163v-715h-163zM163 757c-89 0 -148 58 -153 146h97c5 -32 23 -52 56 -52s53 20 59 52h96c-6 -88 -68 -146 -155 -146z" />
    <glyph glyph-name="Imacron" unicode="&#x12a;" horiz-adv-x="325" 
d="M81 0v715h163v-715h-163zM11 777v91h302v-91h-302z" />
    <glyph glyph-name="Iogonek" unicode="&#x12e;" horiz-adv-x="325" 
d="M170 -182c-71 0 -116 31 -116 81c0 46 41 80 83 101h-56v715h163v-706c-42 -27 -63 -52 -63 -78c0 -20 12 -30 33 -30c14 0 27 2 38 7v-75c-18 -8 -44 -15 -82 -15z" />
    <glyph glyph-name="Itilde" unicode="&#x128;" horiz-adv-x="325" 
d="M81 0v715h163v-715h-163zM225 764c-52 0 -86 37 -115 37c-18 0 -31 -16 -35 -37h-86c7 92 55 140 114 140c49 0 84 -38 116 -38c18 0 30 16 34 37h87c-8 -92 -58 -139 -115 -139z" />
    <glyph glyph-name="Jcircumflex" unicode="&#x134;" horiz-adv-x="457" 
d="M133 763l112 139h123l108 -139h-104l-68 53l-69 -53h-102zM154 -9c-62 0 -94 9 -119 22v124c24 -9 48 -17 90 -17c61 0 101 31 101 113v482h163v-484c0 -162 -88 -240 -235 -240z" />
    <glyph glyph-name="Kcommaaccent" unicode="&#x136;" horiz-adv-x="686" 
d="M77 0v715h162v-308l250 309h172l-283 -339l297 -377h-189l-247 321v-321h-162zM332 -228l-82 27l47 170l130 -21z" />
    <glyph glyph-name="Lacute" unicode="&#x139;" horiz-adv-x="560" 
d="M99 763l53 139h157l-101 -139h-109zM77 0v715h162v-588h291v-127h-453z" />
    <glyph glyph-name="Lcaron" unicode="&#x13d;" horiz-adv-x="560" 
d="M325 546l19 169h128l-60 -169h-87zM77 0v715h162v-588h291v-127h-453z" />
    <glyph glyph-name="Lcommaaccent" unicode="&#x13b;" horiz-adv-x="560" 
d="M280 -228l-82 27l47 170l130 -21zM77 0v715h162v-588h291v-127h-453z" />
    <glyph glyph-name="Ldot" unicode="&#x13f;" horiz-adv-x="577" 
d="M77 0v715h162v-588h291v-127h-453zM447 307c-50 0 -89 39 -89 88c0 48 39 87 89 87c51 0 90 -39 90 -87c0 -49 -39 -88 -90 -88z" />
    <glyph glyph-name="Nacute" unicode="&#x143;" horiz-adv-x="758" 
d="M332 763l53 139h157l-101 -139h-109zM77 0v715h188l272 -471v471h144v-715h-162l-298 509v-509h-144z" />
    <glyph glyph-name="Ncaron" unicode="&#x147;" horiz-adv-x="758" 
d="M330 763l-108 139h104l69 -52l68 52h102l-112 -139h-123zM77 0v715h188l272 -471v471h144v-715h-162l-298 509v-509h-144z" />
    <glyph glyph-name="Ncommaaccent" unicode="&#x145;" horiz-adv-x="758" 
d="M350 -228l-82 27l47 170l130 -21zM77 0v715h188l272 -471v471h144v-715h-162l-298 509v-509h-144z" />
    <glyph glyph-name="Obreve" unicode="&#x14e;" horiz-adv-x="816" 
d="M406 757c-89 0 -148 58 -153 146h97c5 -32 23 -52 56 -52s53 20 59 52h96c-6 -88 -68 -146 -155 -146zM410 118c121 0 197 93 197 237v8c0 139 -74 234 -199 234c-124 0 -199 -91 -199 -235v-8c0 -146 84 -236 201 -236zM407 -11c-224 0 -367 155 -367 364v8
c0 213 156 364 368 364c215 0 368 -145 368 -360v-8c0 -213 -146 -368 -369 -368z" />
    <glyph glyph-name="Ohungarumlaut" unicode="&#x150;" horiz-adv-x="816" 
d="M259 763l39 139h132l-73 -139h-98zM439 763l39 139h132l-74 -139h-97zM410 118c121 0 197 93 197 237v8c0 139 -74 234 -199 234c-124 0 -199 -91 -199 -235v-8c0 -146 84 -236 201 -236zM407 -11c-224 0 -367 155 -367 364v8c0 213 156 364 368 364
c215 0 368 -145 368 -360v-8c0 -213 -146 -368 -369 -368z" />
    <glyph glyph-name="Omacron" unicode="&#x14c;" horiz-adv-x="816" 
d="M256 777v91h302v-91h-302zM410 118c121 0 197 93 197 237v8c0 139 -74 234 -199 234c-124 0 -199 -91 -199 -235v-8c0 -146 84 -236 201 -236zM407 -11c-224 0 -367 155 -367 364v8c0 213 156 364 368 364c215 0 368 -145 368 -360v-8c0 -213 -146 -368 -369 -368z" />
    <glyph glyph-name="Oslashacute" unicode="&#x1fe;" horiz-adv-x="816" 
d="M87 -32l-54 53l87 93c-52 62 -80 145 -80 239v8c0 213 156 364 368 364c86 0 162 -24 222 -65l76 81l54 -54l-73 -78c56 -62 89 -146 89 -244v-8c0 -214 -146 -368 -369 -368c-93 0 -172 26 -233 72zM410 118c122 0 199 93 199 237v8c0 52 -10 96 -28 132l-306 -327
c35 -33 81 -50 135 -50zM207 354c0 -48 8 -88 23 -122l303 324c-32 26 -75 41 -125 41c-125 0 -201 -90 -201 -235v-8zM346 763l53 139h157l-101 -139h-109z" />
    <glyph glyph-name="Racute" unicode="&#x154;" horiz-adv-x="672" 
d="M265 763l53 139h157l-101 -139h-109zM77 0v715h256c169 0 276 -69 276 -217v-4c0 -108 -63 -165 -147 -190l189 -304h-172l-171 276h-70v-276h-161zM238 386h91c81 0 122 34 122 103v4c0 73 -44 98 -122 98h-91v-205z" />
    <glyph glyph-name="Rcaron" unicode="&#x158;" horiz-adv-x="672" 
d="M263 763l-108 139h104l69 -52l68 52h102l-112 -139h-123zM77 0v715h256c169 0 276 -69 276 -217v-4c0 -108 -63 -165 -147 -190l189 -304h-172l-171 276h-70v-276h-161zM238 386h91c81 0 122 34 122 103v4c0 73 -44 98 -122 98h-91v-205z" />
    <glyph glyph-name="Rcommaaccent" unicode="&#x156;" horiz-adv-x="672" 
d="M324 -228l-82 27l47 170l130 -21zM77 0v715h256c169 0 276 -69 276 -217v-4c0 -108 -63 -165 -147 -190l189 -304h-172l-171 276h-70v-276h-161zM238 386h91c81 0 122 34 122 103v4c0 73 -44 98 -122 98h-91v-205z" />
    <glyph glyph-name="Sacute" unicode="&#x15a;" horiz-adv-x="640" 
d="M327 -11c-196 0 -286 92 -295 235h155c7 -64 34 -117 140 -117c71 0 118 39 118 95c0 57 -30 77 -135 93c-183 24 -258 79 -258 217c0 122 102 213 260 213c161 0 255 -72 268 -214h-149c-10 65 -48 95 -119 95s-107 -33 -107 -81c0 -51 23 -75 133 -91
c173 -22 262 -69 262 -217c0 -127 -104 -228 -273 -228zM252 763l53 139h157l-101 -139h-109z" />
    <glyph glyph-name="Scedilla" unicode="&#x15e;" horiz-adv-x="640" 
d="M299 -222c-67 0 -110 34 -117 90h74c3 -16 15 -31 38 -31c22 0 35 14 35 33c0 18 -13 31 -34 31c-15 0 -25 -5 -31 -10l-36 35l40 66c-155 17 -228 104 -236 232h155c7 -64 34 -117 140 -117c71 0 118 39 118 95c0 57 -30 77 -135 93c-183 24 -258 79 -258 217
c0 122 102 213 260 213c161 0 255 -72 268 -214h-149c-10 65 -48 95 -119 95s-107 -33 -107 -81c0 -51 23 -75 133 -91c173 -22 262 -69 262 -217c0 -126 -102 -226 -269 -228l-22 -37c53 6 104 -21 104 -84c0 -58 -48 -90 -114 -90z" />
    <glyph glyph-name="Scircumflex" unicode="&#x15c;" horiz-adv-x="640" 
d="M142 763l112 139h123l108 -139h-104l-68 53l-69 -53h-102zM327 -11c-196 0 -286 92 -295 235h155c7 -64 34 -117 140 -117c71 0 118 39 118 95c0 57 -30 77 -135 93c-183 24 -258 79 -258 217c0 122 102 213 260 213c161 0 255 -72 268 -214h-149c-10 65 -48 95 -119 95
s-107 -33 -107 -81c0 -51 23 -75 133 -91c173 -22 262 -69 262 -217c0 -127 -104 -228 -273 -228z" />
    <glyph glyph-name="Scommaaccent" unicode="&#x218;" horiz-adv-x="642" 
d="M292 -228l-82 27l47 170l130 -21zM327 -11c-196 0 -286 92 -295 235h155c7 -64 34 -117 140 -117c71 0 118 39 118 95c0 57 -30 77 -135 93c-183 24 -258 79 -258 217c0 122 102 213 260 213c161 0 255 -72 268 -214h-149c-10 65 -48 95 -119 95s-107 -33 -107 -81
c0 -51 23 -75 133 -91c173 -22 262 -69 262 -217c0 -127 -104 -228 -273 -228z" />
    <glyph glyph-name="Tcaron" unicode="&#x164;" horiz-adv-x="597" 
d="M234 763l-108 139h104l69 -52l68 52h102l-112 -139h-123zM217 0v589h-193v126h549v-126h-193v-589h-163z" />
    <glyph glyph-name="Tcommaaccent" unicode="&#x162;" horiz-adv-x="598" 
d="M276 -228l-82 27l47 170l130 -21zM217 0v589h-193v126h549v-126h-193v-589h-163z" />
    <glyph glyph-name="Tbar" unicode="&#x166;" horiz-adv-x="597" 
d="M84 300v106h133v183h-193v126h549v-126h-193v-183h133v-106h-133v-300h-163v300h-133z" />
    <glyph glyph-name="Ubreve" unicode="&#x16c;" horiz-adv-x="739" 
d="M366 -11c-188 0 -295 100 -295 290v436h163v-426c0 -119 35 -171 133 -171c96 0 138 46 138 177v420h163v-430c0 -195 -109 -296 -302 -296zM367 757c-89 0 -148 58 -153 146h97c5 -32 23 -52 56 -52s53 20 59 52h96c-6 -88 -68 -146 -155 -146z" />
    <glyph glyph-name="Uhungarumlaut" unicode="&#x170;" horiz-adv-x="739" 
d="M220 763l39 139h132l-73 -139h-98zM400 763l39 139h132l-74 -139h-97zM366 -11c-188 0 -295 100 -295 290v436h163v-426c0 -119 35 -171 133 -171c96 0 138 46 138 177v420h163v-430c0 -195 -109 -296 -302 -296z" />
    <glyph glyph-name="Umacron" unicode="&#x16a;" horiz-adv-x="739" 
d="M366 -11c-188 0 -295 100 -295 290v436h163v-426c0 -119 35 -171 133 -171c96 0 138 46 138 177v420h163v-430c0 -195 -109 -296 -302 -296zM217 777v91h302v-91h-302z" />
    <glyph glyph-name="Uogonek" unicode="&#x172;" horiz-adv-x="739" 
d="M407 -182c-69 0 -114 30 -114 80c0 39 29 70 63 91c-182 3 -285 103 -285 290v436h163v-426c0 -119 35 -171 133 -171c96 0 138 46 138 177v420h163v-430c0 -137 -54 -225 -147 -267c-55 -26 -102 -45 -102 -87c0 -20 13 -30 33 -30c14 0 27 2 38 7v-75
c-17 -8 -44 -15 -83 -15z" />
    <glyph glyph-name="Uring" unicode="&#x16e;" horiz-adv-x="739" 
d="M366 -11c-188 0 -295 100 -295 290v436h163v-426c0 -119 35 -171 133 -171c96 0 138 46 138 177v420h163v-430c0 -195 -109 -296 -302 -296zM368 788c28 0 49 22 49 53s-21 54 -49 54c-29 0 -49 -23 -49 -54s20 -53 49 -53zM368 730c-63 0 -115 50 -115 111
c0 62 52 112 115 112s115 -50 115 -112c0 -61 -52 -111 -115 -111z" />
    <glyph glyph-name="Utilde" unicode="&#x168;" horiz-adv-x="739" 
d="M366 -11c-188 0 -295 100 -295 290v436h163v-426c0 -119 35 -171 133 -171c96 0 138 46 138 177v420h163v-430c0 -195 -109 -296 -302 -296zM429 764c-52 0 -86 37 -115 37c-18 0 -31 -16 -35 -37h-86c7 92 55 140 114 140c49 0 84 -38 116 -38c18 0 30 16 34 37h87
c-8 -92 -58 -139 -115 -139z" />
    <glyph glyph-name="Wacute" unicode="&#x1e82;" horiz-adv-x="971" 
d="M433 763l53 139h157l-101 -139h-109zM195 0l-174 715h164l112 -494l122 494h138l127 -497l116 497h150l-174 -715h-165l-129 494l-131 -494h-156z" />
    <glyph glyph-name="Wcircumflex" unicode="&#x174;" horiz-adv-x="971" 
d="M314 763l112 139h123l108 -139h-104l-68 53l-69 -53h-102zM195 0l-174 715h164l112 -494l122 494h138l127 -497l116 497h150l-174 -715h-165l-129 494l-131 -494h-156z" />
    <glyph glyph-name="Wdieresis" unicode="&#x1e84;" horiz-adv-x="971" 
d="M380 769c-41 0 -74 33 -74 73s33 72 74 72c40 0 74 -32 74 -72s-34 -73 -74 -73zM595 769c-40 0 -73 33 -73 73s33 72 73 72c41 0 74 -32 74 -72s-33 -73 -74 -73zM195 0l-174 715h164l112 -494l122 494h138l127 -497l116 497h150l-174 -715h-165l-129 494l-131 -494
h-156z" />
    <glyph glyph-name="Wgrave" unicode="&#x1e80;" horiz-adv-x="971" 
d="M441 763l-99 139h156l52 -139h-109zM195 0l-174 715h164l112 -494l122 494h138l127 -497l116 497h150l-174 -715h-165l-129 494l-131 -494h-156z" />
    <glyph glyph-name="Ycircumflex" unicode="&#x176;" horiz-adv-x="648" 
d="M249 0v308l-236 407h178l145 -274l142 274h157l-223 -407v-308h-163zM156 763l112 139h123l108 -139h-104l-68 53l-69 -53h-102z" />
    <glyph glyph-name="Ygrave" unicode="&#x1ef2;" horiz-adv-x="648" 
d="M249 0v308l-236 407h178l145 -274l142 274h157l-223 -407v-308h-163zM286 763l-99 139h156l52 -139h-109z" />
    <glyph glyph-name="Zacute" unicode="&#x179;" horiz-adv-x="615" 
d="M249 763l53 139h157l-101 -139h-109zM18 0v20l341 569h-303v126h532v-19l-334 -569h322v-127h-558z" />
    <glyph glyph-name="Zdotaccent" unicode="&#x17b;" horiz-adv-x="615" 
d="M18 0v20l341 569h-303v126h532v-19l-334 -569h322v-127h-558zM312 768c-46 0 -81 34 -81 77s35 77 81 77c45 0 80 -34 80 -77s-35 -77 -80 -77z" />
    <glyph glyph-name="abreve" unicode="&#x103;" horiz-adv-x="564" 
d="M205 -11c-95 0 -175 46 -175 156c0 122 112 168 272 168h59v21c0 62 -19 96 -85 96c-57 0 -83 -29 -89 -74h-137c9 124 107 179 235 179s219 -52 219 -194v-341h-141v63c-30 -42 -76 -74 -158 -74zM248 90c64 0 113 35 113 93v44h-56c-84 0 -133 -18 -133 -74
c0 -38 23 -63 76 -63zM283 598c-87 0 -147 57 -152 149h95c4 -33 22 -54 57 -54s55 21 61 54h93c-5 -92 -69 -149 -154 -149z" />
    <glyph glyph-name="amacron" unicode="&#x101;" horiz-adv-x="564" 
d="M205 -11c-95 0 -175 46 -175 156c0 122 112 168 272 168h59v21c0 62 -19 96 -85 96c-57 0 -83 -29 -89 -74h-137c9 124 107 179 235 179s219 -52 219 -194v-341h-141v63c-30 -42 -76 -74 -158 -74zM248 90c64 0 113 35 113 93v44h-56c-84 0 -133 -18 -133 -74
c0 -38 23 -63 76 -63zM138 625v87h291v-87h-291z" />
    <glyph glyph-name="aogonek" unicode="&#x105;" horiz-adv-x="564" 
d="M430 -182c-68 0 -112 30 -112 80c0 48 40 82 83 102h-38v63c-30 -42 -76 -74 -158 -74c-95 0 -175 46 -175 156c0 122 112 168 272 168h59v21c0 62 -19 96 -85 96c-57 0 -83 -29 -89 -74h-137c9 124 107 179 235 179s219 -52 219 -194v-333c-45 -29 -64 -54 -64 -79
c0 -21 12 -31 33 -31c14 0 27 2 38 7v-72c-18 -8 -43 -15 -81 -15zM248 90c64 0 113 35 113 93v44h-56c-84 0 -133 -18 -133 -74c0 -38 23 -63 76 -63z" />
    <glyph glyph-name="aringacute" unicode="&#x1fb;" horiz-adv-x="564" 
d="M205 -11c-95 0 -175 46 -175 156c0 122 112 168 272 168h59v21c0 62 -19 96 -85 96c-57 0 -83 -29 -89 -74h-137c9 124 107 179 235 179s219 -52 219 -194v-341h-141v63c-30 -42 -76 -74 -158 -74zM248 90c64 0 113 35 113 93v44h-56c-84 0 -133 -18 -133 -74
c0 -38 23 -63 76 -63zM285 632c28 0 48 22 48 53c0 30 -20 53 -48 53s-48 -23 -48 -53c0 -31 20 -53 48 -53zM285 574c-63 0 -114 50 -114 111c0 60 51 110 114 110s114 -50 114 -110c0 -61 -51 -111 -114 -111zM235 828l53 139h157l-101 -139h-109z" />
    <glyph glyph-name="aeacute" unicode="&#x1fd;" horiz-adv-x="898" 
d="M623 -11c-92 0 -160 34 -201 97c-45 -63 -106 -97 -206 -97c-102 0 -186 46 -186 156c0 123 111 171 270 171h62v18c0 62 -22 96 -85 96c-58 0 -84 -28 -90 -74h-137c9 124 108 179 230 179c77 0 135 -20 167 -70c42 45 100 70 171 70c132 0 249 -77 249 -266v-39h-367
c5 -88 46 -138 124 -138c65 0 97 29 105 73h136c-16 -113 -104 -176 -242 -176zM248 90c67 0 114 35 114 93v46h-59c-81 0 -131 -17 -131 -73c0 -41 23 -66 76 -66zM502 316h224c-6 81 -42 119 -108 119c-64 0 -107 -44 -116 -119zM402 594l57 159h152l-104 -159h-105z" />
    <glyph glyph-name="cacute" unicode="&#x107;" horiz-adv-x="578" 
d="M240 594l57 159h152l-104 -159h-105zM301 -11c-153 0 -269 95 -269 266v8c0 169 121 272 270 272c121 0 233 -53 246 -203h-137c-10 61 -47 89 -106 89c-75 0 -125 -56 -125 -156v-8c0 -105 47 -159 128 -159c58 0 105 34 112 101h131c-8 -124 -98 -210 -250 -210z" />
    <glyph glyph-name="ccaron" unicode="&#x10d;" horiz-adv-x="578" 
d="M243 595l-114 156h102l69 -63l69 63h100l-117 -156h-109zM301 -11c-153 0 -269 95 -269 266v8c0 169 121 272 270 272c121 0 233 -53 246 -203h-137c-10 61 -47 89 -106 89c-75 0 -125 -56 -125 -156v-8c0 -105 47 -159 128 -159c58 0 105 34 112 101h131
c-8 -124 -98 -210 -250 -210z" />
    <glyph glyph-name="ccircumflex" unicode="&#x109;" horiz-adv-x="578" 
d="M129 595l117 156h109l114 -156h-102l-69 63l-70 -63h-99zM301 -11c-153 0 -269 95 -269 266v8c0 169 121 272 270 272c121 0 233 -53 246 -203h-137c-10 61 -47 89 -106 89c-75 0 -125 -56 -125 -156v-8c0 -105 47 -159 128 -159c58 0 105 34 112 101h131
c-8 -124 -98 -210 -250 -210z" />
    <glyph glyph-name="cdotaccent" unicode="&#x10b;" horiz-adv-x="578" 
d="M301 -11c-153 0 -269 95 -269 266v8c0 169 121 272 270 272c121 0 233 -53 246 -203h-137c-10 61 -47 89 -106 89c-75 0 -125 -56 -125 -156v-8c0 -105 47 -159 128 -159c58 0 105 34 112 101h131c-8 -124 -98 -210 -250 -210zM300 598c-46 0 -81 34 -81 77
c0 44 35 77 81 77c45 0 81 -33 81 -77c0 -43 -36 -77 -81 -77z" />
    <glyph glyph-name="dcaron" unicode="&#x10f;" horiz-adv-x="637" 
d="M613 586l10 174h119l-49 -174h-80zM260 -11c-127 0 -227 91 -227 265v8c0 172 99 273 230 273c84 0 136 -37 165 -90v315h144v-760h-144v87c-27 -53 -91 -98 -168 -98zM303 102c76 0 129 51 129 157v8c0 104 -46 157 -125 157c-81 0 -126 -55 -126 -159v-8
c0 -104 50 -155 122 -155z" />
    <glyph glyph-name="ebreve" unicode="&#x115;" horiz-adv-x="587" 
d="M305 -11c-158 0 -273 99 -273 266v8c0 165 117 272 269 272c135 0 255 -79 255 -266v-40h-377c4 -87 51 -137 130 -137c67 0 100 29 109 73h137c-17 -113 -107 -176 -250 -176zM181 318h234c-5 79 -45 117 -114 117c-65 0 -109 -43 -120 -117zM291 598
c-87 0 -147 57 -152 149h95c4 -33 22 -54 57 -54s55 21 61 54h93c-5 -92 -69 -149 -154 -149z" />
    <glyph glyph-name="ecaron" unicode="&#x11b;" horiz-adv-x="587" 
d="M242 595l-114 156h102l69 -63l69 63h100l-117 -156h-109zM305 -11c-158 0 -273 99 -273 266v8c0 165 117 272 269 272c135 0 255 -79 255 -266v-40h-377c4 -87 51 -137 130 -137c67 0 100 29 109 73h137c-17 -113 -107 -176 -250 -176zM181 318h234
c-5 79 -45 117 -114 117c-65 0 -109 -43 -120 -117z" />
    <glyph glyph-name="edotaccent" unicode="&#x117;" horiz-adv-x="587" 
d="M305 -11c-158 0 -273 99 -273 266v8c0 165 117 272 269 272c135 0 255 -79 255 -266v-40h-377c4 -87 51 -137 130 -137c67 0 100 29 109 73h137c-17 -113 -107 -176 -250 -176zM181 318h234c-5 79 -45 117 -114 117c-65 0 -109 -43 -120 -117zM299 598
c-46 0 -81 34 -81 77c0 44 35 77 81 77c45 0 81 -33 81 -77c0 -43 -36 -77 -81 -77z" />
    <glyph glyph-name="emacron" unicode="&#x113;" horiz-adv-x="587" 
d="M305 -11c-158 0 -273 99 -273 266v8c0 165 117 272 269 272c135 0 255 -79 255 -266v-40h-377c4 -87 51 -137 130 -137c67 0 100 29 109 73h137c-17 -113 -107 -176 -250 -176zM181 318h234c-5 79 -45 117 -114 117c-65 0 -109 -43 -120 -117zM152 625v87h291v-87h-291z
" />
    <glyph glyph-name="eogonek" unicode="&#x119;" horiz-adv-x="587" 
d="M399 -182c-68 0 -113 29 -113 79c0 42 38 74 77 96c-17 -3 -40 -4 -58 -4c-158 0 -273 99 -273 266v8c0 165 117 272 269 272c135 0 255 -79 255 -266v-40h-377c4 -87 51 -137 130 -137c67 0 100 29 109 73h137c-11 -72 -51 -111 -79 -137c-41 -39 -69 -69 -69 -99
c0 -21 13 -31 33 -31c14 0 27 2 38 7v-72c-17 -8 -39 -15 -79 -15zM181 318h234c-5 79 -45 117 -114 117c-65 0 -109 -43 -120 -117z" />
    <glyph glyph-name="gbreve" unicode="&#x11f;" horiz-adv-x="636" 
d="M296 -193c-169 0 -246 74 -260 182h144c9 -46 42 -76 116 -76c88 0 132 46 132 128v79c-29 -51 -91 -97 -168 -97c-127 0 -228 95 -228 250v7c0 150 100 255 230 255c85 0 136 -37 166 -90v78h144v-482c-1 -155 -104 -234 -276 -234zM303 132c76 0 129 54 129 143v7
c0 89 -47 143 -126 143c-81 0 -126 -58 -126 -144v-8c0 -87 51 -141 123 -141zM300 598c-87 0 -147 57 -152 149h95c4 -33 22 -54 57 -54s55 21 61 54h93c-5 -92 -69 -149 -154 -149z" />
    <glyph glyph-name="gcircumflex" unicode="&#x11d;" horiz-adv-x="636" 
d="M131 595l117 156h109l114 -156h-102l-69 63l-70 -63h-99zM296 -193c-169 0 -246 74 -260 182h144c9 -46 42 -76 116 -76c88 0 132 46 132 128v79c-29 -51 -91 -97 -168 -97c-127 0 -228 95 -228 250v7c0 150 100 255 230 255c85 0 136 -37 166 -90v78h144v-482
c-1 -155 -104 -234 -276 -234zM303 132c76 0 129 54 129 143v7c0 89 -47 143 -126 143c-81 0 -126 -58 -126 -144v-8c0 -87 51 -141 123 -141z" />
    <glyph glyph-name="gcommaaccent" unicode="&#x123;" horiz-adv-x="636" 
d="M368 579l-130 21l95 175l82 -26zM296 -193c-169 0 -246 74 -260 182h144c9 -46 42 -76 116 -76c88 0 132 46 132 128v79c-29 -51 -91 -97 -168 -97c-127 0 -228 95 -228 250v7c0 150 100 255 230 255c85 0 136 -37 166 -90v78h144v-482c-1 -155 -104 -234 -276 -234z
M303 132c76 0 129 54 129 143v7c0 89 -47 143 -126 143c-81 0 -126 -58 -126 -144v-8c0 -87 51 -141 123 -141z" />
    <glyph glyph-name="gdotaccent" unicode="&#x121;" horiz-adv-x="636" 
d="M296 -193c-169 0 -246 74 -260 182h144c9 -46 42 -76 116 -76c88 0 132 46 132 128v79c-29 -51 -91 -97 -168 -97c-127 0 -228 95 -228 250v7c0 150 100 255 230 255c85 0 136 -37 166 -90v78h144v-482c-1 -155 -104 -234 -276 -234zM303 132c76 0 129 54 129 143v7
c0 89 -47 143 -126 143c-81 0 -126 -58 -126 -144v-8c0 -87 51 -141 123 -141zM301 598c-46 0 -81 34 -81 77c0 44 35 77 81 77c45 0 81 -33 81 -77c0 -43 -36 -77 -81 -77z" />
    <glyph glyph-name="hbar" unicode="&#x127;" horiz-adv-x="615" 
d="M1 597v83h63v80h145v-80h163v-83h-163v-157c26 52 83 95 170 95c103 0 176 -62 176 -202v-333h-145v312c0 71 -28 105 -92 105c-62 0 -109 -38 -109 -115v-302h-145v597h-63z" />
    <glyph glyph-name="hcircumflex" unicode="&#x125;" horiz-adv-x="615" 
d="M64 0v760h145v-320c26 52 83 95 170 95c103 0 176 -62 176 -202v-333h-145v312c0 71 -28 105 -92 105c-62 0 -109 -38 -109 -115v-302h-145z" />
    <glyph glyph-name="ibreve" unicode="&#x12d;" horiz-adv-x="281" 
d="M68 0v523h144v-523h-144zM140 598c-87 0 -147 57 -152 149h95c4 -33 22 -54 57 -54s55 21 61 54h93c-5 -92 -69 -149 -154 -149z" />
    <glyph glyph-name="imacron" unicode="&#x12b;" horiz-adv-x="281" 
d="M27 625v87h226v-87h-226zM68 0v523h144v-523h-144z" />
    <glyph glyph-name="iogonek" unicode="&#x12f;" horiz-adv-x="281" 
d="M142 -182c-68 0 -112 30 -112 81c0 47 40 80 83 101h-45v523h144v-516c-44 -30 -61 -53 -61 -78c0 -21 13 -31 34 -31c13 0 27 2 37 7v-72c-17 -8 -40 -15 -80 -15zM139 594c-46 0 -82 34 -82 79s36 79 82 79c47 0 83 -34 83 -79s-36 -79 -83 -79z" />
    <glyph glyph-name="itilde" unicode="&#x129;" horiz-adv-x="281" 
d="M68 0v523h144v-523h-144zM201 598c-51 0 -83 38 -113 38c-17 0 -31 -16 -35 -37h-83c7 92 51 141 110 141c49 0 83 -37 115 -37c18 0 30 15 34 37h84c-8 -93 -55 -142 -112 -142z" />
    <glyph glyph-name="idotaccent" horiz-adv-x="281" 
d="M139 594c-46 0 -82 34 -82 79s36 79 82 79c47 0 83 -34 83 -79s-36 -79 -83 -79zM68 0v523h144v-523h-144z" />
    <glyph glyph-name="jcircumflex" unicode="&#x135;" horiz-adv-x="281" 
d="M-1 -187v108c50 4 69 27 69 69v533h144v-532c0 -109 -50 -176 -213 -178zM-30 595l117 156h109l114 -156h-102l-69 63l-70 -63h-99z" />
    <glyph glyph-name="kcommaaccent" unicode="&#x137;" horiz-adv-x="555" 
d="M64 0v760h145v-458l168 221h154l-190 -238l205 -285h-164l-173 247v-247h-145zM268 -228l-82 27l47 170l130 -21z" />
    <glyph glyph-name="lacute" unicode="&#x13a;" horiz-adv-x="280" 
d="M68 0v760h144v-760h-144z" />
    <glyph glyph-name="lcaron" unicode="&#x13e;" horiz-adv-x="280" 
d="M253 586l10 174h119l-49 -174h-80zM68 0v760h144v-760h-144z" />
    <glyph glyph-name="lcommaaccent" unicode="&#x13c;" horiz-adv-x="280" 
d="M119 -228l-82 27l47 170l130 -21zM68 0v760h144v-760h-144z" />
    <glyph glyph-name="ldot" unicode="&#x140;" horiz-adv-x="409" 
d="M68 0v760h144v-760h-144zM342 274c-50 0 -89 39 -89 88c0 48 39 87 89 87c51 0 90 -39 90 -87c0 -49 -39 -88 -90 -88z" />
    <glyph glyph-name="nacute" unicode="&#x144;" horiz-adv-x="615" 
d="M249 594l57 159h152l-104 -159h-105zM64 0v523h145v-83c26 52 83 95 170 95c103 0 176 -62 176 -202v-333h-145v312c0 71 -28 105 -92 105c-62 0 -109 -38 -109 -115v-302h-145z" />
    <glyph glyph-name="napostrophe" unicode="&#x149;" horiz-adv-x="690" 
d="M47 450l-83 34l83 243l129 -46zM139 0v523h145v-83c26 52 83 95 170 95c103 0 176 -62 176 -202v-333h-145v312c0 71 -28 105 -92 105c-62 0 -109 -38 -109 -115v-302h-145z" />
    <glyph glyph-name="ncaron" unicode="&#x148;" horiz-adv-x="615" 
d="M251 595l-114 156h102l69 -63l69 63h100l-117 -156h-109zM64 0v523h145v-83c26 52 83 95 170 95c103 0 176 -62 176 -202v-333h-145v312c0 71 -28 105 -92 105c-62 0 -109 -38 -109 -115v-302h-145z" />
    <glyph glyph-name="ncommaaccent" unicode="&#x146;" horiz-adv-x="615" 
d="M285 -228l-82 27l47 170l130 -21zM64 0v523h145v-83c26 52 83 95 170 95c103 0 176 -62 176 -202v-333h-145v312c0 71 -28 105 -92 105c-62 0 -109 -38 -109 -115v-302h-145z" />
    <glyph glyph-name="obreve" unicode="&#x14f;" horiz-adv-x="616" 
d="M308 99c81 0 128 60 128 159v7c0 100 -47 160 -128 160c-80 0 -128 -58 -128 -158v-8c0 -100 46 -160 128 -160zM307 -11c-156 0 -275 104 -275 267v8c0 164 119 271 276 271s275 -105 275 -268v-8c0 -165 -119 -270 -276 -270zM306 598c-87 0 -147 57 -152 149h95
c4 -33 22 -54 57 -54s55 21 61 54h93c-5 -92 -69 -149 -154 -149z" />
    <glyph glyph-name="ohungarumlaut" unicode="&#x151;" horiz-adv-x="616" 
d="M169 594l42 159h123l-76 -159h-89zM337 594l42 159h124l-76 -159h-90zM308 99c81 0 128 60 128 159v7c0 100 -47 160 -128 160c-80 0 -128 -58 -128 -158v-8c0 -100 46 -160 128 -160zM307 -11c-156 0 -275 104 -275 267v8c0 164 119 271 276 271s275 -105 275 -268v-8
c0 -165 -119 -270 -276 -270z" />
    <glyph glyph-name="omacron" unicode="&#x14d;" horiz-adv-x="616" 
d="M161 625v87h291v-87h-291zM308 99c81 0 128 60 128 159v7c0 100 -47 160 -128 160c-80 0 -128 -58 -128 -158v-8c0 -100 46 -160 128 -160zM307 -11c-156 0 -275 104 -275 267v8c0 164 119 271 276 271s275 -105 275 -268v-8c0 -165 -119 -270 -276 -270z" />
    <glyph glyph-name="oslashacute" unicode="&#x1ff;" horiz-adv-x="616" 
d="M71 -38l-49 44l70 75c-38 45 -60 104 -60 175v8c0 164 119 271 276 271c61 0 117 -16 161 -46l66 71l49 -44l-65 -70c40 -45 64 -106 64 -179v-8c0 -165 -119 -270 -276 -270c-64 0 -121 17 -166 48zM308 98c82 0 129 61 129 160v7c0 30 -5 56 -13 78l-200 -216
c21 -19 49 -29 84 -29zM179 259c0 -28 3 -52 10 -73l197 213c-20 17 -47 26 -78 26c-81 0 -129 -58 -129 -158v-8zM249 594l57 159h152l-104 -159h-105z" />
    <glyph glyph-name="racute" unicode="&#x155;" horiz-adv-x="409" 
d="M165 594l57 159h152l-104 -159h-105zM64 0v523h145v-100c33 70 84 107 169 108v-135c-107 1 -169 -34 -169 -134v-262h-145z" />
    <glyph glyph-name="rcaron" unicode="&#x159;" horiz-adv-x="409" 
d="M167 595l-114 156h102l69 -63l69 63h100l-117 -156h-109zM64 0v523h145v-100c33 70 84 107 169 108v-135c-107 1 -169 -34 -169 -134v-262h-145z" />
    <glyph glyph-name="rcommaaccent" unicode="&#x157;" horiz-adv-x="409" 
d="M116 -228l-82 27l47 170l130 -21zM64 0v523h145v-100c33 70 84 107 169 108v-135c-107 1 -169 -34 -169 -134v-262h-145z" />
    <glyph glyph-name="sacute" unicode="&#x15b;" horiz-adv-x="502" 
d="M191 594l57 159h152l-104 -159h-105zM254 -11c-141 0 -223 62 -228 175h135c6 -47 29 -74 92 -74c56 0 82 21 82 57s-31 51 -106 62c-139 21 -193 61 -193 163c0 109 100 163 207 163c116 0 203 -42 216 -162h-133c-8 43 -32 63 -82 63c-47 0 -74 -22 -74 -54
c0 -33 25 -46 101 -57c131 -19 203 -52 203 -164c0 -113 -82 -172 -220 -172z" />
    <glyph glyph-name="scedilla" unicode="&#x15f;" horiz-adv-x="502" 
d="M235 -222c-67 0 -110 34 -117 90h74c3 -16 15 -31 38 -31c22 0 35 14 35 33c0 18 -13 31 -34 31c-15 0 -25 -5 -31 -10l-36 35l40 66c-110 13 -174 73 -178 172h135c6 -47 29 -74 92 -74c56 0 82 21 82 57s-31 51 -106 62c-139 21 -193 61 -193 163
c0 109 100 163 207 163c116 0 203 -42 216 -162h-133c-8 43 -32 63 -82 63c-47 0 -74 -22 -74 -54c0 -33 25 -46 101 -57c131 -19 203 -52 203 -164c0 -109 -77 -168 -207 -172l-22 -37c53 6 104 -21 104 -84c0 -58 -48 -90 -114 -90z" />
    <glyph glyph-name="scircumflex" unicode="&#x15d;" horiz-adv-x="502" 
d="M78 595l117 156h109l114 -156h-102l-69 63l-70 -63h-99zM254 -11c-141 0 -223 62 -228 175h135c6 -47 29 -74 92 -74c56 0 82 21 82 57s-31 51 -106 62c-139 21 -193 61 -193 163c0 109 100 163 207 163c116 0 203 -42 216 -162h-133c-8 43 -32 63 -82 63
c-47 0 -74 -22 -74 -54c0 -33 25 -46 101 -57c131 -19 203 -52 203 -164c0 -113 -82 -172 -220 -172z" />
    <glyph glyph-name="scommaaccent" unicode="&#x219;" horiz-adv-x="502" 
d="M226 -228l-82 27l47 170l130 -21zM253 -11c-141 0 -223 62 -228 175h135c6 -47 29 -74 92 -74c56 0 82 21 82 57s-31 51 -106 62c-139 21 -193 61 -193 163c0 109 100 163 207 163c116 0 203 -42 216 -162h-133c-8 43 -32 63 -82 63c-47 0 -74 -22 -74 -54
c0 -33 25 -46 101 -57c131 -19 203 -52 203 -164c0 -113 -82 -172 -220 -172z" />
    <glyph glyph-name="tbar" unicode="&#x167;" horiz-adv-x="377" 
d="M19 250v85h67v85h-67v103h67v113h144v-113h110v-103h-110v-85h110v-85h-110v-82c0 -42 21 -62 58 -62c22 0 39 3 55 9v-112c-21 -6 -49 -13 -89 -13c-109 0 -168 56 -168 165v95h-67z" />
    <glyph glyph-name="tcaron" unicode="&#x165;" horiz-adv-x="377" 
d="M285 586l10 174h119l-49 -174h-80zM255 -10c-110 0 -169 56 -169 165v265h-67v103h67v113h144v-113h110v-103h-110v-252c0 -42 21 -62 58 -62c22 0 38 3 55 10v-112c-20 -7 -49 -14 -88 -14z" />
    <glyph glyph-name="tcommaaccent" unicode="&#x163;" horiz-adv-x="377" 
d="M181 -228l-82 27l47 170l130 -21zM255 -10c-110 0 -169 56 -169 165v265h-67v103h67v113h144v-113h110v-103h-110v-252c0 -42 21 -62 58 -62c22 0 38 3 55 10v-112c-20 -7 -49 -14 -88 -14z" />
    <glyph glyph-name="ubreve" unicode="&#x16d;" horiz-adv-x="612" 
d="M238 -11c-102 0 -178 60 -178 197v337h144v-317c0 -71 29 -105 91 -105c61 0 109 38 109 115v307h144v-523h-144v82c-27 -53 -80 -93 -166 -93zM304 598c-87 0 -147 57 -152 149h95c4 -33 22 -54 57 -54s55 21 61 54h93c-5 -92 -69 -149 -154 -149z" />
    <glyph glyph-name="uhungarumlaut" unicode="&#x171;" horiz-adv-x="612" 
d="M238 -11c-102 0 -178 60 -178 197v337h144v-317c0 -71 29 -105 91 -105c61 0 109 38 109 115v307h144v-523h-144v82c-27 -53 -80 -93 -166 -93zM167 594l42 159h123l-76 -159h-89zM335 594l42 159h124l-76 -159h-90z" />
    <glyph glyph-name="umacron" unicode="&#x16b;" horiz-adv-x="612" 
d="M238 -11c-102 0 -178 60 -178 197v337h144v-317c0 -71 29 -105 91 -105c61 0 109 38 109 115v307h144v-523h-144v82c-27 -53 -80 -93 -166 -93zM159 625v87h291v-87h-291z" />
    <glyph glyph-name="uogonek" unicode="&#x173;" horiz-adv-x="612" 
d="M476 -182c-68 0 -112 30 -112 81c0 47 40 80 83 101h-43v82c-27 -53 -80 -93 -166 -93c-102 0 -178 60 -178 197v337h144v-317c0 -71 29 -105 91 -105c61 0 109 38 109 115v307h144v-514c-45 -32 -63 -55 -63 -80c0 -21 13 -31 34 -31c13 0 27 2 37 7v-72
c-17 -8 -42 -15 -80 -15z" />
    <glyph glyph-name="uring" unicode="&#x16f;" horiz-adv-x="612" 
d="M303 618c28 0 48 22 48 53c0 30 -20 53 -48 53s-48 -23 -48 -53c0 -31 20 -53 48 -53zM303 560c-63 0 -114 50 -114 111c0 60 51 110 114 110s114 -50 114 -110c0 -61 -51 -111 -114 -111zM238 -11c-102 0 -178 60 -178 197v337h144v-317c0 -71 29 -105 91 -105
c61 0 109 38 109 115v307h144v-523h-144v82c-27 -53 -80 -93 -166 -93z" />
    <glyph glyph-name="utilde" unicode="&#x169;" horiz-adv-x="612" 
d="M238 -11c-102 0 -178 60 -178 197v337h144v-317c0 -71 29 -105 91 -105c61 0 109 38 109 115v307h144v-523h-144v82c-27 -53 -80 -93 -166 -93zM365 598c-51 0 -83 38 -113 38c-17 0 -31 -16 -35 -37h-83c7 92 51 141 110 141c49 0 83 -37 115 -37c18 0 30 15 34 37h84
c-8 -93 -55 -142 -112 -142z" />
    <glyph glyph-name="wacute" unicode="&#x1e83;" horiz-adv-x="826" 
d="M368 594l57 159h152l-104 -159h-105zM175 0l-159 523h152l93 -352l101 352h119l92 -352l99 352h139l-165 -523h-142l-89 328l-96 -328h-144z" />
    <glyph glyph-name="wcircumflex" unicode="&#x175;" horiz-adv-x="826" 
d="M242 595l117 156h109l114 -156h-102l-69 63l-70 -63h-99zM175 0l-159 523h152l93 -352l101 352h119l92 -352l99 352h139l-165 -523h-142l-89 328l-96 -328h-144z" />
    <glyph glyph-name="wdieresis" unicode="&#x1e85;" horiz-adv-x="826" 
d="M318 600c-41 0 -74 32 -74 72s33 72 74 72s74 -32 74 -72s-33 -72 -74 -72zM522 600c-41 0 -74 32 -74 72s33 72 74 72s74 -32 74 -72s-33 -72 -74 -72zM175 0l-159 523h152l93 -352l101 352h119l92 -352l99 352h139l-165 -523h-142l-89 328l-96 -328h-144z" />
    <glyph glyph-name="wgrave" unicode="&#x1e81;" horiz-adv-x="826" 
d="M175 0l-159 523h152l93 -352l101 352h119l92 -352l99 352h139l-165 -523h-142l-89 328l-96 -328h-144zM374 594l-104 159h152l57 -159h-105z" />
    <glyph glyph-name="ycircumflex" unicode="&#x177;" horiz-adv-x="567" 
d="M130 -178l92 231l-208 470h156l127 -314l117 314h139l-283 -701h-140zM118 595l117 156h109l114 -156h-102l-69 63l-70 -63h-99z" />
    <glyph glyph-name="ygrave" unicode="&#x1ef3;" horiz-adv-x="567" 
d="M130 -178l92 231l-208 470h156l127 -314l117 314h139l-283 -701h-140zM244 594l-104 159h152l57 -159h-105z" />
    <glyph glyph-name="zacute" unicode="&#x17a;" horiz-adv-x="499" 
d="M197 594l57 159h152l-104 -159h-105zM14 0v16l258 395h-232v112h442v-18l-260 -393h250v-112h-458z" />
    <glyph glyph-name="zdotaccent" unicode="&#x17c;" horiz-adv-x="499" 
d="M14 0v16l258 395h-232v112h442v-18l-260 -393h250v-112h-458zM256 598c-46 0 -81 34 -81 77c0 44 35 77 81 77c45 0 81 -33 81 -77c0 -43 -36 -77 -81 -77z" />
    <glyph glyph-name="f_i" unicode="&#xfb01;" horiz-adv-x="647" 
d="M433 0v523h144v-523h-144zM504 594c-46 0 -82 34 -82 79s36 79 82 79c47 0 83 -34 83 -79s-36 -79 -83 -79zM88 0v420h-69v103h69v60c0 122 70 183 186 183c31 0 51 -3 71 -9v-109c-13 5 -28 8 -49 8c-45 0 -64 -29 -64 -69v-64h113v-103h-113v-420h-144z" />
    <glyph glyph-name="f_l" unicode="&#xfb02;" horiz-adv-x="646" 
d="M88 0v420h-69v103h69v60c0 122 70 183 186 183c31 0 51 -3 71 -9v-109c-13 5 -28 8 -49 8c-45 0 -64 -29 -64 -69v-64h113v-103h-113v-420h-144zM433 0v760h144v-760h-144z" />
    <glyph glyph-name="oneeighth" unicode="&#x215b;" horiz-adv-x="773" 
d="M591 -6c-95 0 -156 37 -156 108c0 42 23 75 67 89c-32 14 -52 37 -52 75c0 65 64 102 142 102c80 0 141 -36 141 -101c0 -38 -20 -62 -52 -75c44 -14 66 -46 66 -87c0 -71 -60 -111 -156 -111zM591 68c28 0 49 17 49 46c0 28 -20 45 -49 45c-27 0 -49 -17 -49 -46
c0 -28 22 -45 49 -45zM592 218c24 0 42 16 42 40s-19 39 -42 39s-43 -16 -43 -40s20 -39 43 -39zM106 352v258l-82 -49v89l97 65h95v-363h-110zM48 0l540 715h84l-540 -715h-84z" />
    <glyph glyph-name="onethird" unicode="&#x2153;" horiz-adv-x="780" 
d="M599 -6c-106 0 -152 51 -155 125h96c3 -28 19 -49 53 -49c32 0 48 16 48 42c0 27 -16 41 -50 41h-29v64h28c34 0 49 14 49 39c0 21 -13 36 -40 36s-45 -16 -49 -44h-96c5 70 55 120 147 120c89 0 141 -39 141 -100c0 -40 -24 -66 -64 -78c43 -8 73 -37 73 -82
c0 -69 -53 -114 -152 -114zM106 352v258l-82 -49v89l97 65h95v-363h-110zM53 0l540 715h84l-540 -715h-84z" />
    <glyph glyph-name="threeeighths" unicode="&#x215c;" horiz-adv-x="810" 
d="M628 -6c-95 0 -156 37 -156 108c0 42 23 75 67 89c-32 14 -52 37 -52 75c0 65 64 102 142 102c80 0 141 -36 141 -101c0 -38 -20 -62 -52 -75c44 -14 66 -46 66 -87c0 -71 -60 -111 -156 -111zM628 68c28 0 49 17 49 46c0 28 -20 45 -49 45c-27 0 -49 -17 -49 -46
c0 -28 22 -45 49 -45zM629 218c24 0 42 16 42 40s-19 39 -42 39s-43 -16 -43 -40s20 -39 43 -39zM96 0l540 715h84l-540 -715h-84zM177 345c-106 0 -152 52 -155 126h96c3 -28 19 -49 53 -49c32 0 48 16 48 41c0 27 -16 41 -50 41h-29v64h28c34 0 49 15 49 40
c0 21 -13 36 -40 36s-45 -17 -49 -45h-96c5 70 55 121 147 121c89 0 141 -39 141 -100c0 -41 -24 -67 -64 -78c43 -8 73 -38 73 -82c0 -69 -53 -115 -152 -115z" />
    <glyph glyph-name="fiveeighths" unicode="&#x215d;" horiz-adv-x="798" 
d="M617 -6c-95 0 -156 37 -156 108c0 42 23 75 67 89c-32 14 -52 37 -52 75c0 65 64 102 142 102c80 0 141 -36 141 -101c0 -38 -20 -62 -52 -75c44 -14 66 -46 66 -87c0 -71 -60 -111 -156 -111zM617 68c28 0 49 17 49 46c0 28 -20 45 -49 45c-27 0 -49 -17 -49 -46
c0 -28 22 -45 49 -45zM618 218c24 0 42 16 42 40s-19 39 -42 39s-43 -16 -43 -40s20 -39 43 -39zM170 345c-100 0 -145 51 -147 118h99c4 -22 14 -38 46 -38c28 0 44 21 44 51s-17 49 -46 49c-27 0 -42 -11 -51 -26h-78l8 216h255v-78h-178l-3 -84c15 21 40 41 90 41
c67 0 112 -42 112 -117c0 -81 -57 -132 -151 -132zM84 0l540 715h84l-540 -715h-84z" />
    <glyph glyph-name="twothirds" unicode="&#x2154;" horiz-adv-x="824" 
d="M643 -6c-106 0 -152 51 -155 125h96c3 -28 19 -49 53 -49c32 0 48 16 48 42c0 27 -16 41 -50 41h-29v64h28c34 0 49 14 49 39c0 21 -13 36 -40 36s-45 -16 -49 -44h-96c5 70 55 120 147 120c89 0 141 -39 141 -100c0 -40 -24 -66 -64 -78c43 -8 73 -37 73 -82
c0 -69 -53 -114 -152 -114zM9 352v14l128 134c39 40 63 70 63 100c0 24 -13 39 -38 39c-26 0 -42 -17 -47 -57h-99c4 90 61 138 151 138c93 0 139 -48 139 -113c0 -50 -29 -88 -72 -129l-49 -48h124v-78h-300zM112 0l540 715h84l-540 -715h-84z" />
    <glyph glyph-name="seveneighths" unicode="&#x215e;" horiz-adv-x="769" 
d="M587 -6c-95 0 -156 37 -156 108c0 42 23 75 67 89c-32 14 -52 37 -52 75c0 65 64 102 142 102c80 0 141 -36 141 -101c0 -38 -20 -62 -52 -75c44 -14 66 -46 66 -87c0 -71 -60 -111 -156 -111zM587 68c28 0 49 17 49 46c0 28 -20 45 -49 45c-27 0 -49 -17 -49 -46
c0 -28 22 -45 49 -45zM588 218c24 0 42 16 42 40s-19 39 -42 39s-43 -16 -43 -40s20 -39 43 -39zM68 352l105 277h-152v86h288v-11l-132 -352h-109zM35 0l540 715h84l-540 -715h-84z" />
    <glyph glyph-name="uni24C5" unicode="&#x24c5;" horiz-adv-x="843" 
d="M288 159v401h148c106 0 159 -47 159 -132v-3c0 -85 -57 -127 -154 -127h-45v-139h-108zM396 371h36c39 0 61 19 61 54v3c0 35 -22 50 -61 50h-36v-107zM421 32c174 0 321 132 321 327c0 192 -143 324 -319 324c-179 0 -322 -133 -322 -326c0 -195 148 -325 320 -325z
M421 -16c-209 0 -377 162 -377 373c0 208 167 374 379 374c214 0 377 -165 377 -372c0 -212 -168 -375 -379 -375z" />
    <glyph glyph-name="registered.alt" horiz-adv-x="843" 
d="M270 160v401h153c102 0 160 -41 160 -125v-2c0 -59 -32 -91 -75 -106l99 -168h-111l-86 147h-33v-147h-107zM377 378h41c41 0 60 17 60 51v3c0 34 -21 47 -59 47h-42v-101zM421 32c174 0 321 132 321 327c0 192 -143 324 -319 324c-179 0 -322 -133 -322 -326
c0 -195 148 -325 320 -325zM421 -16c-209 0 -377 162 -377 373c0 208 167 374 379 374c214 0 377 -165 377 -372c0 -212 -168 -375 -379 -375z" />
    <glyph glyph-name="dollar.old" horiz-adv-x="628" 
d="M277 -131v122c-166 12 -237 103 -246 225h144c7 -56 27 -102 102 -113v188c-153 24 -225 80 -225 208c0 110 88 193 225 203v87h71v-88c131 -12 211 -77 223 -202h-139c-9 50 -32 80 -84 90v-172c145 -23 234 -72 234 -207c0 -115 -81 -209 -234 -220v-121h-71zM438 194
c0 47 -19 69 -90 85v-177c56 10 90 45 90 92zM190 511c0 -44 16 -68 87 -83v163c-57 -8 -87 -40 -87 -80z" />
    <glyph glyph-name="Euro.old" horiz-adv-x="682" 
d="M25 374v64h65c21 154 125 265 287 265c155 0 250 -83 264 -236h-145c-10 75 -53 117 -121 117c-78 0 -121 -57 -133 -146h181l-12 -64h-172v-59h161l-11 -65h-147c12 -87 55 -138 135 -138c74 0 115 43 126 129h145c-18 -158 -111 -252 -274 -252
c-166 0 -264 108 -284 261h-65v65h62v59h-62z" />
    <glyph glyph-name="sterling.old" horiz-adv-x="624" 
d="M38 288v96h55c-8 31 -14 66 -14 105c0 134 107 214 247 214c159 0 237 -86 244 -216h-144c-11 65 -37 95 -96 95c-56 0 -95 -39 -95 -101c0 -35 4 -66 10 -97h185v-96h-167c4 -26 7 -52 7 -81c0 -22 -4 -41 -11 -59c46 -14 86 -33 117 -33c42 0 68 19 71 67h140
c-5 -110 -69 -191 -183 -191c-93 0 -158 55 -208 55c-34 0 -49 -22 -52 -46h-120c5 64 37 129 102 152c5 16 9 33 9 55c0 28 -6 54 -13 81h-84z" />
    <glyph glyph-name="yen.old" horiz-adv-x="602" 
d="M69 281v64h140l-192 349h169l126 -259l123 259h151l-183 -349h141v-64h-159v-60h159v-64h-159v-157h-157v157h-159v64h159v60h-159z" />
    <glyph glyph-name="zero.old" horiz-adv-x="663" 
d="M333 108c91 0 136 66 136 189v27c0 121 -47 189 -137 189s-138 -65 -138 -188v-28c0 -124 48 -189 139 -189zM331 -11c-173 0 -292 115 -292 306v28c0 192 122 307 293 307c170 0 292 -111 292 -303v-28c0 -193 -118 -310 -293 -310z" />
    <glyph glyph-name="one.old" horiz-adv-x="418" 
d="M175 0v468l-142 -92v131l161 112h133v-619h-152z" />
    <glyph glyph-name="two.old" horiz-adv-x="570" 
d="M15 0v25l236 223c70 67 119 117 119 179c0 52 -32 86 -92 86s-99 -38 -110 -122h-137c8 146 102 239 255 239c148 0 237 -79 237 -193c0 -88 -62 -152 -147 -230l-100 -93h253v-114h-514z" />
    <glyph glyph-name="three.old" horiz-adv-x="610" 
d="M304 -105c-179 0 -268 96 -274 236h139c7 -72 43 -121 129 -121c83 0 120 43 120 109c0 70 -40 103 -120 103h-55v103h51c78 0 111 39 111 98c0 56 -33 93 -97 93c-68 0 -111 -42 -119 -110h-137c7 126 97 224 260 224c152 0 238 -82 238 -192c0 -80 -44 -130 -115 -157
c84 -21 136 -73 136 -170c0 -128 -97 -216 -267 -216z" />
    <glyph glyph-name="four.old" horiz-adv-x="650" 
d="M377 -94v141h-357v51l314 520h194v-466h95v-105h-95v-141h-151zM177 152h203v350z" />
    <glyph glyph-name="five.old" horiz-adv-x="597" 
d="M291 -105c-171 0 -254 93 -261 217h142c9 -58 36 -100 118 -100c71 0 115 53 115 129c0 75 -47 124 -119 124c-66 0 -107 -24 -135 -58h-86l9 412h443v-121h-328l-3 -189c30 35 81 63 158 63c125 0 214 -85 214 -231c0 -150 -106 -246 -267 -246z" />
    <glyph glyph-name="six.old" horiz-adv-x="636" 
d="M328 -11c-209 0 -285 142 -285 333v32c0 239 125 371 299 371c137 0 224 -67 240 -195h-144c-11 48 -37 78 -98 78c-87 0 -139 -79 -143 -241c31 50 86 88 170 88c131 0 231 -85 231 -226c0 -144 -104 -240 -270 -240zM327 102c71 0 119 51 119 125s-46 126 -119 126
c-72 0 -123 -51 -123 -121c0 -80 51 -130 123 -130z" />
    <glyph glyph-name="seven.old" horiz-adv-x="554" 
d="M106 -94l234 588h-316v124h514v-17l-271 -695h-161z" />
    <glyph glyph-name="eight.old" horiz-adv-x="623" 
d="M311 -11c-153 0 -274 74 -274 211c0 88 57 149 138 178c-64 26 -109 76 -109 150c0 126 116 197 247 197c134 0 245 -72 245 -195c0 -75 -46 -124 -109 -151c82 -29 136 -90 136 -174c0 -138 -118 -216 -274 -216zM312 103c69 0 120 42 120 111s-51 110 -119 110
c-67 0 -122 -40 -122 -110s54 -111 121 -111zM314 423c58 0 101 37 101 97c0 57 -45 95 -102 95s-103 -36 -103 -96c0 -59 48 -96 104 -96z" />
    <glyph glyph-name="nine.old" horiz-adv-x="636" 
d="M297 -105c-148 0 -237 76 -252 202h145c10 -46 42 -85 111 -85c98 0 134 71 139 241c-32 -50 -87 -89 -170 -89c-132 0 -231 85 -231 223c0 147 103 243 270 243c209 0 284 -142 284 -337v-30c0 -234 -103 -368 -296 -368zM309 266c73 0 123 52 123 121
c0 81 -50 130 -123 130c-71 0 -119 -51 -119 -124c0 -75 46 -127 119 -127z" />
    <glyph glyph-name="dollar.tab" 
d="M267 -135v125c-166 12 -238 107 -246 233h142c6 -58 27 -106 104 -118v194c-153 25 -226 84 -226 215c0 115 89 200 226 210v89h70v-90c131 -12 209 -82 222 -209h-138c-9 51 -32 84 -84 94v-179c145 -24 233 -73 233 -213c0 -118 -80 -214 -233 -226v-125h-70zM427 200
c0 48 -19 71 -90 87v-182c57 10 90 46 90 95zM178 527c0 -46 17 -71 89 -86v169c-59 -8 -89 -41 -89 -83z" />
    <glyph glyph-name="Euro.tab" 
d="M13 386v67h53c8 171 108 272 257 272c136 0 223 -74 233 -232h-135c-8 77 -37 113 -98 113c-72 0 -108 -51 -113 -153h173l-12 -67h-161v-61h150l-12 -66h-138c5 -102 39 -149 115 -149c63 0 96 37 105 123h133c-9 -164 -97 -244 -243 -244c-150 0 -245 96 -254 270h-53
v66h53v61h-53z" />
    <glyph glyph-name="sterling.tab" 
d="M38 301v91h53c-8 33 -14 70 -14 112c0 140 105 221 239 221c153 0 229 -80 235 -221h-135c-10 68 -36 97 -95 97c-57 0 -95 -37 -95 -104c0 -38 5 -72 11 -105h180v-91h-164c5 -28 8 -57 8 -88c0 -23 -4 -42 -11 -60c45 -14 85 -33 116 -33c41 0 68 18 72 68h131
c-4 -119 -67 -197 -176 -197c-91 0 -150 56 -200 56c-34 0 -49 -22 -51 -47h-117c5 65 34 130 95 155c6 16 9 35 9 59c0 30 -6 58 -13 87h-78z" />
    <glyph glyph-name="yen.tab" 
d="M70 289v67h145l-184 359h164l117 -253l112 253h145l-177 -359h149v-67h-158v-61h158v-66h-158v-162h-158v162h-155v66h155v61h-155z" />
    <glyph glyph-name="zero.tab" 
d="M303 115c78 0 105 48 105 171v145c0 117 -31 170 -107 170s-109 -52 -109 -173v-143c0 -123 36 -170 111 -170zM300 -11c-160 0 -261 102 -261 295v143c0 196 107 298 262 298s260 -95 260 -292v-145c0 -195 -99 -299 -261 -299z" />
    <glyph glyph-name="one.tab" 
d="M275 0v554l-184 -133v138l199 156h147v-715h-162z" />
    <glyph glyph-name="two.tab" 
d="M30 0v26l244 276c69 81 110 141 110 207c0 59 -31 93 -86 93c-60 0 -93 -36 -102 -132h-148c8 155 87 255 255 255c157 0 241 -83 241 -209c0 -95 -61 -177 -143 -263l-127 -127h271v-126h-515z" />
    <glyph glyph-name="three.tab" 
d="M298 -11c-174 0 -263 91 -269 238h143c6 -70 37 -118 120 -118c78 0 111 40 111 102c0 68 -34 103 -109 103h-56v108h54c70 0 104 34 104 94c0 51 -29 88 -93 88s-106 -39 -112 -107h-140c7 135 100 228 255 228c150 0 237 -81 237 -194c0 -80 -46 -131 -115 -155
c80 -18 133 -77 133 -167c0 -135 -98 -220 -263 -220z" />
    <glyph glyph-name="four.tab" 
d="M346 0v142h-319v54l278 519h187v-462h76v-111h-76v-142h-146zM171 253h177v337z" />
    <glyph glyph-name="five.tab" 
d="M291 -11c-168 0 -246 85 -253 226h142c8 -63 32 -100 110 -100c70 0 107 49 107 128c0 75 -43 122 -113 122c-63 0 -102 -24 -129 -58h-87l9 408h435v-123h-318l-3 -182c28 35 76 67 151 67c129 0 211 -89 211 -234c0 -157 -102 -254 -262 -254z" />
    <glyph glyph-name="six.tab" 
d="M311 -11c-196 0 -273 134 -273 324v48c0 237 119 364 290 364c131 0 217 -62 228 -198h-139c-10 50 -34 80 -91 80c-85 0 -137 -75 -139 -230c29 49 81 87 161 87c126 0 219 -84 219 -228c0 -148 -97 -247 -256 -247zM309 109c67 0 114 50 114 123c0 76 -46 124 -115 124
s-119 -47 -119 -117c0 -83 50 -130 120 -130z" />
    <glyph glyph-name="seven.tab" 
d="M131 0l227 586h-308v129h509v-18l-265 -697h-163z" />
    <glyph glyph-name="eight.tab" 
d="M300 -11c-147 0 -263 73 -263 213c0 87 48 149 125 179c-61 27 -98 77 -98 148c0 124 112 196 238 196c129 0 236 -72 236 -195c0 -72 -39 -120 -99 -148c80 -29 125 -91 125 -176c0 -140 -113 -217 -264 -217zM301 110c65 0 114 39 114 108s-48 108 -113 108
c-64 0 -116 -38 -116 -109c0 -69 52 -107 115 -107zM303 426c55 0 97 35 97 93c0 55 -43 91 -98 91c-54 0 -98 -35 -98 -91c0 -58 45 -93 99 -93z" />
    <glyph glyph-name="nine.tab" 
d="M282 -10c-146 0 -231 69 -244 203h140c10 -51 37 -85 102 -85c91 0 133 73 135 229c-30 -49 -83 -86 -163 -86c-124 0 -219 81 -219 227c0 148 97 248 256 248c181 0 273 -116 273 -322v-62c0 -226 -103 -352 -280 -352zM292 360c69 0 119 45 119 116
c0 82 -50 131 -120 131c-67 0 -114 -49 -114 -123c0 -76 46 -124 115 -124z" />
    <glyph glyph-name="cent.tab" 
d="M280 -135v126c-139 13 -240 106 -240 264v8c0 155 104 254 240 270v96h71v-96c110 -10 202 -70 213 -201h-134c-7 52 -37 81 -79 91v-328c47 11 83 45 88 104h128c-7 -115 -88 -196 -216 -208v-126h-71zM184 257c0 -90 36 -144 96 -160v325c-58 -16 -96 -71 -96 -157v-8z
" />
    <glyph glyph-name="percent.tab" horiz-adv-x="800" 
d="M210 469c41 0 66 32 66 85c0 51 -25 84 -66 84s-66 -31 -66 -84c0 -55 25 -85 66 -85zM209 383c-101 0 -173 73 -173 170s77 169 174 169s173 -70 173 -167c0 -99 -73 -172 -174 -172zM123 0l466 715h90l-466 -715h-90zM591 76c41 0 65 31 65 84c0 52 -24 84 -65 84
s-67 -31 -67 -84c0 -55 26 -84 67 -84zM590 -11c-101 0 -173 73 -173 170s77 170 174 170s173 -70 173 -167c0 -99 -73 -173 -174 -173z" />
    <glyph glyph-name="perthousand.tab" horiz-adv-x="1000" 
d="M178 472c31 0 47 27 47 85c0 57 -16 85 -47 85s-48 -26 -48 -85c0 -60 17 -85 48 -85zM177 390c-85 0 -147 64 -147 166c0 103 66 166 148 166s147 -60 147 -163c0 -104 -62 -169 -148 -169zM63 0l466 715h88l-466 -715h-88zM498 71c32 0 47 27 47 86c0 57 -15 85 -47 85
c-31 0 -47 -27 -47 -85c0 -60 16 -86 47 -86zM498 -11c-86 0 -147 65 -147 167c0 103 66 166 147 166c82 0 147 -60 147 -164s-62 -169 -147 -169zM823 71c31 0 47 27 47 86c0 57 -16 85 -47 85s-48 -27 -48 -85c0 -60 17 -86 48 -86zM822 -11c-86 0 -147 65 -147 167
c0 103 66 166 148 166c81 0 147 -60 147 -164s-63 -169 -148 -169z" />
    <glyph glyph-name="plus.tab" 
d="M241 95v191h-175v109h175v191h118v-191h176v-109h-176v-191h-118z" />
    <glyph glyph-name="minus.tab" 
d="M65 284v113h471v-113h-471z" />
    <glyph glyph-name="multiply.tab" 
d="M147 105l-77 77l153 153l-154 154l77 78l154 -155l153 153l78 -77l-154 -153l155 -154l-78 -78l-154 155z" />
    <glyph glyph-name="divide.tab" 
d="M300 60c-46 0 -83 36 -83 82c0 45 37 82 83 82s83 -37 83 -82c0 -46 -37 -82 -83 -82zM61 289v104h479v-104h-479zM300 458c-46 0 -83 36 -83 82s37 82 83 82s83 -36 83 -82s-37 -82 -83 -82z" />
    <glyph glyph-name="equal.tab" 
d="M78 178v103h444v-103h-444zM78 368v104h444v-104h-444z" />
    <glyph glyph-name="less.tab" 
d="M508 72l-421 236v29l421 235v-132l-226 -117l226 -121v-130z" />
    <glyph glyph-name="greater.tab" 
d="M93 73v132l225 117l-225 121v130l420 -236v-29z" />
    <glyph glyph-name="florin.tab" 
d="M95 312v102h109l20 134c17 123 90 176 201 176c32 0 52 -3 75 -11v-110c-14 5 -32 9 -57 9c-47 0 -70 -29 -77 -75l-18 -123h130v-102h-145l-72 -494h-144l72 494h-94z" />
    <glyph glyph-name="plusminus.tab" 
d="M241 165v171h-180v108h180v172h118v-172h180v-108h-180v-171h-118zM61 0v100h480v-100h-480z" />
    <glyph glyph-name="notequal.tab" 
d="M74 368v104h233l39 99h101l-39 -99h118v-104h-158l-33 -87h191v-103h-231l-38 -99h-101l38 99h-120v103h160l33 87h-193z" />
    <glyph glyph-name="approxequal.tab" 
d="M67 137c7 110 65 157 129 157c79 0 153 -42 204 -42c23 0 41 15 45 45h88c-5 -106 -64 -156 -127 -156c-81 0 -155 41 -205 41c-24 0 -41 -16 -46 -45h-88zM67 342c7 110 65 156 129 156c79 0 153 -41 204 -41c23 0 41 15 45 44h88c-5 -106 -64 -156 -127 -156
c-81 0 -155 42 -205 42c-24 0 -41 -16 -46 -45h-88z" />
    <glyph glyph-name="lessequal.tab" 
d="M499 134l-408 218v29l408 218v-130l-200 -102l200 -101v-132zM91 0v100h408v-100h-408z" />
    <glyph glyph-name="greaterequal.tab" 
d="M101 134v132l200 101l-200 102v130l408 -218v-29zM101 0v100h408v-100h-408z" />
    <glyph glyph-name="parenleft.tab" horiz-adv-x="300" 
d="M182 -148c-67 98 -142 247 -142 461s75 363 142 461h110c-60 -105 -119 -255 -119 -461s59 -355 119 -461h-110z" />
    <glyph glyph-name="parenright.tab" horiz-adv-x="300" 
d="M8 -148c60 106 119 255 119 461s-59 356 -119 461h110c67 -98 142 -247 142 -461s-75 -363 -142 -461h-110z" />
    <glyph glyph-name="bracketleft.tab" horiz-adv-x="300" 
d="M54 -148v924h223v-99h-90v-726h90v-99h-223z" />
    <glyph glyph-name="bracketright.tab" horiz-adv-x="300" 
d="M23 -148v99h90v726h-90v99h223v-924h-223z" />
    <glyph glyph-name="braceleft.tab" horiz-adv-x="300" 
d="M277 -147c-167 0 -233 67 -202 225l19 93c10 52 -4 86 -75 98v94c71 11 85 45 75 96l-19 94c-32 161 35 225 202 225v-98c-69 -2 -90 -28 -76 -114l18 -104c14 -76 -21 -118 -99 -146c79 -27 113 -69 99 -145l-18 -104c-14 -87 7 -114 76 -117v-97z" />
    <glyph glyph-name="braceright.tab" horiz-adv-x="300" 
d="M23 -147v97c69 3 90 30 76 117l-18 104c-14 76 20 118 99 145c-78 28 -113 70 -99 146l18 104c14 86 -7 112 -76 114v98c167 0 234 -64 202 -225l-19 -94c-10 -51 4 -85 75 -96v-94c-71 -12 -85 -46 -75 -98l19 -93c31 -158 -35 -225 -202 -225z" />
    <glyph glyph-name="period.tab" horiz-adv-x="300" 
d="M149 -9c-50 0 -88 39 -88 88c0 48 38 87 88 87c51 0 90 -39 90 -87c0 -49 -39 -88 -90 -88z" />
    <glyph glyph-name="comma.tab" horiz-adv-x="300" 
d="M110 -123l-87 37l88 247l135 -51z" />
    <glyph glyph-name="colon.tab" horiz-adv-x="300" 
d="M149 -9c-50 0 -88 39 -88 88c0 48 38 87 88 87c51 0 90 -39 90 -87c0 -49 -39 -88 -90 -88zM149 281c-50 0 -88 39 -88 88c0 48 38 87 88 87c51 0 90 -39 90 -87c0 -49 -39 -88 -90 -88z" />
    <glyph glyph-name="semicolon.tab" horiz-adv-x="300" 
d="M92 -123l-87 37l88 247l135 -51zM154 281c-50 0 -88 39 -88 88c0 48 38 87 88 87c51 0 90 -39 90 -87c0 -49 -39 -88 -90 -88z" />
    <glyph glyph-name="space.tab" horiz-adv-x="300" 
 />
    <glyph glyph-name="dollar.oldtab" 
d="M268 -131v122c-163 12 -234 103 -241 225h140c7 -56 27 -102 101 -113v188c-150 24 -222 80 -222 208c0 111 87 193 222 203v87h69v-88c129 -12 207 -77 219 -202h-136c-9 50 -32 80 -83 90v-172c143 -23 229 -72 229 -207c0 -115 -80 -209 -229 -220v-121h-69zM426 194
c0 47 -19 69 -89 85v-177c55 10 89 45 89 92zM182 511c0 -44 16 -68 86 -83v163c-56 -7 -86 -39 -86 -80z" />
    <glyph glyph-name="Euro.oldtab" 
d="M28 375v64h51c8 166 105 264 249 264c133 0 217 -71 227 -225h-131c-8 74 -36 109 -95 109c-70 0 -105 -48 -110 -148h168l-11 -64h-157v-59h145l-11 -65h-134c5 -99 38 -144 111 -144c62 0 94 36 103 119h129c-9 -159 -95 -237 -236 -237c-145 0 -238 93 -247 262h-51
v65h51v59h-51z" />
    <glyph glyph-name="sterling.oldtab" 
d="M37 288v97h50c-8 31 -13 65 -13 103c0 137 111 215 242 215c148 0 227 -79 233 -215h-142c-9 66 -29 94 -86 94c-56 0 -90 -35 -90 -101c0 -34 3 -65 8 -96h171v-97h-154c4 -26 6 -52 6 -81c0 -22 -4 -41 -10 -59c43 -13 78 -32 108 -32c41 0 66 18 70 66h136
c-5 -115 -73 -191 -179 -191c-88 0 -143 55 -190 55c-34 0 -48 -22 -51 -46h-122c4 59 37 120 94 146c6 17 10 36 10 61c0 26 -6 53 -13 81h-78z" />
    <glyph glyph-name="yen.oldtab" 
d="M77 289v65h141l-180 340h160l114 -244l110 244h140l-172 -340h145v-65h-154v-59h154v-65h-154v-165h-153v165h-151v65h151v59h-151z" />
    <glyph glyph-name="zero.oldtab" 
d="M302 112c76 0 108 55 108 155v88c0 99 -34 155 -109 155c-76 0 -111 -55 -111 -154v-90c0 -100 36 -154 112 -154zM299 -11c-160 0 -258 109 -258 277v89c0 169 106 275 259 275s259 -101 259 -272v-89c0 -170 -99 -280 -260 -280z" />
    <glyph glyph-name="one.oldtab" 
d="M283 0v468l-186 -127v132l204 146h134v-619h-152z" />
    <glyph glyph-name="two.oldtab" 
d="M35 0v25l236 223c70 67 112 117 112 178c0 53 -31 87 -89 87c-59 0 -95 -38 -106 -122h-137c10 146 101 239 251 239c147 0 234 -79 234 -193c0 -88 -60 -152 -144 -230l-101 -93h251v-114h-507z" />
    <glyph glyph-name="three.oldtab" 
d="M295 -105c-174 0 -260 97 -265 236h139c6 -72 41 -121 124 -121c79 0 115 42 115 108c0 69 -38 104 -114 104h-53v103h50c73 0 106 39 106 99c0 54 -31 92 -95 92c-66 0 -107 -40 -114 -110h-136c6 126 99 224 254 224c149 0 232 -80 232 -192c0 -81 -43 -132 -111 -156
c80 -19 133 -76 133 -167c0 -134 -100 -220 -265 -220z" />
    <glyph glyph-name="four.oldtab" 
d="M342 -94v141h-318v50l276 521h187v-467h82v-104h-82v-141h-145zM163 151h182v346z" />
    <glyph glyph-name="five.oldtab" 
d="M295 -105c-165 0 -244 86 -250 217h137c8 -61 34 -101 112 -101c70 0 109 51 109 130c0 77 -43 124 -113 124c-61 0 -101 -22 -129 -58h-83l8 412h425v-120h-312l-3 -190c27 34 75 65 150 65c124 0 205 -88 205 -228c0 -154 -100 -251 -256 -251z" />
    <glyph glyph-name="six.oldtab" 
d="M313 -11c-185 0 -266 128 -266 316v65c0 228 112 355 280 355c127 0 214 -62 226 -195h-136c-9 50 -36 80 -93 80c-83 0 -130 -77 -133 -242c30 47 80 87 160 87c125 0 213 -80 213 -222c0 -146 -97 -244 -251 -244zM313 103c65 0 113 49 113 123c0 78 -47 127 -114 127
c-66 0 -117 -47 -117 -120c0 -83 51 -130 118 -130z" />
    <glyph glyph-name="seven.oldtab" 
d="M120 -94l235 588h-306v124h506v-17l-273 -695h-162z" />
    <glyph glyph-name="eight.oldtab" 
d="M301 -11c-144 0 -258 74 -258 211c0 88 51 149 129 178c-64 26 -102 76 -102 150c0 126 108 197 232 197c126 0 230 -72 230 -195c0 -75 -40 -124 -102 -151c80 -29 128 -90 128 -174c0 -138 -111 -216 -257 -216zM301 103c65 0 112 41 112 111c0 69 -46 110 -111 110
c-63 0 -114 -40 -114 -111c0 -69 50 -110 113 -110zM303 423c55 0 94 37 94 98c0 57 -42 95 -95 95s-96 -37 -96 -96c0 -60 45 -97 97 -97z" />
    <glyph glyph-name="nine.oldtab" 
d="M281 -106c-142 0 -226 72 -237 203h134c9 -50 37 -87 105 -87c89 0 124 75 126 237c-29 -49 -79 -83 -156 -83c-123 0 -216 79 -216 222c0 145 100 244 253 244c183 0 264 -125 264 -313v-70c0 -226 -93 -353 -273 -353zM291 267c66 0 116 48 116 120
c0 83 -50 131 -117 131c-65 0 -114 -50 -114 -124c0 -78 48 -127 115 -127z" />
    <glyph glyph-name="zero.num" horiz-adv-x="396" 
d="M198 429c43 0 63 33 63 100v10c0 67 -20 99 -64 99c-43 0 -62 -32 -62 -100v-9c0 -68 20 -100 63 -100zM196 345c-108 0 -170 69 -170 183v10c0 115 71 182 172 182c99 0 172 -61 172 -180v-9c0 -115 -66 -186 -174 -186z" />
    <glyph glyph-name="one.num" horiz-adv-x="266" 
d="M103 352v258l-82 -49v89l97 65h95v-363h-110z" />
    <glyph glyph-name="two.num" horiz-adv-x="329" 
d="M6 352v14l128 134c39 40 63 70 63 100c0 24 -13 39 -38 39c-26 0 -42 -17 -47 -57h-99c4 90 61 138 151 138c93 0 139 -48 139 -113c0 -50 -29 -88 -72 -129l-49 -48h124v-78h-300z" />
    <glyph glyph-name="three.num" horiz-adv-x="351" 
d="M174 345c-106 0 -152 52 -155 126h96c3 -28 19 -49 53 -49c32 0 48 16 48 41c0 27 -16 41 -50 41h-29v64h28c34 0 49 15 49 40c0 21 -13 36 -40 36s-45 -17 -49 -45h-96c5 70 55 121 147 121c89 0 141 -39 141 -100c0 -41 -24 -67 -64 -78c43 -8 73 -38 73 -82
c0 -69 -53 -115 -152 -115z" />
    <glyph glyph-name="four.num" horiz-adv-x="366" 
d="M195 352v69h-181v40l155 254h131v-221h47v-73h-47v-69h-105zM113 494h85v147z" />
    <glyph glyph-name="five.num" horiz-adv-x="343" 
d="M167 345c-100 0 -145 51 -147 118h99c4 -22 14 -38 46 -38c28 0 44 21 44 51s-17 49 -46 49c-27 0 -42 -11 -51 -26h-78l8 216h255v-78h-178l-3 -84c15 21 40 41 90 41c67 0 112 -42 112 -117c0 -81 -57 -132 -151 -132z" />
    <glyph glyph-name="six.num" horiz-adv-x="365" 
d="M190 345c-118 0 -164 74 -164 179v10c0 117 71 186 170 186c83 0 132 -38 139 -108h-99c-4 17 -14 30 -39 30c-40 0 -61 -36 -63 -97c17 25 42 42 87 42c67 0 122 -37 122 -114c0 -76 -57 -128 -153 -128zM189 419c29 0 49 22 49 52c0 31 -19 52 -49 52s-49 -22 -49 -50
c0 -33 20 -54 49 -54z" />
    <glyph glyph-name="seven.num" horiz-adv-x="316" 
d="M65 352l105 277h-152v86h288v-11l-132 -352h-109z" />
    <glyph glyph-name="eight.num" horiz-adv-x="356" 
d="M178 345c-95 0 -156 38 -156 108c0 42 23 76 67 90c-32 13 -52 37 -52 75c0 65 64 102 142 102c80 0 141 -36 141 -102c0 -38 -20 -61 -52 -74c44 -15 66 -47 66 -87c0 -71 -60 -112 -156 -112zM178 420c28 0 49 17 49 46c0 27 -20 45 -49 45c-27 0 -49 -17 -49 -46
s22 -45 49 -45zM179 570c24 0 42 15 42 39s-19 39 -42 39s-43 -15 -43 -39s20 -39 43 -39z" />
    <glyph glyph-name="nine.num" horiz-adv-x="365" 
d="M173 345c-86 0 -138 41 -145 110h100c4 -18 15 -31 44 -31c41 0 59 35 60 94c-17 -23 -38 -40 -83 -40c-71 0 -126 36 -126 114c0 77 58 128 152 128c113 0 166 -72 166 -177v-13c0 -117 -59 -185 -168 -185zM175 543c30 0 50 21 50 49c0 33 -19 55 -50 55
c-29 0 -48 -22 -48 -53c0 -30 18 -51 48 -51z" />
    <glyph glyph-name="zero.den" horiz-adv-x="396" 
d="M198 78c43 0 63 33 63 100v9c0 67 -20 99 -64 99c-43 0 -62 -32 -62 -99v-10c0 -67 20 -99 63 -99zM196 -6c-108 0 -170 68 -170 182v10c0 115 71 182 172 182c99 0 172 -61 172 -179v-10c0 -114 -66 -185 -174 -185z" />
    <glyph glyph-name="one.den" horiz-adv-x="267" 
d="M103 0v258l-82 -49v90l97 64h95v-363h-110z" />
    <glyph glyph-name="two.den" horiz-adv-x="329" 
d="M6 0v15l128 134c39 39 63 69 63 100c0 24 -13 39 -38 39c-26 0 -42 -18 -47 -58h-99c4 90 61 138 151 138c93 0 139 -48 139 -113c0 -49 -29 -88 -72 -129l-49 -47h124v-79h-300z" />
    <glyph glyph-name="three.den" horiz-adv-x="351" 
d="M174 -6c-106 0 -152 51 -155 125h96c3 -28 19 -49 53 -49c32 0 48 16 48 42c0 27 -16 41 -50 41h-29v64h28c34 0 49 14 49 39c0 21 -13 36 -40 36s-45 -16 -49 -44h-96c5 70 55 120 147 120c89 0 141 -39 141 -100c0 -40 -24 -66 -64 -78c43 -8 73 -37 73 -82
c0 -69 -53 -114 -152 -114z" />
    <glyph glyph-name="four.den" horiz-adv-x="367" 
d="M195 0v69h-181v40l155 254h131v-220h47v-74h-47v-69h-105zM113 143h85v146z" />
    <glyph glyph-name="five.den" horiz-adv-x="344" 
d="M167 -6c-100 0 -145 50 -147 118h99c4 -23 14 -38 46 -38c28 0 44 20 44 51c0 30 -17 49 -46 49c-27 0 -42 -11 -51 -26h-78l8 215h255v-78h-178l-3 -84c15 21 40 41 90 41c67 0 112 -41 112 -116c0 -82 -57 -132 -151 -132z" />
    <glyph glyph-name="six.den" horiz-adv-x="366" 
d="M190 -6c-118 0 -164 73 -164 178v10c0 118 71 186 170 186c83 0 132 -37 139 -108h-99c-4 17 -14 30 -39 30c-40 0 -61 -36 -63 -96c17 24 42 42 87 42c67 0 122 -37 122 -114s-57 -128 -153 -128zM189 68c29 0 49 21 49 52c0 30 -19 52 -49 52s-49 -22 -49 -51
c0 -33 20 -53 49 -53z" />
    <glyph glyph-name="seven.den" horiz-adv-x="316" 
d="M65 0l105 277h-152v86h288v-11l-132 -352h-109z" />
    <glyph glyph-name="eight.den" horiz-adv-x="356" 
d="M178 -6c-95 0 -156 37 -156 108c0 42 23 75 67 89c-32 14 -52 37 -52 75c0 65 64 102 142 102c80 0 141 -36 141 -101c0 -38 -20 -62 -52 -75c44 -14 66 -46 66 -87c0 -71 -60 -111 -156 -111zM178 68c28 0 49 17 49 46c0 28 -20 45 -49 45c-27 0 -49 -17 -49 -46
c0 -28 22 -45 49 -45zM179 218c24 0 42 16 42 40s-19 39 -42 39s-43 -16 -43 -40s20 -39 43 -39z" />
    <glyph glyph-name="nine.den" horiz-adv-x="366" 
d="M173 -6c-86 0 -138 40 -145 110h100c4 -19 15 -32 44 -32c41 0 59 35 60 95c-17 -23 -38 -41 -83 -41c-71 0 -126 37 -126 115c0 77 58 128 152 128c113 0 166 -72 166 -178v-12c0 -118 -59 -185 -168 -185zM175 191c30 0 50 21 50 49c0 33 -19 55 -50 55
c-29 0 -48 -21 -48 -53c0 -29 18 -51 48 -51z" />
    <glyph glyph-name="zero.sub" horiz-adv-x="396" 
d="M198 -30c43 0 63 33 63 100v10c0 67 -20 99 -64 99c-43 0 -62 -32 -62 -100v-9c0 -68 20 -100 63 -100zM196 -114c-108 0 -170 69 -170 183v10c0 115 71 182 172 182c99 0 172 -61 172 -180v-9c0 -115 -66 -186 -174 -186z" />
    <glyph glyph-name="one.sub" horiz-adv-x="267" 
d="M103 -108v258l-82 -49v90l97 64h95v-363h-110z" />
    <glyph glyph-name="two.sub" horiz-adv-x="329" 
d="M6 -107v14l128 134c39 40 63 70 63 100c0 24 -13 39 -38 39c-26 0 -42 -17 -47 -57h-99c4 90 61 138 151 138c93 0 139 -48 139 -113c0 -50 -29 -88 -72 -129l-49 -48h124v-78h-300z" />
    <glyph glyph-name="three.sub" horiz-adv-x="351" 
d="M174 -114c-106 0 -152 52 -155 126h96c3 -28 19 -49 53 -49c32 0 48 16 48 41c0 27 -16 41 -50 41h-29v64h28c34 0 49 15 49 40c0 21 -13 36 -40 36s-45 -17 -49 -45h-96c5 70 55 121 147 121c89 0 141 -39 141 -100c0 -41 -24 -67 -64 -78c43 -8 73 -38 73 -82
c0 -69 -53 -115 -152 -115z" />
    <glyph glyph-name="four.sub" horiz-adv-x="367" 
d="M195 -107v69h-181v40l155 254h131v-221h47v-73h-47v-69h-105zM113 35h85v147z" />
    <glyph glyph-name="five.sub" horiz-adv-x="344" 
d="M167 -114c-100 0 -145 51 -147 118h99c4 -22 14 -38 46 -38c28 0 44 21 44 51s-17 49 -46 49c-27 0 -42 -11 -51 -26h-78l8 216h255v-78h-178l-3 -84c15 21 40 41 90 41c67 0 112 -42 112 -117c0 -81 -57 -132 -151 -132z" />
    <glyph glyph-name="six.sub" horiz-adv-x="366" 
d="M190 -114c-118 0 -164 74 -164 179v10c0 117 71 186 170 186c83 0 132 -38 139 -108h-99c-4 17 -14 30 -39 30c-40 0 -61 -36 -63 -97c17 25 42 42 87 42c67 0 122 -37 122 -114c0 -76 -57 -128 -153 -128zM189 -40c29 0 49 22 49 52c0 31 -19 52 -49 52s-49 -22 -49 -50
c0 -33 20 -54 49 -54z" />
    <glyph glyph-name="seven.sub" horiz-adv-x="316" 
d="M65 -107l105 277h-152v86h288v-11l-132 -352h-109z" />
    <glyph glyph-name="eight.sub" horiz-adv-x="356" 
d="M178 -114c-95 0 -156 38 -156 108c0 42 23 76 67 90c-32 13 -52 37 -52 75c0 65 64 102 142 102c80 0 141 -36 141 -102c0 -38 -20 -61 -52 -74c44 -15 66 -47 66 -87c0 -71 -60 -112 -156 -112zM178 -39c28 0 49 17 49 46c0 27 -20 45 -49 45c-27 0 -49 -17 -49 -46
s22 -45 49 -45zM179 111c24 0 42 15 42 39s-19 39 -42 39s-43 -15 -43 -39s20 -39 43 -39z" />
    <glyph glyph-name="nine.sub" horiz-adv-x="366" 
d="M173 -114c-86 0 -138 41 -145 110h100c4 -18 15 -31 44 -31c41 0 59 35 60 94c-17 -23 -38 -40 -83 -40c-71 0 -126 36 -126 114c0 77 58 128 152 128c113 0 166 -72 166 -177v-13c0 -117 -59 -185 -168 -185zM175 84c30 0 50 21 50 49c0 33 -19 55 -50 55
c-29 0 -48 -22 -48 -53c0 -30 18 -51 48 -51z" />
    <glyph glyph-name="plus.sub" horiz-adv-x="351" 
d="M135 -63v101h-98v78h98v102h80v-102h99v-78h-99v-101h-80z" />
    <glyph glyph-name="minus.sub" horiz-adv-x="351" 
d="M37 38v78h277v-78h-277z" />
    <glyph glyph-name="zero.sup" horiz-adv-x="396" 
d="M198 487c43 0 63 33 63 100v10c0 67 -20 99 -64 99c-43 0 -62 -32 -62 -100v-9c0 -68 20 -100 63 -100zM196 403c-108 0 -170 69 -170 183v10c0 115 71 182 172 182c99 0 172 -61 172 -180v-9c0 -115 -66 -186 -174 -186z" />
    <glyph glyph-name="one.sup" horiz-adv-x="267" 
d="M103 410v258l-82 -49v89l97 65h95v-363h-110z" />
    <glyph glyph-name="two.sup" horiz-adv-x="329" 
d="M6 410v14l128 134c39 40 63 70 63 100c0 24 -13 39 -38 39c-26 0 -42 -17 -47 -57h-99c4 90 61 138 151 138c93 0 139 -48 139 -113c0 -50 -29 -88 -72 -129l-49 -48h124v-78h-300z" />
    <glyph glyph-name="three.sup" horiz-adv-x="351" 
d="M174 403c-106 0 -152 52 -155 126h96c3 -28 19 -49 53 -49c32 0 48 16 48 41c0 27 -16 41 -50 41h-29v64h28c34 0 49 15 49 40c0 21 -13 36 -40 36s-45 -17 -49 -45h-96c5 70 55 121 147 121c89 0 141 -39 141 -100c0 -41 -24 -67 -64 -78c43 -8 73 -38 73 -82
c0 -69 -53 -115 -152 -115z" />
    <glyph glyph-name="four.sup" horiz-adv-x="367" 
d="M195 410v69h-181v40l155 254h131v-221h47v-73h-47v-69h-105zM113 552h85v147z" />
    <glyph glyph-name="five.sup" horiz-adv-x="344" 
d="M167 403c-100 0 -145 51 -147 118h99c4 -22 14 -38 46 -38c28 0 44 21 44 51s-17 49 -46 49c-27 0 -42 -11 -51 -26h-78l8 216h255v-78h-178l-3 -84c15 21 40 41 90 41c67 0 112 -42 112 -117c0 -81 -57 -132 -151 -132z" />
    <glyph glyph-name="six.sup" horiz-adv-x="366" 
d="M190 403c-118 0 -164 74 -164 179v10c0 117 71 186 170 186c83 0 132 -38 139 -108h-99c-4 17 -14 30 -39 30c-40 0 -61 -36 -63 -97c17 25 42 42 87 42c67 0 122 -37 122 -114c0 -76 -57 -128 -153 -128zM189 477c29 0 49 22 49 52c0 31 -19 52 -49 52s-49 -22 -49 -50
c0 -33 20 -54 49 -54z" />
    <glyph glyph-name="seven.sup" horiz-adv-x="316" 
d="M65 410l105 277h-152v86h288v-11l-132 -352h-109z" />
    <glyph glyph-name="eight.sup" horiz-adv-x="356" 
d="M178 403c-95 0 -156 38 -156 108c0 42 23 76 67 90c-32 13 -52 37 -52 75c0 65 64 102 142 102c80 0 141 -36 141 -102c0 -38 -20 -61 -52 -74c44 -15 66 -47 66 -87c0 -71 -60 -112 -156 -112zM178 478c28 0 49 17 49 46c0 27 -20 45 -49 45c-27 0 -49 -17 -49 -46
s22 -45 49 -45zM179 628c24 0 42 15 42 39s-19 39 -42 39s-43 -15 -43 -39s20 -39 43 -39z" />
    <glyph glyph-name="nine.sup" horiz-adv-x="366" 
d="M173 403c-86 0 -138 41 -145 110h100c4 -18 15 -31 44 -31c41 0 59 35 60 94c-17 -23 -38 -40 -83 -40c-71 0 -126 36 -126 114c0 77 58 128 152 128c113 0 166 -72 166 -177v-13c0 -117 -59 -185 -168 -185zM175 601c30 0 50 21 50 49c0 33 -19 55 -50 55
c-29 0 -48 -22 -48 -53c0 -30 18 -51 48 -51z" />
    <glyph glyph-name="plus.sup" horiz-adv-x="351" 
d="M135 454v101h-98v78h98v102h80v-102h99v-78h-99v-101h-80z" />
    <glyph glyph-name="minus.sup" horiz-adv-x="351" 
d="M37 555v78h277v-78h-277z" />
    <glyph glyph-name="uni2033" unicode="&#x2033;" horiz-adv-x="430" 
d="M39 451l22 264h140l-60 -264h-102zM233 451l22 264h140l-59 -264h-103z" />
    <glyph glyph-name="uni2032" unicode="&#x2032;" horiz-adv-x="236" 
d="M39 451l22 264h140l-60 -264h-102z" />
    <glyph glyph-name="a.alt" horiz-adv-x="627" 
d="M256 -11c-119 0 -223 91 -223 265v8c0 172 104 273 227 273c80 0 129 -36 159 -89v77h144v-523h-144v85c-28 -52 -89 -96 -163 -96zM298 102c71 0 125 51 125 157v8c0 106 -47 157 -120 157c-75 0 -122 -55 -122 -159v-8c0 -104 50 -155 117 -155z" />
    <glyph glyph-name="t.alt" horiz-adv-x="364" 
d="M94 0v420h-75v103h75v113h145v-113h102v-103h-102v-420h-145z" />
    <glyph glyph-name="germandbls.alt" horiz-adv-x="664" 
d="M446 -9c-122 0 -192 62 -195 162h127c3 -40 24 -63 61 -63c35 0 58 17 58 60c0 41 -38 58 -91 85c-57 29 -122 66 -122 141c0 96 124 143 124 211c0 47 -29 71 -87 71c-69 0 -113 -40 -113 -119v-539h-144v536c0 146 109 232 259 232c132 0 226 -59 226 -163
c0 -117 -129 -152 -129 -206c0 -23 28 -33 100 -73c59 -34 116 -81 116 -164c0 -112 -79 -171 -190 -171z" />
    <glyph glyph-name="aacute.alt" horiz-adv-x="627" 
d="M255 594l57 159h152l-104 -159h-105zM256 -11c-119 0 -223 91 -223 265v8c0 172 104 273 227 273c80 0 129 -36 159 -89v77h144v-523h-144v85c-28 -52 -89 -96 -163 -96zM298 102c71 0 125 51 125 157v8c0 106 -47 157 -120 157c-75 0 -122 -55 -122 -159v-8
c0 -104 50 -155 117 -155z" />
    <glyph glyph-name="abreve.alt" horiz-adv-x="627" 
d="M256 -11c-119 0 -223 91 -223 265v8c0 172 104 273 227 273c80 0 129 -36 159 -89v77h144v-523h-144v85c-28 -52 -89 -96 -163 -96zM298 102c71 0 125 51 125 157v8c0 106 -47 157 -120 157c-75 0 -122 -55 -122 -159v-8c0 -104 50 -155 117 -155zM313 598
c-87 0 -147 57 -152 149h95c4 -33 22 -54 57 -54s55 21 61 54h93c-5 -92 -69 -149 -154 -149z" />
    <glyph glyph-name="acircumflex.alt" horiz-adv-x="627" 
d="M144 595l117 156h109l114 -156h-102l-69 63l-70 -63h-99zM256 -11c-119 0 -223 91 -223 265v8c0 172 104 273 227 273c80 0 129 -36 159 -89v77h144v-523h-144v85c-28 -52 -89 -96 -163 -96zM298 102c71 0 125 51 125 157v8c0 106 -47 157 -120 157
c-75 0 -122 -55 -122 -159v-8c0 -104 50 -155 117 -155z" />
    <glyph glyph-name="adieresis.alt" horiz-adv-x="627" 
d="M213 600c-41 0 -74 32 -74 72s33 72 74 72s74 -32 74 -72s-33 -72 -74 -72zM417 600c-41 0 -74 32 -74 72s33 72 74 72s74 -32 74 -72s-33 -72 -74 -72zM256 -11c-119 0 -223 91 -223 265v8c0 172 104 273 227 273c80 0 129 -36 159 -89v77h144v-523h-144v85
c-28 -52 -89 -96 -163 -96zM298 102c71 0 125 51 125 157v8c0 106 -47 157 -120 157c-75 0 -122 -55 -122 -159v-8c0 -104 50 -155 117 -155z" />
    <glyph glyph-name="agrave.alt" horiz-adv-x="627" 
d="M256 -11c-119 0 -223 91 -223 265v8c0 172 104 273 227 273c80 0 129 -36 159 -89v77h144v-523h-144v85c-28 -52 -89 -96 -163 -96zM298 102c71 0 125 51 125 157v8c0 106 -47 157 -120 157c-75 0 -122 -55 -122 -159v-8c0 -104 50 -155 117 -155zM267 594l-104 159h152
l57 -159h-105z" />
    <glyph glyph-name="amacron.alt" horiz-adv-x="627" 
d="M256 -11c-119 0 -223 91 -223 265v8c0 172 104 273 227 273c80 0 129 -36 159 -89v77h144v-523h-144v85c-28 -52 -89 -96 -163 -96zM298 102c71 0 125 51 125 157v8c0 106 -47 157 -120 157c-75 0 -122 -55 -122 -159v-8c0 -104 50 -155 117 -155zM168 625v87h291v-87
h-291z" />
    <glyph glyph-name="aogonek.alt" horiz-adv-x="627" 
d="M490 -182c-68 0 -112 30 -112 81c0 47 40 80 83 101h-42v85c-28 -52 -89 -96 -163 -96c-119 0 -223 91 -223 265v8c0 172 104 273 227 273c80 0 129 -36 159 -89v77h144v-514c-46 -31 -64 -55 -64 -80c0 -21 13 -31 33 -31c14 0 27 2 38 7v-72c-17 -8 -42 -15 -80 -15z
M298 102c71 0 125 51 125 157v8c0 106 -47 157 -120 157c-75 0 -122 -55 -122 -159v-8c0 -104 50 -155 117 -155z" />
    <glyph glyph-name="aring.alt" horiz-adv-x="627" 
d="M310 643c28 0 48 22 48 53c0 30 -20 53 -48 53s-48 -23 -48 -53c0 -31 20 -53 48 -53zM310 585c-63 0 -114 50 -114 111c0 60 51 110 114 110s114 -50 114 -110c0 -61 -51 -111 -114 -111zM256 -11c-119 0 -223 91 -223 265v8c0 172 104 273 227 273
c80 0 129 -36 159 -89v77h144v-523h-144v85c-28 -52 -89 -96 -163 -96zM298 102c71 0 125 51 125 157v8c0 106 -47 157 -120 157c-75 0 -122 -55 -122 -159v-8c0 -104 50 -155 117 -155z" />
    <glyph glyph-name="aringacute.alt" horiz-adv-x="627" 
d="M310 632c28 0 48 22 48 53c0 30 -20 53 -48 53s-48 -23 -48 -53c0 -31 20 -53 48 -53zM310 574c-63 0 -114 50 -114 111c0 60 51 110 114 110s114 -50 114 -110c0 -61 -51 -111 -114 -111zM256 -11c-119 0 -223 91 -223 265v8c0 172 104 273 227 273
c80 0 129 -36 159 -89v77h144v-523h-144v85c-28 -52 -89 -96 -163 -96zM298 102c71 0 125 51 125 157v8c0 106 -47 157 -120 157c-75 0 -122 -55 -122 -159v-8c0 -104 50 -155 117 -155zM261 828l53 139h157l-101 -139h-109z" />
    <glyph glyph-name="atilde.alt" horiz-adv-x="627" 
d="M256 -11c-119 0 -223 91 -223 265v8c0 172 104 273 227 273c80 0 129 -36 159 -89v77h144v-523h-144v85c-28 -52 -89 -96 -163 -96zM298 102c71 0 125 51 125 157v8c0 106 -47 157 -120 157c-75 0 -122 -55 -122 -159v-8c0 -104 50 -155 117 -155zM373 598
c-51 0 -83 38 -113 38c-17 0 -31 -16 -35 -37h-83c7 92 51 141 110 141c49 0 83 -37 115 -37c18 0 30 15 34 37h84c-8 -93 -55 -142 -112 -142z" />
    <glyph glyph-name="tbar.alt" horiz-adv-x="364" 
d="M19 250v85h75v85h-75v103h75v113h145v-113h102v-103h-102v-85h102v-85h-102v-250h-145v250h-75z" />
    <glyph glyph-name="tcaron.alt" horiz-adv-x="364" 
d="M94 0v420h-75v103h75v113h145v-113h102v-103h-102v-420h-145zM288 586l10 174h119l-49 -174h-80z" />
    <glyph glyph-name="tcommaaccent.alt" horiz-adv-x="364" 
d="M145 -228l-82 27l47 170l130 -21zM94 0v420h-75v103h75v113h145v-113h102v-103h-102v-420h-145z" />
    <glyph glyph-name="f.short" horiz-adv-x="360" 
d="M88 0v420h-69v103h69v60c0 122 70 183 186 183c31 0 51 -3 71 -9v-109c-13 5 -28 8 -49 8c-45 0 -64 -29 -64 -69v-64h113v-103h-113v-420h-144z" />
    <glyph glyph-name="f_f.short" horiz-adv-x="675" 
d="M88 0v420h-69v103h69v54c0 121 70 183 186 183c31 0 51 -4 74 -11v-108c-14 4 -31 8 -52 8c-45 0 -64 -28 -64 -69v-57h171v60c0 122 70 183 186 183c31 0 51 -3 71 -9v-109c-14 5 -28 8 -49 8c-46 0 -64 -29 -64 -69v-64h113v-103h-113v-420h-144v420h-171v-420h-144z
" />
    <glyph glyph-name="questiondown.uc" horiz-adv-x="532" 
d="M359 492v-30c0 -78 -52 -127 -99 -173c-37 -35 -68 -67 -68 -107c0 -46 24 -74 77 -74c55 0 92 40 99 103h139c-6 -139 -105 -221 -247 -221c-148 0 -223 74 -223 180c0 69 39 115 82 157c48 46 100 87 106 140v25h134zM293 724c51 0 91 -38 91 -86
c0 -49 -40 -87 -91 -87c-50 0 -91 38 -91 87c0 48 41 86 91 86z" />
    <glyph glyph-name="exclamdown.uc" horiz-adv-x="317" 
d="M77 0l22 492h118l22 -492h-162zM159 551c-50 0 -92 38 -92 87c0 48 42 86 92 86s91 -38 91 -86c0 -49 -41 -87 -91 -87z" />
    <glyph glyph-name="hyphen.uc" horiz-adv-x="390" 
d="M54 267v119h282v-119h-282z" />
    <glyph glyph-name="endash.uc" horiz-adv-x="535" 
d="M45 282v92h445v-92h-445z" />
    <glyph glyph-name="emdash.uc" horiz-adv-x="924" 
d="M45 282v92h834v-92h-834z" />
    <glyph glyph-name="guilsinglleft.uc" horiz-adv-x="312" 
d="M168 109l-127 192l127 192h107l-122 -192l122 -192h-107z" />
    <glyph glyph-name="guilsinglright.uc" horiz-adv-x="312" 
d="M38 109l121 192l-121 192h107l126 -192l-126 -192h-107z" />
    <glyph glyph-name="guillemotleft.uc" horiz-adv-x="487" 
d="M168 109l-127 192l127 192h103l-122 -192l122 -192h-103zM347 109l-127 192l127 192h103l-122 -192l122 -192h-103z" />
    <glyph glyph-name="guillemotright.uc" horiz-adv-x="487" 
d="M38 109l121 192l-121 192h103l126 -192l-126 -192h-103zM217 109l121 192l-121 192h103l126 -192l-126 -192h-103z" />
    <glyph glyph-name="parenleft.uc" horiz-adv-x="343" 
d="M210 -98c-79 94 -164 244 -164 441s85 347 164 441h119c-72 -102 -143 -256 -143 -441s71 -339 143 -441h-119z" />
    <glyph glyph-name="parenright.uc" horiz-adv-x="343" 
d="M15 -98c71 102 142 256 142 441c0 186 -71 339 -142 441h118c79 -94 165 -243 165 -441c0 -197 -86 -347 -165 -441h-118z" />
    <glyph glyph-name="bracketleft.uc" horiz-adv-x="390" 
d="M74 -90v871h276v-107h-131v-657h131v-107h-276z" />
    <glyph glyph-name="bracketright.uc" horiz-adv-x="390" 
d="M41 -90v107h130v657h-130v107h275v-871h-275z" />
    <glyph glyph-name="braceleft.uc" horiz-adv-x="405" 
d="M364 -92c-181 0 -264 61 -240 213l12 78c8 52 -15 95 -102 95v103c87 0 110 43 102 94l-12 78c-24 156 59 213 240 213v-106c-83 -3 -109 -24 -99 -104l11 -93c8 -70 -30 -116 -101 -133c71 -16 109 -62 101 -132l-11 -93c-10 -81 16 -104 99 -107v-106z" />
    <glyph glyph-name="braceright.uc" horiz-adv-x="405" 
d="M40 -92v106c84 3 110 26 99 107l-11 93c-8 70 31 116 102 132c-71 17 -110 63 -102 133l11 93c11 80 -15 101 -99 104v106c181 0 265 -57 241 -213l-12 -78c-8 -51 15 -94 101 -94v-103c-86 0 -109 -43 -101 -95l12 -78c23 -152 -60 -213 -241 -213z" />
    <glyph glyph-name="slash.uc" horiz-adv-x="423" 
d="M6 -84l288 861h119l-288 -861h-119z" />
    <glyph glyph-name="backslash.uc" horiz-adv-x="423" 
d="M297 -84l-287 861h118l288 -861h-119z" />
    <glyph glyph-name="bar.uc" horiz-adv-x="262" 
d="M79 -84v861h104v-861h-104z" />
    <glyph glyph-name="at.uc" horiz-adv-x="919" 
d="M460 -72c-265 0 -419 183 -419 401c0 253 204 427 434 427c234 0 402 -147 402 -358c0 -192 -107 -262 -203 -262c-83 0 -121 29 -133 81c-26 -51 -75 -85 -137 -85c-96 0 -159 68 -159 178c0 136 86 230 193 230c65 0 98 -29 112 -62l7 54h123l-31 -261
c-6 -44 6 -69 43 -69c55 0 107 56 107 197c0 172 -123 289 -323 289s-352 -141 -352 -359c0 -184 113 -333 338 -333c112 0 190 34 244 83h86c-60 -91 -185 -151 -332 -151zM441 228c49 0 95 50 95 132c0 53 -27 83 -77 83s-88 -50 -88 -128c0 -52 26 -87 70 -87z" />
    <glyph glyph-name="uni2009" unicode="&#x2009;" horiz-adv-x="95" 
 />
    </font>
</defs>
</svg>
